osu file format v14

[General]
AudioFilename: audio.mp3
AudioLeadIn: 0
PreviewTime: 271958
Countdown: 0
SampleSet: Soft
StackLeniency: 0.3
Mode: 0
LetterboxInBreaks: 0
WidescreenStoryboard: 0

[Editor]
DistanceSpacing: 0.5
BeatDivisor: 8
GridSize: 8
TimelineZoom: 2.4

[Metadata]
Title:6am Tokyo Funky Town (feat. Akira Complex)
TitleUnicode:6am Tokyo Funky Town (feat. Akira Complex)
Artist:GUHROOVY
ArtistUnicode:GUHROOVY
Creator:Singularius
Version:Dawn Vibes; the City Awakes
Source:
Tags:EDM electronic instrumental drumstep dubstep dnb drum and bass Akira Complex tribute dance music 'n' Nothing Else Will Stand NO+CHIN mappers' guild mg mpg fa featured artist
BeatmapID:4236926
BeatmapSetID:2032591

[Difficulty]
HPDrainRate:4.8
CircleSize:4.1
OverallDifficulty:8.8
ApproachRate:9.4
SliderMultiplier:1.4
SliderTickRate:1

[Events]
//Background and Video events
0,0,"12345555.jpg",0,0
//Break Periods
//Storyboard Layer 0 (Background)
//Storyboard Layer 1 (Fail)
//Storyboard Layer 2 (Pass)
//Storyboard Layer 3 (Foreground)
//Storyboard Layer 4 (Overlay)
//Storyboard Sound Samples

[TimingPoints]
994,352.941176470588,4,2,1,60,1,0
11582,-40,4,2,1,60,0,0
11758,-66.6666666666667,4,2,1,60,0,0
11935,-40,4,2,1,60,0,0
12288,-100,4,2,1,60,0,0
22876,-40,4,2,1,60,0,0
23052,-66.6666666666667,4,2,1,60,0,0
23229,-40,4,2,1,60,0,0
23582,-90.9090909090909,4,2,1,60,0,0
34170,-40,4,2,1,60,0,0
34346,-66.6666666666667,4,2,1,60,0,0
34523,-40,4,2,1,60,0,0
34876,-90.9090909090909,4,2,1,60,0,0
37699,-83.3333333333333,4,2,1,60,0,0
45464,-45.4545454545455,4,2,1,50,0,0
46170,-55.5555555555556,4,2,1,65,0,0
47229,-40,4,2,1,65,0,0
47361,-40,4,2,1,5,0,0
47405,-40,4,2,1,65,0,0
47582,-55.5555555555556,4,2,1,65,0,0
48641,-71.4285714285714,4,2,1,65,0,0
48993,-55.5555555555556,4,2,1,65,0,0
50052,-40,4,2,1,65,0,0
50185,-40,4,2,1,5,0,0
50229,-40,4,2,1,65,0,0
50935,-57.1428571428571,4,2,1,65,0,0
52170,-55.5555555555556,4,2,1,65,0,0
52876,-40,4,2,1,65,0,0
53008,-40,4,2,1,5,0,0
53052,-40,4,2,1,65,0,0
53229,-55.5555555555556,4,2,1,65,0,0
54641,-52.6315789473684,4,2,1,65,0,0
55699,-40,4,2,1,65,0,0
55832,-40,4,2,1,5,0,0
55876,-40,4,2,1,65,0,0
56052,-52.6315789473684,4,2,1,65,0,0
56758,-43.4782608695652,4,2,1,65,0,0
56935,-55.5555555555556,4,2,1,65,0,0
57111,-43.4782608695652,4,2,1,65,0,0
57464,-55.5555555555556,4,2,1,65,0,0
58523,-40,4,2,1,65,0,0
58655,-40,4,2,1,5,0,0
58699,-40,4,2,1,65,0,0
58876,-55.5555555555556,4,2,1,65,0,0
59935,-71.4285714285714,4,2,1,65,0,0
60288,-55.5555555555556,4,2,1,65,0,0
61346,-40,4,2,1,65,0,0
61479,-40,4,2,1,5,0,0
61523,-40,4,2,1,65,0,0
61699,-55.5555555555556,4,2,1,65,0,0
64170,-40,4,2,1,65,0,0
64302,-40,4,2,1,5,0,0
64346,-40,4,2,1,65,0,0
64523,-55.5555555555556,4,2,1,65,0,0
65052,-54.054054054054,4,2,1,65,0,0
65935,-52.6315789473684,4,2,1,65,0,0
66993,-40,4,2,1,65,0,0
67126,-40,4,2,1,5,0,0
67170,-40,4,2,1,65,0,0
67346,-52.6315789473684,4,2,1,65,0,0
68052,-40,4,2,1,70,0,0
69464,-66.6666666666667,4,2,1,70,0,0
69729,-40,4,2,1,70,0,0
70876,-66.6666666666667,4,2,1,70,0,0
71229,-66.6666666666667,4,2,1,70,0,0
71582,-40,4,2,1,70,0,0
72288,-66.6666666666667,4,2,1,70,0,0
72552,-40,4,2,1,70,0,0
73788,-66.6666666666667,4,2,1,70,0,0
73964,-40,4,2,1,70,0,0
74185,-40,4,2,1,5,0,0
74229,-66.6666666666667,4,2,1,70,0,0
74405,-40,4,2,1,70,0,0
75111,-66.6666666666667,4,2,1,70,0,0
75376,-40,4,2,1,70,0,0
76346,-37.037037037037,4,2,1,70,0,0
77229,-40,4,2,1,70,0,0
77935,-66.6666666666667,4,2,1,70,0,0
78199,-40,4,2,1,70,0,0
80052,-35.7142857142857,4,2,1,70,0,0
80846,-66.6666666666667,4,2,1,70,0,0
81023,-35.7142857142857,4,2,1,70,0,0
82258,-33.3333333333333,4,2,1,70,0,0
82523,-35.7142857142857,4,2,1,70,0,0
83141,-100,4,2,1,70,0,0
83405,-35.7142857142857,4,2,1,70,0,0
83670,-100,4,2,1,70,0,0
83935,-35.7142857142857,4,2,1,70,0,0
84552,-100,4,2,1,70,0,0
84817,-35.7142857142857,4,2,1,70,0,0
84993,-28.5714285714286,4,2,1,70,0,0
85346,-35.7142857142857,4,2,1,70,0,0
85523,-41.6666666666667,4,2,1,70,0,0
85699,-33.3333333333333,4,2,1,80,0,0
86405,-66.6666666666667,4,2,1,80,0,0
86758,-33.3333333333333,4,2,1,80,0,0
87817,-66.6666666666667,4,2,1,80,0,0
88170,-33.3333333333333,4,2,1,85,0,0
89229,-50,4,2,1,85,0,0
91346,-33.3333333333333,4,2,1,95,0,1
92052,-30.3030303030303,4,2,1,95,0,1
92405,-25,4,2,1,95,0,1
92935,-55.5555555555556,4,2,1,95,0,1
93464,-66.6666666666667,4,2,1,95,0,1
93817,-25,4,2,1,95,0,1
94170,-33.3333333333333,4,2,1,95,0,1
94876,-28.5714285714286,4,2,1,95,0,1
95229,-25,4,2,1,95,0,1
95758,-66.6666666666667,4,2,1,95,0,1
95935,-38.4615384615385,4,2,1,95,0,1
96111,-31.25,4,2,1,95,0,1
96641,-25,4,2,1,95,0,1
96993,-100,4,2,1,95,0,1
97170,-35.7142857142857,4,2,1,95,0,1
97346,-28.5714285714286,4,2,1,95,0,1
97699,-55.5555555555556,4,2,1,95,0,1
98052,-25,4,2,1,95,0,1
98582,-55.5555555555556,4,2,1,95,0,1
99111,-66.6666666666667,4,2,1,95,0,1
99464,-25,4,2,1,95,0,1
99641,-66.6666666666667,4,2,1,95,0,1
99817,-33.3333333333333,4,2,1,95,0,1
100346,-28.5714285714286,4,2,1,95,0,1
100876,-25,4,2,1,95,0,1
101229,-33.3333333333333,4,2,1,95,0,1
101935,-29.4117647058824,4,2,1,95,0,1
102288,-25.0000000000001,4,2,1,95,0,1
102641,-33.3333333333333,4,2,1,95,0,1
103170,-29.4117647058824,4,2,1,95,0,1
103699,-25.0000000000001,4,2,1,95,0,1
104229,-55.5555555555556,4,2,1,95,0,1
104758,-66.6666666666667,4,2,1,95,0,1
105111,-25,4,2,1,95,0,1
105464,-32.258064516129,4,2,1,95,0,1
105993,-27.027027027027,4,2,1,95,0,1
106523,-25,4,2,1,95,0,1
106876,-66.6666666666667,4,2,1,95,0,1
107229,-31.25,4,2,1,95,0,1
107405,-66.6666666666667,4,2,1,95,0,1
107758,-31.25,4,2,1,95,0,1
107935,-25,4,2,1,95,0,1
108288,-100,4,2,1,95,0,1
108464,-35.7142857142857,4,2,1,95,0,1
108641,-28.5714285714286,4,2,1,95,0,1
108949,-31.25,4,2,1,95,0,1
109346,-25,4,2,1,95,0,1
109876,-55.5555555555556,4,2,1,95,0,1
110405,-66.6666666666667,4,2,1,95,0,1
110758,-25,4,2,1,95,0,1
111111,-28.5714285714286,4,2,1,95,0,1
112170,-25,4,2,1,95,0,1
112523,-28.5714285714286,4,2,1,95,0,1
113758,-66.6666666666667,4,2,1,95,0,1
113935,-37.037037037037,4,2,1,95,0,1
114464,-30.3030303030303,4,2,1,95,0,1
114641,-27.027027027027,4,2,1,95,0,1
114993,-30.3030303030303,4,2,1,95,0,1
115523,-62.5,4,2,1,95,0,1
116052,-33.3333333333333,4,2,1,95,0,1
116405,-28.5714285714286,4,2,1,95,0,1
116758,-33.3333333333333,4,2,1,95,0,1
117464,-28.5714285714286,4,2,1,95,0,1
117817,-30.3030303030303,4,2,1,95,0,1
118170,-43.4782608695652,4,2,1,95,0,1
118876,-27.027027027027,4,2,1,95,0,1
119052,-43.4782608695652,4,2,1,95,0,1
119229,-28.5714285714286,4,2,1,95,0,1
119582,-100,4,2,1,95,0,1
119758,-35.7142857142857,4,2,1,95,0,1
119935,-28.5714285714286,4,2,1,95,0,1
120111,-27.027027027027,4,2,1,95,0,1
120464,-100,4,2,1,95,0,1
120641,-26.3157894736842,4,2,1,95,0,1
121170,-66.6666666666667,4,2,1,95,0,1
121699,-27.027027027027,4,2,1,95,0,1
121876,-33.3333333333333,4,2,1,95,0,1
121964,-30.3030303030303,4,2,1,95,0,1
122052,-33.3333333333333,4,2,1,95,0,1
122229,-28.5714285714286,4,2,1,95,0,1
122405,-33.3333333333333,4,2,1,95,0,1
122935,-31.25,4,2,1,95,0,1
123111,-26.3157894736842,4,2,1,95,0,1
123464,-29.4117647058824,4,2,1,95,0,1
123817,-35.7142857142858,4,2,1,95,0,1
124170,-28.5714285714287,4,2,1,95,0,1
124876,-43.4782608695656,4,2,1,95,0,1
125229,-66.6666666666676,4,2,1,95,0,1
125935,-27.0270270270272,4,2,1,95,0,1
126288,-30.3030303030305,4,2,1,95,0,1
126817,-66.6666666666667,4,2,1,95,0,1
127346,-33.3333333333333,4,2,1,95,0,1
127699,-28.5714285714286,4,2,1,95,0,1
128052,-33.3333333333333,4,2,1,95,0,1
128758,-25,4,2,1,95,0,1
129111,-30.3030303030303,4,2,1,95,0,1
129464,-66.6666666666667,4,2,1,95,0,1
129817,-31.25,4,2,1,95,0,1
130170,-27.027027027027,4,2,1,95,0,1
130346,-31.25,4,2,1,95,0,1
130876,-100,4,2,1,95,0,1
131052,-35.7142857142857,4,2,1,95,0,1
131229,-28.5714285714286,4,2,1,95,0,1
131405,-27.027027027027,4,2,1,95,0,1
131582,-30.3030303030303,4,2,1,95,0,1
131935,-30.3030303030303,4,2,1,95,0,1
132464,-55.5555555555556,4,2,1,95,0,1
132993,-27.027027027027,4,2,1,95,0,1
133170,-55.5555555555556,4,2,1,95,0,1
133699,-33.3333333333333,4,2,1,95,0,1
134405,-28.5714285714286,4,2,1,95,0,1
134758,-40,4,2,1,95,0,1
135641,-55.5555555555556,4,2,1,95,0,1
136523,-100,4,2,1,60,0,0
142170,-83.3333333333333,4,2,1,60,0,0
147111,-50,4,2,1,70,0,0
150199,-71.4285714285714,4,2,1,70,0,0
157258,-100,4,2,1,70,0,0
157699,-66.6666666666667,4,2,1,70,0,0
159111,-66.6666666666667,4,2,1,80,0,0
159199,-66.6666666666667,4,2,0,80,0,0
161229,-66.6666666666667,4,2,0,80,0,0
161935,-58.8235294117647,4,2,0,80,0,0
164052,-66.6666666666667,4,2,0,80,0,0
164405,-71.4285714285714,4,2,0,80,0,0
164758,-66.6666666666667,4,2,0,80,0,0
166876,-66.6666666666667,4,2,0,80,0,0
167582,-66.6666666666667,4,2,0,80,0,0
170229,-55.5555555555556,4,2,0,80,0,0
170405,-66.6666666666667,4,2,0,80,0,0
172523,-66.6666666666667,4,2,0,80,0,0
173229,-58.8235294117647,4,2,0,80,0,0
175346,-62.5,4,2,0,80,0,0
176052,-66.6666666666667,4,2,0,80,0,0
178170,-66.6666666666667,4,2,0,80,0,0
178876,-66.6666666666667,4,2,0,80,0,0
179405,-74.0740740740741,4,2,0,80,0,0
179935,-90.9090909090909,4,2,0,80,0,0
180464,-100,4,2,0,70,0,0
181699,-58.8235294117647,4,2,1,65,0,0
182405,-76.9230769230769,4,2,1,65,0,0
182758,-40,4,2,1,65,0,0
182891,-40,4,2,1,5,0,0
182935,-40,4,2,1,65,0,0
183111,-58.8235294117647,4,2,1,65,0,0
184082,-83.3333333333333,4,2,1,65,0,0
184523,-58.8235294117647,4,2,1,65,0,0
185582,-40,4,2,1,65,0,0
185714,-40,4,2,1,5,0,0
185758,-40,4,2,1,65,0,0
185935,-83.3333333333333,4,2,1,65,0,0
186111,-71.4285714285714,4,2,1,65,0,0
186464,-58.8235294117647,4,2,1,65,0,0
186905,-52.6315789473684,4,2,1,65,0,0
187346,-83.3333333333333,4,2,1,70,0,0
187523,-71.4285714285714,4,2,1,70,0,0
188405,-40,4,2,1,70,0,0
188538,-40,4,2,1,5,0,0
188582,-40,4,2,1,65,0,0
188758,-76.9230769230769,4,2,1,70,0,0
188935,-66.6666666666667,4,2,1,70,0,0
189288,-55.5555555555556,4,2,1,70,0,0
189641,-50,4,2,1,70,0,0
190170,-76.9230769230769,4,2,1,70,0,0
190346,-66.6666666666667,4,2,1,70,0,0
190523,-55.5555555555556,4,2,1,70,0,0
190876,-62.5,4,2,1,70,0,0
191229,-40,4,2,1,70,0,0
191361,-40,4,2,1,5,0,0
191405,-40,4,2,1,65,0,0
191582,-76.9230769230769,4,2,1,70,0,0
191758,-66.6666666666667,4,2,1,70,0,0
192111,-55.5555555555556,4,2,1,70,0,0
192288,-50,4,2,1,75,0,0
192993,-52.6315789473684,4,2,1,80,0,0
194052,-40,4,2,1,80,0,0
194405,-52.6315789473684,4,2,1,80,0,0
195376,-41.6666666666667,4,2,1,80,0,0
195641,-45.4545454545455,4,2,1,80,0,0
195817,-52.6315789473684,4,2,1,80,0,0
196876,-40,4,2,1,80,0,0
197229,-52.6315789473684,4,2,1,80,0,0
197935,-83.3333333333333,4,2,1,80,0,0
198111,-41.6666666666667,4,2,1,80,0,0
198464,-45.4545454545455,4,2,1,80,0,0
198641,-52.6315789473684,4,2,1,80,0,0
199346,-55.5555555555556,4,2,1,80,0,0
199699,-40,4,2,1,80,0,0
200052,-58.8235294117647,4,2,1,80,0,0
200758,-83.3333333333333,4,2,1,80,0,0
201023,-50,4,2,1,80,0,0
201464,-66.6666666666667,4,2,1,80,0,0
202170,-71.4285714285714,4,2,1,75,0,0
202523,-50,4,2,1,70,0,0
204288,-40,4,2,1,70,0,0
204993,-66.6666666666667,4,2,1,70,0,0
205258,-40,4,2,1,70,0,0
206493,-66.6666666666667,4,2,1,70,0,0
206758,-66.6666666666667,4,2,1,70,0,0
207111,-40,4,2,1,70,0,0
207817,-66.6666666666667,4,2,1,70,0,0
208082,-40,4,2,1,70,0,0
209317,-66.6666666666667,4,2,1,70,0,0
209493,-40,4,2,1,70,0,0
209714,-40,4,2,1,5,0,0
209758,-66.6666666666667,4,2,1,70,0,0
209935,-40,4,2,1,70,0,0
210641,-66.6666666666667,4,2,1,70,0,0
210905,-40,4,2,1,70,0,0
213464,-66.6666666666667,4,2,1,70,0,0
213729,-40,4,2,1,70,0,0
215229,-37.037037037037,4,2,1,70,0,0
215582,-35.7142857142857,4,2,1,70,0,0
216376,-66.6666666666667,4,2,1,70,0,0
216552,-35.7142857142857,4,2,1,70,0,0
217788,-66.6666666666667,4,2,1,70,0,0
217964,-35.7142857142857,4,2,1,70,0,0
218670,-100,4,2,1,70,0,0
218846,-35.7142857142857,4,2,1,70,0,0
219199,-100,4,2,1,70,0,0
219464,-35.7142857142857,4,2,1,70,0,0
220082,-100,4,2,1,70,0,0
220258,-35.7142857142857,4,2,1,70,0,0
220611,-66.6666666666667,4,2,1,70,0,0
220788,-35.7142857142857,4,2,1,70,0,0
220876,-33.3333333333333,4,2,1,70,0,0
221052,-41.6666666666667,4,2,1,70,0,0
221229,-33.3333333333333,4,2,1,80,0,0
221935,-66.6666666666667,4,2,1,80,0,0
222288,-33.3333333333333,4,2,1,80,0,0
223346,-66.6666666666667,4,2,1,80,0,0
223699,-33.3333333333333,4,2,1,85,0,0
224758,-50,4,2,1,85,0,0
226876,-76.9230769230769,4,2,1,80,0,0
227405,-76.9230769230769,4,2,1,95,0,1
227582,-25,4,2,1,95,0,1
227846,-100,4,2,1,95,0,1
228111,-27.7777777777778,4,2,1,95,0,1
228376,-100,4,2,1,95,0,1
228641,-33.3333333333333,4,2,1,95,0,1
228993,-28.5714285714286,4,2,1,95,0,1
229699,-33.3333333333333,4,2,1,95,0,1
230052,-31.25,4,2,1,95,0,1
230405,-28.5714285714286,4,2,1,95,0,1
230670,-100,4,2,1,95,0,1
230935,-28.5714285714286,4,2,1,95,0,1
231464,-27.027027027027,4,2,1,95,0,1
231729,-100,4,2,1,95,0,1
231993,-33.3333333333333,4,2,1,95,0,1
232964,-100,4,2,1,95,0,1
233229,-30.3030303030303,4,2,1,95,0,1
233582,-28.5714285714286,4,2,1,95,0,1
233935,-33.3333333333333,4,2,1,95,0,1
234288,-28.5714285714286,4,2,1,95,0,1
235346,-30.3030303030303,4,2,1,95,0,1
235699,-50,4,2,1,95,0,1
235876,-33.3333333333333,4,2,1,95,0,1
236052,-25,4,2,1,95,0,1
236758,-33.3333333333333,4,2,1,95,0,1
237464,-29.4117647058824,4,2,1,95,0,1
237817,-25.0000000000001,4,2,1,95,0,1
238170,-33.3333333333333,4,2,1,95,0,1
238876,-25,4,2,1,95,0,1
239141,-100,4,2,1,95,0,1
239405,-27.7777777777778,4,2,1,95,0,1
239670,-100,4,2,1,95,0,1
239846,-33.3333333333333,4,2,1,95,0,1
240288,-28.5714285714286,4,2,1,95,0,1
240993,-33.3333333333333,4,2,1,95,0,1
241346,-31.25,4,2,1,95,0,1
241699,-28.5714285714286,4,2,1,95,0,1
241964,-100,4,2,1,95,0,1
242229,-28.5714285714286,4,2,1,95,0,1
242758,-27.027027027027,4,2,1,95,0,1
243023,-100,4,2,1,95,0,1
243288,-33.3333333333333,4,2,1,95,0,1
244170,-100,4,2,1,95,0,1
244523,-30.3030303030303,4,2,1,95,0,1
244876,-28.5714285714286,4,2,1,95,0,1
245229,-33.3333333333333,4,2,1,95,0,1
245582,-28.5714285714286,4,2,1,95,0,1
246641,-30.3030303030303,4,2,1,95,0,1
246993,-50,4,2,1,95,0,1
247170,-33.3333333333333,4,2,1,95,0,1
247346,-25,4,2,1,95,0,1
247611,-100,4,2,1,95,0,1
247876,-100,4,2,1,95,0,0
249111,-133.333333333333,4,2,1,95,0,0
249464,-33.3333333333333,4,2,1,95,0,1
249993,-30.3030303030303,4,2,1,95,0,1
250170,-27.027027027027,4,2,1,95,0,1
250523,-30.3030303030303,4,2,1,95,0,1
251052,-62.5,4,2,1,95,0,1
251582,-33.3333333333333,4,2,1,95,0,1
251935,-28.5714285714286,4,2,1,95,0,1
252288,-33.3333333333333,4,2,1,95,0,1
252993,-28.5714285714286,4,2,1,95,0,1
253346,-30.3030303030303,4,2,1,95,0,1
253699,-43.4782608695652,4,2,1,95,0,1
254405,-27.027027027027,4,2,1,95,0,1
254582,-43.4782608695652,4,2,1,95,0,1
254758,-28.5714285714286,4,2,1,95,0,1
255111,-100,4,2,1,95,0,1
255288,-35.7142857142857,4,2,1,95,0,1
255464,-28.5714285714286,4,2,1,95,0,1
255641,-27.027027027027,4,2,1,95,0,1
255993,-100,4,2,1,95,0,1
256170,-26.3157894736842,4,2,1,95,0,1
256699,-66.6666666666667,4,2,1,95,0,1
257229,-27.027027027027,4,2,1,95,0,1
257405,-33.3333333333333,4,2,1,95,0,1
257493,-30.3030303030303,4,2,1,95,0,1
257581,-33.3333333333333,4,2,1,95,0,1
257758,-28.5714285714286,4,2,1,95,0,1
257935,-33.3333333333333,4,2,1,95,0,1
258464,-31.25,4,2,1,95,0,1
258641,-26.3157894736842,4,2,1,95,0,1
258993,-29.4117647058824,4,2,1,95,0,1
259346,-35.7142857142857,4,2,1,95,0,1
259699,-28.5714285714286,4,2,1,95,0,1
260405,-43.4782608695652,4,2,1,95,0,1
260758,-66.6666666666667,4,2,1,95,0,1
261464,-27.027027027027,4,2,1,95,0,1
261817,-30.3030303030303,4,2,1,95,0,1
262346,-66.6666666666667,4,2,1,95,0,1
262876,-33.3333333333333,4,2,1,95,0,1
263229,-28.5714285714286,4,2,1,95,0,1
263582,-33.3333333333333,4,2,1,95,0,1
264288,-25,4,2,1,95,0,1
264641,-30.3030303030303,4,2,1,95,0,1
264993,-66.6666666666667,4,2,1,95,0,1
265346,-31.25,4,2,1,95,0,1
265699,-27.027027027027,4,2,1,95,0,1
265876,-31.25,4,2,1,95,0,1
266405,-100,4,2,1,95,0,1
266581,-35.7142857142857,4,2,1,95,0,1
266758,-28.5714285714286,4,2,1,95,0,1
266934,-27.027027027027,4,2,1,95,0,1
267111,-30.3030303030303,4,2,1,95,0,1
267993,-55.5555555555556,4,2,1,95,0,1
268523,-27.027027027027,4,2,1,95,0,1
268699,-55.5555555555556,4,2,1,95,0,1
269229,-33.3333333333333,4,2,1,95,0,1
269935,-28.5714285714286,4,2,1,95,0,1
270288,-40,4,2,1,95,0,1
271170,-55.5555555555556,4,2,1,95,0,1
272052,-41.6666666666667,4,2,1,90,0,0
273111,-28.5714285714286,4,2,1,90,0,0
273641,-41.6666666666667,4,2,1,90,0,0
274523,-28.5714285714286,4,2,1,90,0,0
274876,-40,4,2,1,90,0,0
275229,-66.6666666666667,4,2,1,90,0,0
275405,-40,4,2,1,90,0,0
275758,-66.6666666666667,4,2,1,90,0,0
275935,-28.5714285714286,4,2,1,90,0,0
276464,-40,4,2,1,90,0,0
277346,-28.5714285714286,4,2,1,90,0,0
277699,-41.6666666666667,4,2,1,90,0,0
278758,-28.5714285714286,4,2,1,90,0,0
279288,-41.6666666666667,4,2,1,90,0,0
280170,-28.5714285714286,4,2,1,90,0,0
280523,-41.6666666666667,4,2,1,90,0,0
280876,-66.6666666666667,4,2,1,90,0,0
281052,-41.6666666666667,4,2,1,90,0,0
281582,-28.5714285714286,4,2,1,90,0,0
282111,-41.6666666666667,4,2,1,90,0,0
282993,-28.5714285714286,4,2,1,90,0,0
283346,-41.6666666666667,4,2,1,90,0,0
284405,-28.5714285714286,4,2,1,90,0,0
284935,-41.6666666666667,4,2,1,90,0,0
285817,-28.5714285714286,4,2,1,90,0,0
286170,-40,4,2,1,90,0,0
286523,-66.6666666666667,4,2,1,90,0,0
286699,-40,4,2,1,90,0,0
287052,-66.6666666666667,4,2,1,90,0,0
287229,-28.5714285714286,4,2,1,90,0,0
287758,-40,4,2,1,90,0,0
288641,-28.5714285714286,4,2,1,90,0,0
288993,-41.6666666666667,4,2,1,90,0,0
290052,-28.5714285714286,4,2,1,90,0,0
290582,-41.6666666666667,4,2,1,90,0,0
291464,-28.5714285714286,4,2,1,90,0,0
294641,-83.3333333333333,4,2,1,90,0,0
295170,-50,4,2,1,90,0,0
295346,-37.037037037037,4,2,1,90,0,0
295699,-45.4545454545455,4,2,1,90,0,0
297111,-40,4,2,1,90,0,0
297464,-41.6666666666667,4,2,1,90,0,0
298170,-37.037037037037,4,2,1,90,0,0
298523,-41.6666666666667,4,2,1,90,0,0
299582,-37.037037037037,4,2,1,90,0,0
299935,-40,4,2,1,90,0,0
300288,-45.4545454545455,4,2,1,90,0,0
300993,-37.037037037037,4,2,1,90,0,0
301346,-45.4545454545455,4,2,1,90,0,0
302758,-40,4,2,1,90,0,0
303111,-45.4545454545455,4,2,1,90,0,0
303817,-37.037037037037,4,2,1,90,0,0
304170,-45.4545454545455,4,2,1,90,0,0
304699,-50,4,2,1,90,0,0
306641,-37.037037037037,4,2,1,90,0,0
306993,-45.4545454545455,4,2,1,90,0,0
308405,-40,4,2,1,90,0,0
308582,-37.037037037037,4,2,1,90,0,0
308758,-40,4,2,1,90,0,0
309464,-37.037037037037,4,2,1,90,0,0
309817,-41.6666666666667,4,2,1,90,0,0
310876,-37.037037037037,4,2,1,90,0,0
311229,-41.6666666666667,4,2,1,90,0,0
311582,-45.4545454545455,4,2,1,90,0,0
312288,-37.037037037037,4,2,1,90,0,0
312641,-45.4545454545455,4,2,1,90,0,0
313699,-37.037037037037,4,2,1,90,0,0
314405,-45.4545454545455,4,2,1,90,0,0
315111,-37.037037037037,4,2,1,90,0,0
315464,-66.6666666666667,4,2,1,90,0,0
315993,-50,4,2,1,90,0,0
316699,-50,4,2,1,50,0,0
317229,-153.846153846154,4,2,1,30,0,0

[Colours]
Combo1 : 176,0,227
Combo2 : 3,112,243
Combo3 : 0,217,196

[HitObjects]
436,367,993,6,0,L|443:318,3,35,2|0|0|0,0:0|0:0|0:0|0:0,0:0:0:0:
436,150,1523,1,0,1:0:0:0:
358,206,1699,2,0,L|351:157,3,35,2|0|0|0,0:0|0:0|0:0|0:0,0:0:0:0:
368,283,2052,1,0,0:0:0:0:
216,332,2405,6,0,L|223:280,3,35,2|0|0|0,0:0|0:0|0:0|0:0,0:0:0:0:
262,122,2935,1,0,0:0:0:0:
279,239,3111,2,0,L|274:204,3,35,2|0|0|0,0:0|0:0|0:0|0:0,0:0:0:0:
26,214,3817,6,0,L|75:221,3,35,2|0|0|0,0:0|0:0|0:0|0:0,0:0:0:0:
96,77,4346,1,0,1:0:0:0:
168,148,4523,2,0,L|119:155,3,35,2|0|0|0,0:0|0:0|0:0|0:0,0:0:0:0:
249,134,4876,1,0,1:0:0:0:
298,7,5229,6,0,L|347:14,3,35,2|0|0|0,0:0|0:0|0:0|0:0,0:0:0:0:
345,155,5758,1,0,1:0:0:0:
249,134,5935,2,0,L|253:168,1,35,2|0,0:0|0:0,0:0:0:0:
268,251,6111,6,0,L|297:255,4,17.5,0|0|0|0|0,1:0|1:0|1:0|1:0|1:0,1:0:0:0:
369,263,6464,1,0,1:0:0:0:
321,366,6641,6,0,L|314:312,3,35,2|0|0|0,0:0|0:0|0:0|0:0,0:0:0:0:
345,155,7170,1,0,1:0:0:0:
369,263,7347,2,0,L|376:209,3,35,2|0|0|0,0:0|0:0|0:0|0:0,0:0:0:0:
401,336,7699,1,0,1:0:0:0:
224,362,8052,6,0,L|233:304,3,35,2|0|0|0,0:0|0:0|0:0|0:0,0:0:0:0:
171,175,8582,1,0,1:0:0:0:
152,294,8758,2,0,L|143:236,3,35,2|0|0|0,0:0|0:0|0:0|0:0,0:0:0:0:
5,136,9464,6,0,L|50:130,3,35,2|0|0|0,0:0|0:0|0:0|0:0,0:0:0:0:
184,172,9993,1,0,1:0:0:0:
114,91,10170,2,0,L|159:97,3,35,2|0|0|0,0:0|0:0|0:0|0:0,0:0:0:0:
204,32,10523,1,0,1:0:0:0:
367,77,10876,6,0,L|322:83,3,35,2|0|0|0,0:0|0:0|0:0|0:0,0:0:0:0:
409,260,11405,1,0,1:0:0:0:
320,257,11582,2,0,B|295:260|277:244|277:244|298:234|326:240,1,87.5,2|0,0:0|0:0,0:0:0:0:
415,177,11758,2,0,L|419:128,2,26.2500010013581,2|0|0,1:2|1:2|1:2,1:2:0:0:
493,259,11935,2,0,B|518:256|536:272|536:272|515:282|486:274,1,87.5,2|0,0:0|0:0,0:0:0:0:
408,335,12111,2,0,B|411:360|395:378|395:378|385:357|392:325,1,87.5,2|0,0:0|0:0,0:0:0:0:
320,257,12288,6,0,L|316:302,3,35,2|0|0|0,0:0|0:0|0:0|0:0,0:0:0:0:
140,336,12817,1,0,1:0:0:0:
165,222,12993,2,0,L|169:267,3,35,2|0|0|0,0:0|0:0|0:0|0:0,0:0:0:0:
221,328,13346,1,0,1:0:0:0:
232,128,13699,6,0,L|228:173,3,35,2|0|0|0,0:0|0:0|0:0|0:0,0:0:0:0:
72,64,14229,1,0,1:0:0:0:
153,2,14406,2,0,L|157:47,3,35
241,45,14758,1,0,1:0:0:0:
413,72,15111,6,0,L|369:65,3,35,2|0|0|0,0:0|0:0|0:0|0:0,0:0:0:0:
364,217,15641,1,0,1:0:0:0:
298,147,15817,2,0,L|342:140,3,35,2|0|0|0,0:0|0:0|0:0|0:0,0:0:0:0:
210,164,16170,1,0,1:0:0:0:
330,293,16523,6,0,L|286:286,3,35,2|0|0|0,0:0|0:0|0:0|0:0,0:0:0:0:
127,297,17052,1,0,1:0:0:0:
213,309,17229,2,0,L|206:265,1,35,2|0,0:0|0:0,0:0:0:0:
196,183,17405,6,0,L|223:187,4,17.5,0|0|0|0|0,1:0|1:0|1:0|1:0|1:0,1:0:0:0:
112,164,17758,1,0,1:0:0:0:
48,64,17935,6,0,L|40:120,3,35,2|0|0|0,0:0|0:0|0:0|0:0,0:0:0:0:
24,216,18464,1,0,1:0:0:0:
112,164,18641,2,0,L|120:220,3,35,2|0|0|0,0:0|0:0|0:0|0:0,0:0:0:0:
212,188,18993,1,0,1:0:0:0:
88,316,19346,6,0,L|96:260,3,35,2|0|0|0,0:0|0:0|0:0|0:0,0:0:0:0:
272,312,19876,1,0,1:0:0:0:
192,376,20052,2,0,L|184:320,3,35,2|0|0|0,0:0|0:0|0:0|0:0,0:0:0:0:
176,260,20405,1,0,1:0:0:0:
336,208,20758,6,0,L|288:204,3,35,2|0|0|0,0:0|0:0|0:0|0:0,0:0:0:0:
396,376,21288,1,0,1:0:0:0:
428,284,21464,2,0,L|393:286,3,35,2|0|0|0,0:0|0:0|0:0|0:0,0:0:0:0:
308,296,21817,1,0,1:0:0:0:
364,132,22170,6,0,L|318:127,3,35,2|0|0|0,0:0|0:0|0:0|0:0,0:0:0:0:
119,114,22699,1,0,1:0:0:0:
204,100,22876,2,0,B|228:92|248:103|248:103|229:118|200:114,1,87.5,2|0,0:0|0:0,0:0:0:0:
127,196,23052,2,0,L|131:244,2,26.2500010013581,2|0|0,1:2|1:0|1:0,1:0:0:0:
35,133,23229,2,0,B|10:140|-9:129|-9:129|9:114|38:118,1,87.5,2|0,0:0|0:0,0:0:0:0:
101,34,23405,2,0,B|93:9|104:-10|104:-10|119:8|115:37,1,87.5,2|0,0:0|0:0,0:0:0:0:
204,100,23582,6,0,L|207:57,3,38.5000011749268,2|0|0|0,0:0|0:0|0:0|0:0,0:0:0:0:
391,54,24111,1,0,1:0:0:0:
302,80,24288,2,0,L|306:36,3,38.5000011749268,2|0|0|0,0:0|0:0|0:0|0:0,0:0:0:0:
293,166,24641,1,0,1:0:0:0:
355,283,24993,6,0,L|351:244,3,38.5000011749268,2|0|0|0,0:0|0:0|0:0|0:0,0:0:0:0:
179,289,25523,1,0,1:0:0:0:
255,346,25699,1,2,0:0:0:0:
258,319,25788,1,0,0:0:0:0:
261,292,25876,1,0,0:0:0:0:
263,265,25964,1,0,0:0:0:0:
240,229,26052,1,0,1:0:0:0:
293,166,26229,1,2,0:0:0:0:
166,121,26405,6,0,L|219:127,3,38.5000011749268,2|0|0|0,0:0|0:0|0:0|0:0,0:0:0:0:
394,104,26935,1,0,1:0:0:0:
285,152,27111,2,0,L|338:158,3,38.5000011749268,2|0|0|0,0:0|0:0|0:0|0:0,0:0:0:0:
402,190,27464,1,0,1:0:0:0:
491,340,27817,6,0,L|438:346,3,38.5000011749268,2|0|0|0,0:0|0:0|0:0|0:0,0:0:0:0:
402,190,28346,1,0,1:0:0:0:
501,257,28523,2,0,L|462:261,1,38.5000011749268,2|0,0:0|0:0,0:0:0:0:
380,293,28699,2,0,L|350:289,4,19.2500005874634,0|0|0|0|0,1:0|1:0|1:0|1:0|1:0,1:0:0:0:
282,279,29052,1,0,1:0:0:0:
259,157,29229,6,0,L|267:203,3,38.5000011749268,2|0|0|0,0:0|0:0|0:0|0:0,0:0:0:0:
76,137,29758,1,0,1:0:0:0:
166,149,29934,2,0,L|174:195,3,38.5000011749268,2|0|0|0,0:0|0:0|0:0|0:0,0:0:0:0:
216,73,30288,1,0,1:0:0:0:
357,121,30641,6,0,L|349:167,3,38.5000011749268,2|0|0|0,0:0|0:0|0:0|0:0,0:0:0:0:
429,311,31170,1,0,1:0:0:0:
482,229,31346,1,2,0:0:0:0:
455,226,31435,1,0,0:0:0:0:
428,223,31523,1,0,0:0:0:0:
401,221,31611,1,0,0:0:0:0:
365,244,31699,1,0,1:0:0:0:
350,158,31876,1,2,0:0:0:0:
304,313,32052,6,0,L|350:320,3,38.5000011749268,2|0|0|0,0:0|0:0|0:0|0:0,0:0:0:0:
263,145,32582,1,0,1:0:0:0:
282,229,32758,2,0,L|236:222,3,38.5000011749268,2|0|0|0,0:0|0:0|0:0|0:0,0:0:0:0:
163,210,33111,1,0,1:0:0:0:
301,139,33464,6,0,L|262:144,3,38.5000011749268,2|0|0|0,0:0|0:0|0:0|0:0,0:0:0:0:
401,246,33993,1,0,1:0:0:0:
314,249,34170,2,0,B|289:254|270:240|270:240|291:228|319:235,1,87.5,2|0,0:0|0:0,0:0:0:0:
486,247,34346,2,0,L|530:248,2,26.2500010013581,2|0|2,1:2|1:0|1:2,1:0:0:0:
400,164,34523,2,0,B|396:138|409:120|409:120|422:140|414:168,1,87.5,2|0,0:0|0:0,0:0:0:0:
409,327,34699,2,0,B|413:352|400:370|400:370|387:350|395:322,1,87.5,2|0,0:0|0:0,0:0:0:0:
314,249,34876,6,0,L|319:292,3,38.5000011749268,2|0|0|0,0:0|0:0|0:0|0:0,0:0:0:0:
160,342,35405,1,0,1:0:0:0:
143,221,35582,2,0,L|148:264,3,38.5000011749268,2|0|0|0,0:0|0:0|0:0|0:0,0:0:0:0:
230,234,35935,1,0,1:0:0:0:
104,104,36288,6,0,L|99:147,3,38.5000011749268,2|0|0|0,0:0|0:0|0:0|0:0,0:0:0:0:
258,8,36817,1,0,1:0:0:0:
201,92,36993,1,2,0:0:0:0:
228,95,37082,1,0,0:0:0:0:
255,98,37170,1,0,0:0:0:0:
282,100,37258,1,0,0:0:0:0:
318,77,37346,1,0,1:0:0:0:
265,185,37523,1,2,0:0:0:0:
385,164,37699,6,0,L|343:159,3,41.9999987182618,2|0|0|0,0:0|0:0|0:0|0:0,0:0:0:0:
134,199,38229,1,0,1:0:0:0:
265,185,38405,2,0,L|223:180,3,41.9999987182618
333,244,38758,1,0,1:0:0:0:
248,333,39111,6,0,L|290:328,3,41.9999987182618,2|0|0|0,0:0|0:0|0:0|0:0,0:0:0:0:
477,355,39641,1,0,1:0:0:0:
382,362,39817,2,0,L|387:320,1,41.9999987182618,2|0,0:0|0:0,0:0:0:0:
333,244,39993,2,0,L|371:239,4,20.9999993591309,0|0|0|0|0,1:0|1:0|1:0|1:0|1:0,1:0:0:0:
345,152,40346,1,0,1:0:0:0:
454,238,40523,6,0,L|446:196,3,41.9999987182618,2|0|0|0,0:0|0:0|0:0|0:0,0:0:0:0:
422,48,41052,1,0,1:0:0:0:
345,152,41229,2,0,L|337:110,3,41.9999987182618,2|0|0|0,0:0|0:0|0:0|0:0,0:0:0:0:
319,20,41582,1,0,1:0:0:0:
235,205,41935,6,0,L|242:163,3,41.9999987182618,2|0|0|0,0:0|0:0|0:0|0:0,0:0:0:0:
135,59,42464,1,0,1:0:0:0:
28,159,42641,1,2,0:0:0:0:
55,156,42730,1,0,0:0:0:0:
82,153,42818,1,0,0:0:0:0:
109,151,42906,1,0,0:0:0:0:
145,174,42994,1,0,1:0:0:0:
87,234,43170,1,2,0:0:0:0:
196,291,43346,6,0,L|148:298,3,41.9999987182618,2|0|0|0,0:0|0:0|0:0|0:0,0:0:0:0:
392,266,43876,1,0,1:0:0:0:
280,331,44052,2,0,L|321:324,3,41.9999987182618,2|0|0|0,0:0|0:0|0:0|0:0,0:0:0:0:
405,356,44405,1,0,1:0:0:0:
479,200,44758,6,0,L|437:193,3,41.9999987182618,2|0|0|0,0:0|0:0|0:0|0:0,0:0:0:0:
379,95,45288,1,0,1:0:0:0:
334,164,45464,2,0,B|342:183|333:201|333:201|320:186|321:162,1,77.0000023498536,2|0,0:0|0:0,0:0:0:0:
286,91,45641,2,0,B|277:71|286:53|286:53|299:68|298:92,1,77.0000023498536,2|0,0:0|0:0,0:0:0:0:
240,172,45817,2,0,B|248:191|239:209|239:209|226:194|227:170,1,77.0000023498536,2|0,0:0|0:0,0:0:0:0:
193,99,45993,2,0,B|184:79|193:61|193:61|206:76|205:100,1,77.0000023498536,2|0,0:0|0:0,0:0:0:0:
165,252,46170,6,0,P|207:238|285:261,1,125.999996154785,6|0,0:0|0:0,0:0:0:0:
390,358,46523,2,0,P|373:305|388:230,1,125.999996154785,2|0,0:0|1:0,0:0:0:0:
476,163,46876,2,0,P|458:210|397:140,1,188.999994232178,2|0,0:0|0:0,0:0:0:0:
395,141,47229,6,0,L|261:127,1,131.25,0|0,1:0|0:0,0:0:0:0:
253,139,47405,1,2,0:0:0:0:
130,20,47582,6,0,P|160:71|157:140,1,125.999996154785,2|0,0:0|0:0,0:0:0:0:
253,139,47935,2,0,P|241:198|192:246,1,125.999996154785,2|0,0:0|1:0,0:0:0:0:
62,292,48288,2,0,B|114:319|164:291|151:285|198:255|250:285,1,188.999994232178,2|0,0:0|0:0,0:0:0:0:
320,348,48641,2,2,L|328:296,3,48.9999985046387,2|2|2|2,1:2|0:0|1:2|0:0,0:0:0:0:
435,368,48993,6,0,P|407:297|416:247,1,125.999996154785,2|0,0:0|0:0,0:0:0:0:
512,124,49346,2,0,P|441:152|391:143,1,125.999996154785,2|0,0:0|1:0,0:0:0:0:
341,41,49699,2,0,B|365:112|336:172|336:172|335:141|314:111,1,188.999994232178,2|0,0:0|0:0,0:0:0:0:
320,120,50052,6,0,L|176:136,1,131.25,0|0,1:0|0:0,0:0:0:0:
185,149,50229,1,0,0:0:0:0:
48,86,50405,5,2,1:2:0:0:
96,158,50582,1,2,0:0:0:0:
79,243,50758,1,2,0:0:0:0:
3,287,50935,2,0,B|64:277|116:307|99:313|161:343|230:339|258:280|225:216|174:218|156:235,1,306.250002920628,2|0,1:2|0:0,0:0:0:0:
178,332,51464,2,0,P|227:299|228:229,1,122.500001168251,0|0,1:0|0:0,0:0:0:0:
185,149,51817,5,0,1:0:0:0:
185,149,51993,1,2,0:0:0:0:
373,117,52170,2,0,P|327:91|254:99,1,125.999996154785,2|0,0:0|1:0,0:0:0:0:
271,6,52523,1,2,0:0:0:0:
419,48,52699,5,2,0:0:0:0:
419,48,52876,2,0,L|400:200,1,131.25,0|0,1:0|0:0,0:0:0:0:
413,187,53052,1,0,0:0:0:0:
468,322,53229,5,2,1:2:0:0:
385,291,53405,1,2,0:0:0:0:
298,310,53582,1,2,0:0:0:0:
235,372,53758,2,0,B|297:288|249:204|239:233|194:145|251:64,1,314.999990386963,2|0,1:2|0:0,0:0:0:0:
319,7,54288,2,0,P|339:30|345:61,1,62.9999980773926,2|0,1:2|0:0,0:0:0:0:
329,4,54464,2,0,P|349:27|355:58,1,62.9999980773926,2|0,0:0|0:0,0:0:0:0:
389,177,54641,6,0,P|336:152|255:158,1,132.999996448517,6|0,0:0|0:0,0:0:0:0:
191,87,54993,2,0,P|137:110|88:175,1,132.999996448517,2|0,0:0|1:0,0:0:0:0:
44,320,55346,2,0,B|2:270|-3:167|114:181|66:245,1,199.499994672775,2|0,0:0|0:0,0:0:0:0:
68,241,55699,6,0,L|213:259,1,131.25,0|0,1:0|0:0,0:0:0:0:
215,248,55876,1,0,0:0:0:0:
348,355,56052,5,2,0:0:0:0:
310,269,56229,1,2,0:0:0:0:
339,180,56405,1,2,0:0:0:0:
424,141,56582,2,0,L|405:71,1,66.4999982242585,2|0,1:2|0:0,0:0:0:0:
264,20,56758,6,0,B|255:41|264:59|264:59|277:44|276:20,1,80.5000015354157,2|0,0:0|0:0,0:0:0:0:
251,171,56935,2,0,L|255:140,2,31.4999990386963,2|0|0,1:2|1:0|1:0,1:0:0:0:
170,8,57111,2,0,B|161:29|170:47|170:47|183:32|182:8,1,80.5000015354157,2|0,0:0|0:0,0:0:0:0:
159,164,57288,2,0,B|168:143|159:125|159:125|146:140|147:164,1,80.5000015354157,2|0,0:0|0:0,0:0:0:0:
49,181,57464,6,0,P|122:182|169:222,1,125.999996154785,6|0,0:0|0:0,0:0:0:0:
158,317,57817,1,2,0:0:0:0:
368,292,57993,1,0,1:0:0:0:
262,305,58170,2,0,B|273:358|363:334|324:230|278:193,1,188.999994232178,2|0,0:0|0:0,0:0:0:0:
290,205,58523,6,0,L|435:197,1,131.25,0|0,1:0|0:0,0:0:0:0:
433,189,58699,1,2,0:0:0:0:
474,61,58876,6,0,P|416:97|350:95,1,125.999996154785,2|0,0:0|0:0,0:0:0:0:
264,37,59229,1,2,0:0:0:0:
183,216,59405,1,0,1:0:0:0:
160,77,59582,2,0,B|157:30|231:12|263:69|224:151,1,188.999994232178,2|0,0:0|0:0,0:0:0:0:
138,300,59935,2,2,L|196:310,3,48.9999985046387,2|2|2|2,1:2|0:0|0:0|0:0,0:0:0:0:
80,373,60288,6,0,P|99:308|87:245,1,125.999996154785,2|0,0:0|0:0,0:0:0:0:
8,188,60641,1,2,0:0:0:0:
227,143,60817,1,0,1:0:0:0:
149,82,60993,2,0,B|198:114|244:94|231:86|287:59|338:90,1,188.999994232178,2|0,0:0|0:0,0:0:0:0:
331,86,61346,6,0,L|314:223,1,131.25,0|0,1:0|0:0,0:0:0:0:
324,231,61523,1,0,0:0:0:0:
376,362,61699,5,2,0:0:0:0:
304,308,61876,1,2,0:0:0:0:
216,302,62052,1,2,0:0:0:0:
113,378,62229,2,0,P|168:313|173:191,1,188.999994232178,2|0,1:2|0:0,0:0:0:0:
43,110,62582,6,0,L|47:152,4,31.4999990386963,0|0|0|0|0,1:0|1:0|1:0|1:0|1:0,1:0:0:0:
190,41,62935,1,0,1:0:0:0:
190,41,63111,1,2,0:0:0:0:
135,121,63288,5,2,0:0:0:0:
227,131,63464,1,2,0:0:0:0:
48,271,63641,1,2,1:2:0:0:
140,261,63817,1,2,0:0:0:0:
102,349,63993,5,2,0:0:0:0:
102,349,64170,2,0,L|242:365,1,131.25,0|0,1:0|0:0,0:0:0:0:
249,357,64346,1,0,0:0:0:0:
368,244,64523,5,2,0:0:0:0:
283,221,64699,1,2,0:0:0:0:
238,144,64876,1,2,0:0:0:0:
349,30,65052,2,0,B|444:29|446:162|297:164|208:87,1,323.749998764992,2|0,1:2|0:0,0:0:0:0:
84,0,65582,2,0,P|91:41|85:65,1,64.7499997529984,2|0,1:2|0:0,0:0:0:0:
96,2,65758,2,0,P|103:43|97:67,1,64.7499997529984,2|0,0:0|0:0,0:0:0:0:
0,97,65935,6,0,P|61:103|128:164,1,132.999996448517,6|0,0:0|0:0,0:0:0:0:
94,247,66288,1,2,0:0:0:0:
283,221,66464,1,0,1:0:0:0:
184,311,66641,5,0,0:0:0:0:
187,284,66729,1,0,0:0:0:0:
190,257,66817,1,0,0:0:0:0:
193,230,66905,1,0,0:0:0:0:
198,200,66993,6,0,L|336:185,1,131.25,0|0,1:0|0:0,0:0:0:0:
341,172,67170,1,0,0:0:0:0:
433,343,67346,5,2,0:0:0:0:
468,256,67523,1,2,0:0:0:0:
436,169,67699,1,2,0:0:0:0:
277,91,67876,2,0,L|268:167,1,66.4999982242585,2|0,1:2|0:0,0:0:0:0:
363,293,68052,6,0,B|339:302|320:291|320:291|337:277|364:280,1,87.5,2|0,0:0|0:0,0:0:0:0:
133,211,68229,1,0,1:0:0:0:
144,253,68317,1,0,1:0:0:0:
157,294,68405,2,0,B|180:285|200:296|200:296|183:310|156:308,1,87.5,2|0,1:2|0:0,0:0:0:0:
360,279,68582,2,0,B|336:289|316:278|316:278|333:264|360:266,1,87.5,2|0,0:0|0:0,0:0:0:0:
124,105,68758,6,0,B|105:123|105:123|172:130,1,87.5,8|0,3:0|0:0,0:0:0:0:
247,136,68935,1,0,0:0:0:0:
247,136,69023,1,0,1:0:0:0:
433,17,69199,5,0,1:0:0:0:
390,5,69288,2,0,B|404:104,1,87.5,8|0,3:0|0:0,0:0:0:0:
469,151,69464,2,2,L|477:216,2,52.5000020027161
501,378,69729,5,0,1:0:0:0:
512,335,69817,2,0,P|433:282|351:280,1,175,8|0,3:0|0:0,0:0:0:0:
145,368,70082,5,0,1:0:0:0:
134,325,70170,2,0,B|239:336,1,87.5,8|0,3:0|0:0,0:0:0:0:
304,344,70346,1,0,0:0:0:0:
304,344,70435,1,0,1:0:0:0:
117,150,70611,5,0,1:0:0:0:
127,192,70699,2,0,B|108:210|108:210|175:217,1,87.5,8|0,3:0|0:0,0:0:0:0:
257,231,70876,2,2,L|252:170,2,52.5000020027161
499,202,71141,5,0,1:0:0:0:
470,232,71229,2,0,L|476:289,3,52.5000020027161,8|0|0|0,3:0|0:0|0:0|0:0,0:0:0:0:
466,16,71582,6,0,B|487:30|487:30|413:37,1,87.5,8|0,3:0|0:0,0:0:0:0:
340,43,71758,1,0,0:0:0:0:
340,43,71846,1,0,1:0:0:0:
138,29,72023,5,0,1:0:0:0:
171,0,72111,2,0,B|162:102,1,87.5,8|0,3:0|0:0,0:0:0:0:
194,161,72288,2,2,L|188:222,2,52.5000020027161
85,375,72552,5,0,1:0:0:0:
65,335,72641,2,0,P|152:301|241:313,1,175,8|0,3:0|0:0,0:0:0:0:
372,330,72905,5,0,1:0:0:0:
330,343,72993,2,0,L|339:246,1,87.5,8|0,3:0|0:0,0:0:0:0:
348,173,73170,1,0,0:0:0:0:
348,173,73258,1,0,1:0:0:0:
114,185,73435,5,0,1:0:0:0:
155,169,73523,2,0,B|175:191|175:191|166:120,1,87.5,8|0,3:0|0:0,0:0:0:0:
161,51,73699,1,2,0:0:0:0:
161,51,73788,2,2,L|231:60,1,52.5000020027161
402,94,73964,5,0,1:0:0:0:
389,52,74052,2,0,P|349:131|351:196,1,131.25,8|0,3:0|0:0,0:0:0:0:
347,172,74229,2,0,L|315:169,3,26.2500010013581,0|0|0|0,1:0|1:0|1:0|1:0,1:0:0:0:
425,265,74405,6,0,L|334:255,1,87.5,8|0,3:0|0:0,0:0:0:0:
256,244,74582,1,0,0:0:0:0:
256,244,74670,1,0,1:0:0:0:
15,138,74846,5,0,1:0:0:0:
32,178,74935,2,0,B|10:198|10:198|81:189,1,87.5,8|0,3:0|0:0,0:0:0:0:
155,177,75111,2,2,L|209:171,2,52.5000020027161
162,7,75376,5,0,1:0:0:0:
118,12,75464,2,0,P|116:99|169:191,1,175,8|0,3:0|0:0,0:0:0:0:
320,273,75729,5,0,1:0:0:0:
248,316,75817,2,0,B|235:268|235:268|253:220,1,87.5,8|0,3:0|0:0,0:0:0:0:
324,191,75993,1,0,0:0:0:0:
324,191,76082,1,0,1:0:0:0:
482,32,76258,5,0,1:0:0:0:
460,74,76346,2,0,B|382:100|309:50|334:48|271:-5|176:24|176:24|223:22|256:49,1,378.000001441956,8|0,3:0|0:0,0:0:0:0:
231,193,76788,1,0,1:0:0:0:
185,206,76876,2,0,L|195:102,1,94.5000003604889,8|0,3:0|0:0,0:0:0:0:
177,199,77052,2,0,L|187:95,1,94.5000003604889,2|0,0:0|0:0,0:0:0:0:
31,349,77229,6,0,B|11:327|11:327|76:333,1,87.5,8|0,3:0|0:0,0:0:0:0:
158,338,77405,1,0,0:0:0:0:
158,338,77493,1,0,1:0:0:0:
22,147,77670,5,0,1:0:0:0:
0,185,77758,2,0,L|91:193,1,87.5,8|0,3:0|0:0,0:0:0:0:
177,199,77935,2,2,L|171:145,2,52.5000020027161
329,365,78199,5,0,1:0:0:0:
286,354,78288,2,0,P|269:262|300:172,1,175,8|0,3:0|0:0,0:0:0:0:
422,78,78552,5,0,1:0:0:0:
448,113,78641,2,0,L|354:103,1,87.5,8|0,3:0|0:0,0:0:0:0:
272,94,78817,1,0,0:0:0:0:
272,94,78905,1,0,1:0:0:0:
56,96,79082,5,0,1:0:0:0:
80,59,79170,2,0,B|100:37|100:37|91:108,1,87.5,8|0,3:0|0:0,0:0:0:0:
74,210,79346,6,0,B|50:219|31:208|31:208|48:194|75:197,1,87.5,2|0,0:0|0:0,0:0:0:0:
87,317,79523,2,0,B|63:326|44:315|44:315|61:301|88:304,1,87.5,2|0,0:0|0:0,0:0:0:0:
305,246,79699,6,0,B|329:255|348:244|348:244|331:230|304:233,1,87.5,8|0,3:0|0:0,0:0:0:0:
292,353,79876,2,0,B|316:362|335:351|335:351|318:337|291:340,1,87.5,2|0,0:0|0:0,0:0:0:0:
190,79,80052,6,0,L|296:66,1,97.9999970092774,8|0,3:0|0:0,0:0:0:0:
375,51,80229,1,0,0:0:0:0:
375,51,80317,1,0,1:0:0:0:
482,246,80493,5,0,1:0:0:0:
464,198,80582,2,0,L|358:181,1,97.9999970092774,8|0,3:0|0:0,0:0:0:0:
277,167,80758,1,2,0:0:0:0:
277,167,80846,2,2,L|216:158,1,52.5000020027161
346,355,81023,5,0,1:0:0:0:
391,335,81111,2,0,L|285:318,1,97.9999970092774,8|0,3:0|0:0,0:0:0:0:
198,305,81288,1,0,0:0:0:0:
198,305,81376,1,0,1:0:0:0:
165,341,81464,6,0,B|145:367|145:367|152:300,1,97.9999970092774,8|0,3:0|0:0,0:0:0:0:
165,212,81641,1,0,0:0:0:0:
165,212,81729,1,0,1:0:0:0:
190,25,81905,5,0,1:0:0:0:
168,68,81993,2,0,B|142:88|142:88|209:81,1,97.9999970092774,8|0,3:0|0:0,0:0:0:0:
240,159,82170,1,0,0:0:0:0:
240,159,82258,2,0,B|183:164|183:164|188:168|188:168|144:172,1,105.000004005432,2|0,1:2|0:0,0:0:0:0:
8,116,82435,5,0,1:0:0:0:
36,72,82523,2,0,B|56:46|56:46|49:113,1,97.9999970092774,8|0,3:0|0:0,0:0:0:0:
58,311,82699,5,0,0:0:0:0:
58,311,82788,1,0,1:0:0:0:
18,282,82876,2,0,B|102:271|102:271|138:286|138:286|229:273,1,195.999994018555,8|0,3:0|0:0,0:0:0:0:
296,290,83141,2,0,L|302:248,1,35,0|0,1:0|0:0,0:0:0:0:
427,50,83317,5,0,1:0:0:0:
456,88,83405,2,0,B|316:71|316:71|367:104,1,195.999994018555,8|0,3:0|0:0,0:0:0:0:
448,166,83670,2,0,L|407:161,1,35,0|0,1:0|0:0,0:0:0:0:
165,120,83846,5,0,1:0:0:0:
183,74,83935,2,0,B|206:17|206:17|217:163,1,195.999994018555,8|0,3:0|0:0,0:0:0:0:
341,347,84199,5,0,1:0:0:0:
363,303,84288,2,0,B|278:294|278:294|268:306|268:306|261:292|261:292|174:283,1,195.999994018555,8|0,3:0|0:0,0:0:0:0:
79,334,84552,2,0,L|122:327,1,35,0|0,1:0|0:0,0:0:0:0:
306,168,84729,5,0,1:0:0:0:
328,211,84817,2,0,L|203:198,1,97.9999970092774,8|0,3:0|0:0,0:0:0:0:
102,244,84993,2,0,P|132:94|227:209,1,367.500003504753,2|0,0:0|0:0,0:0:0:0:
108,355,85346,6,0,B|84:336|84:336|154:326,1,97.9999970092774,8|0,3:0|0:0,0:0:0:0:
244,339,85523,2,0,L|237:294,3,41.9999987182618,0|0|0|0,1:0|1:0|1:0|1:0,1:0:0:0:
346,341,85699,6,0,B|329:213|329:213|346:159|346:159|325:26,1,315.000012016297,8|0,3:0|0:0,0:0:0:0:
421,101,86052,1,8,3:0:0:0:
244,339,86229,2,0,B|262:306|262:306|251:220,1,105.000004005432,8|0,3:0|0:0,0:0:0:0:
160,195,86405,2,0,L|339:211,1,157.500006008148,8|0,3:0|0:0,0:0:0:0:
116,36,86758,6,0,B|140:271|140:271|158:195,1,315.000012016297,8|0,3:0|0:0,0:0:0:0:
28,45,87111,2,0,B|51:280|51:280|18:205,1,315.000012016297,8|0,3:0|0:0,0:0:0:0:
219,28,87464,1,8,3:0:0:0:
369,266,87641,2,0,B|341:290|341:290|266:283,1,105.000004005432,8|0,3:0|0:0,0:0:0:0:
233,170,87817,2,0,L|249:327,1,157.500006008148,8|0,3:0|0:0,0:0:0:0:
512,342,88170,6,0,B|428:334|428:334|399:312|399:312|196:291,1,315.000012016297,8|0,3:0|0:0,0:0:0:0:
49,335,88523,1,8,3:0:0:0:
20,229,88699,1,10,3:0:0:0:
113,49,88876,1,8,3:0:0:0:
45,342,89052,1,8,3:0:0:0:
245,303,89229,5,6,3:2:0:0:
224,331,89317,1,2,3:0:0:0:
183,342,89405,1,2,3:0:0:0:
137,324,89493,1,2,3:0:0:0:
122,269,89582,1,10,3:0:0:0:
147,211,89670,1,2,3:0:0:0:
211,183,89758,1,2,3:0:0:0:
286,195,89846,1,2,3:0:0:0:
377,158,91346,6,0,B|442:174|500:122|496:22|411:-20|333:16|323:82|323:82|219:91|219:91|214:87|214:87|112:97,1,525.000020027161,4|0,3:2|0:0,0:0:0:0:
250,166,91876,1,0,3:0:0:0:
105,12,92052,2,0,B|86:236|86:236|71:208|49:197|49:197|56:113,1,346.500003304482,2|0,0:0|0:0,0:0:0:0:
189,10,92405,6,0,B|180:118|180:118|175:125|175:125|166:230|166:230|163:266|197:293|240:276|243:237|243:237|250:156,1,420,8|0,3:0|0:0,0:0:0:0:
261,49,92758,1,0,3:0:0:0:
397,102,92935,2,0,B|349:127|303:99|314:94|274:63|215:82,1,188.999994232178,2|0,0:0|0:0,0:0:0:0:
178,213,93288,1,0,3:0:0:0:
114,314,93464,1,0,0:0:0:0:
114,314,93552,2,0,L|108:255,1,52.5000020027161,2|0,1:2|0:0,0:0:0:0:
102,182,93729,5,0,1:0:0:0:
17,191,93817,2,0,B|22:238|22:238|11:258|11:258|28:274|28:274|34:321,1,140,8|0,3:0|0:0,0:0:0:0:
266,295,93993,2,0,B|262:249|262:249|273:229|273:229|256:213|256:213|250:166,1,140,2|0,0:0|0:0,0:0:0:0:
93,66,94170,6,0,B|42:66|34:125|61:150|108:162|146:124|146:124|360:145|360:145|338:174|338:174|242:165,1,525.000020027161,4|0,3:2|0:0,0:0:0:0:
176,44,94699,2,0,B|227:49|227:49|228:45|228:45|228:49|228:49|288:56,1,105.000004005432,0|0,3:0|0:0,0:0:0:0:
486,130,94876,2,0,P|503:80|470:19,1,122.500001168251,2|0,0:0|0:0,0:0:0:0:
375,32,95052,2,0,P|357:81|391:142,1,122.500001168251,2|0,0:0|0:0,0:0:0:0:
451,286,95229,6,0,B|474:238|525:231|525:231|339:245|339:245|344:250|344:250|198:262,1,420,8|0,3:0|0:0,0:0:0:0:
100,272,95582,1,0,3:0:0:0:
210,313,95758,2,0,L|215:240,1,52.5000020027161
113,356,95935,2,0,B|95:331|95:331|102:245,1,90.9999958343508,2|0,0:0|0:0,0:0:0:0:
80,112,96111,6,0,B|39:111|30:153|30:153|50:202|117:197|146:154|146:154|152:159|152:159|304:148,1,336,0|0,3:0|0:0,0:0:0:0:
332,93,96464,2,0,P|272:109|268:156,1,112,2|0,0:0|0:0,0:0:0:0:
403,340,96641,6,0,B|415:230|415:230|419:235|419:235|433:118|433:118|367:68|367:68|350:190,1,420,8|0,3:0|0:0,0:0:0:0:
488,256,96993,2,0,L|449:260,1,35,4|0,3:2|0:0,0:0:0:0:
482,246,97170,2,0,B|433:251|433:251|429:254|429:254|369:261,1,97.9999970092774
282,366,97346,2,0,B|287:309|287:309|291:305|291:305|298:241,1,122.500001168251,2|0,0:0|0:0,0:0:0:0:
332,93,97523,5,0,3:0:0:0:
473,151,97699,2,0,B|427:126|377:155|389:158|341:190|292:162,1,188.999994232178,2|0,0:0|0:0,0:0:0:0:
75,78,98052,2,0,B|103:16|103:16|112:161|112:161|118:160|118:160|112:160|112:160|121:305|121:305|85:247,1,420,8|0,3:0|0:0,0:0:0:0:
33,176,98405,5,0,3:0:0:0:
214,175,98582,2,0,B|166:203|117:174|126:170|83:146|32:176,1,188.999994232178,2|0,0:0|0:0,0:0:0:0:
9,333,98935,1,0,3:0:0:0:
80,247,99111,1,0,0:0:0:0:
80,247,99199,2,0,L|85:300,1,52.5000020027161,2|0,1:2|0:0,0:0:0:0:
249,249,99376,5,0,1:0:0:0:
213,175,99464,2,0,L|199:329,1,140,8|0,3:0|0:0,0:0:0:0:
200,314,99641,2,0,B|186:337|186:337|169:318,1,52.5000020027161,2|0,0:0|0:0,0:0:0:0:
121,160,99817,6,0,B|260:147|260:147|266:151|266:151|417:138|417:138|356:112|332:63|332:63|193:77,1,525.000020027161,4|0,3:2|0:0,0:0:0:0:
66,217,100346,2,0,B|101:160|86:104|86:104|94:99|94:99|85:100|85:100|69:38|5:15,1,245.000002336502,2|0,3:2|0:0,0:0:0:0:
30,17,100611,2,0,B|80:34|97:97|97:97|106:96|106:96|98:101|98:101|113:157|77:213,1,245.000002336502,2|0,0:0|0:0,0:0:0:0:
55,337,100876,6,0,B|41:287|-7:261|-7:261|129:251|129:251|135:246|135:246|187:268|187:268|238:264|238:264|239:270|239:270|238:264|238:264|324:258,1,420,8|0,3:0|0:0,0:0:0:0:
428,248,101229,6,0,B|441:294|408:331|369:324|369:324|368:330|368:330|369:324|369:324|337:317|319:288|331:253|331:253|354:182|354:182|362:156|361:117|321:103|321:103|323:98|323:98|321:103|321:103|281:89|237:132|252:167|270:189,1,525.000020027161,0|0,3:0|0:0,0:0:0:0:
240,266,101758,1,0,3:0:0:0:
155,172,101935,2,0,B|210:149|210:149|262:178,1,119.000002269745,2|0,0:0|0:0,0:0:0:0:
250,354,102111,2,0,B|194:376|194:376|142:347,1,119.000002269745,2|0,0:0|0:0,0:0:0:0:
3,254,102288,6,0,B|69:259|69:259|76:253|76:253|184:260|184:260|200:278|200:278|218:262|218:262|328:269|328:269|334:276|334:276|402:281,1,420,8|0,3:0|0:0,0:0:0:0:
510,253,102641,2,0,B|518:337|518:337|440:318|440:318|430:217|430:217|424:219|424:219|430:217|430:217|419:100|419:100|496:122|496:122|504:196,1,525.000020027161,4|0,3:2|0:0,0:0:0:0:
352,371,103170,2,0,B|339:228|339:228|345:227|345:227|339:228|339:228|326:75|326:75|323:31|278:6|232:38|237:82|237:82|252:244,1,595.000011348725,0|0,3:0|0:0,0:0:0:0:
151,307,103699,6,0,B|280:321|280:321|312:290|351:286|351:286|314:274|288:236|288:236|147:222,1,420,8|0,3:0|0:0,0:0:0:0:
84,257,104052,1,0,3:0:0:0:
56,365,104229,2,0,B|28:317|57:268|61:277|85:234|55:183,1,188.999994232178,2|0,0:0|0:0,0:0:0:0:
0,38,104582,1,0,3:0:0:0:
102,101,104758,1,0,0:0:0:0:
102,101,104846,2,0,L|49:104,1,52.5000020027161,2|0,1:2|0:0,0:0:0:0:
183,122,105023,5,0,1:0:0:0:
66,181,105111,2,0,B|68:145|68:145|63:138|63:138|69:81|69:81|76:78|76:78|79:43,1,140,8|0,3:0|0:0,0:0:0:0:
301,68,105288,2,0,B|298:103|298:103|303:110|303:110|297:167|297:167|290:170|290:170|287:205,1,140,2|0,0:0|0:0,0:0:0:0:
239,326,105464,6,0,B|279:411|396:372|391:299|368:238|321:234|264:239|264:239|180:250|180:250|179:243|179:243|180:250|180:250|112:258|112:258|112:251|112:251|112:258|112:258|51:265,1,542.500004138947,4|0,3:2|0:0,0:0:0:0:
121,352,105993,2,0,B|131:239|131:239|138:238|138:238|131:238|131:238|137:175|137:175|143:174|143:174|137:175|137:175|145:91|145:91|152:26|127:-41|-17:-36|-29:37|-25:99|2:144|66:143,1,647.499997529984,0|0,3:0|0:0,0:0:0:0:
270,226,106523,6,0,B|132:241|132:241|104:219|62:225|62:225|104:218|126:188|126:188|261:171,1,420,8|0,3:0|0:0,0:0:0:0:
466,153,106876,2,0,P|480:213|447:169,1,157.500006008148,0|0,3:0|0:0,0:0:0:0:
453,42,107229,2,0,B|460:90|460:90|457:96|457:96|466:153,1,112,2|0,0:0|0:0,0:0:0:0:
365,244,107405,2,0,P|368:307|389:253,1,157.500006008148,0|0,3:0|0:0,0:0:0:0:
353,134,107758,2,0,B|360:182|360:182|357:188|357:188|365:244,1,112,2|0,0:0|0:0,0:0:0:0:
458,337,107935,6,0,B|359:326|359:326|358:320|358:320|359:326|359:326|285:318|285:318|284:312|284:312|285:318|285:318|183:308|183:308|199:336|199:336|303:347,1,420,8|0,3:0|0:0,0:0:0:0:
365,244,108288,2,0,L|320:240,1,35,4|0,3:2|0:0,0:0:0:0:
362,234,108464,2,0,B|314:229|314:229|305:233|305:233|250:228,1,97.9999970092774
173,102,108641,2,0,B|178:148|178:148|174:156|174:156|184:222,1,122.500001168251,2|0,0:0|0:0,0:0:0:0:
201,338,108817,5,0,3:0:0:0:
349,151,108993,2,0,B|333:128|332:99|332:99|327:127|302:147,1,112,2|0,0:0|0:0,0:0:0:0:
291,317,109170,2,0,B|307:340|308:369|308:369|313:341|338:321,1,112,2|0,0:0|0:0,0:0:0:0:
423,66,109346,6,0,B|495:94|495:94|418:103|418:103|419:110|419:110|418:103|418:103|308:113|308:113|264:93|264:93|157:103,1,420,8|0,3:0|0:0,0:0:0:0:
70,163,109699,1,0,3:0:0:0:
138,17,109876,2,0,B|110:74|137:118|143:106|169:151|149:197,1,188.999994232178,2|0,0:0|0:0,0:0:0:0:
58,340,110229,1,0,3:0:0:0:
25,257,110405,1,0,0:0:0:0:
25,257,110493,2,0,L|91:249,1,52.5000020027161,2|0,1:2|0:0,0:0:0:0:
154,280,110670,5,0,1:0:0:0:
224,183,110758,2,0,B|150:199|150:199|223:206|223:206|222:213|222:213|223:206|223:206|272:212|272:212|271:217|271:217|273:212|273:212|318:217|318:217|346:222|392:226|408:205|402:154|363:151|350:182,1,420,8|0,3:0|0:0,0:0:0:0:
318,310,111111,6,0,L|304:183,1,122.500001168251,8|0,3:0|0:0,0:0:0:0:
298,100,111288,1,0,0:0:0:0:
298,100,111376,1,0,1:0:0:0:
148,289,111552,1,0,1:0:0:0:
237,304,111641,2,0,L|222:165,1,122.500001168251,8|0,3:0|0:0,0:0:0:0:
214,98,111817,1,0,0:0:0:0:
214,98,111905,1,0,1:0:0:0:
379,248,112082,5,0,1:0:0:0:
407,132,112170,2,0,B|462:123|505:186|459:288|339:229|293:176,1,280,8|0,3:0|0:0,0:0:0:0:
264,23,112435,5,0,1:0:0:0:
298,100,112523,2,0,L|161:116,1,122.500001168251,8|0,3:0|0:0,0:0:0:0:
84,127,112699,1,0,0:0:0:0:
84,127,112788,1,0,1:0:0:0:
288,276,112964,1,0,1:0:0:0:
304,187,113052,2,0,L|167:204,1,122.500001168251,8|0,3:0|0:0,0:0:0:0:
92,218,113229,1,0,0:0:0:0:
92,218,113318,1,0,1:0:0:0:
236,359,113493,5,0,1:0:0:0:
166,292,113582,2,0,L|318:271,1,122.500001168251,8|0,3:0|0:0,0:0:0:0:
365,238,113758,2,0,P|373:263|371:289,1,52.5000020027161,2|0,0:0|0:0,0:0:0:0:
399,362,113935,6,0,B|412:216|412:216|419:207|419:207|429:91|429:91|433:56|399:22|354:47|351:82|351:82|344:175,1,472.500001802445,2|0,0:0|0:0,0:0:0:0:
444,196,114464,2,0,P|402:158|328:157,1,115.500001101494,2|0,0:0|0:0,0:0:0:0:
159,274,114641,2,0,B|180:300|210:320|269:312|269:312|275:214|275:214|282:210|282:210|263:171|263:171|272:42,1,388.49999851799,8|0,3:0|0:0,0:0:0:0:
172,43,114993,2,0,B|138:7|99:62|126:95|190:89|190:89|273:82|273:82|279:77|279:77|395:67,1,346.500003304482,0|0,3:2|0:0,3:0:0:0:
454,9,115346,5,0,0:0:0:0:
454,9,115523,2,0,B|416:19|412:53|412:53|404:173,1,168,2|0,0:0|0:0,0:0:0:0:
468,339,115876,1,0,3:0:0:0:
186,206,116052,6,0,B|269:198|269:198|273:192|273:192|396:180|396:180|402:184|402:184|496:174,1,315.000012016297,8|0,3:0|1:0,0:0:0:0:
328,327,116405,2,0,B|330:278|330:278|324:269|324:269|336:270|336:270|331:261|331:261|335:214,1,122.500001168251,2|0,0:0|0:0,0:0:0:0:
474,231,116582,2,0,B|471:279|471:279|477:288|477:288|465:287|465:287|470:296|470:296|466:343,1,122.500001168251,2|0,0:0|0:0,0:0:0:0:
202,287,116758,6,0,B|208:333|190:366|190:366|235:383|235:383|219:189|219:189|223:180|223:180|212:58|212:58|190:135,1,525.000020027161,4|0,3:2|0:0,0:0:0:0:
140,189,117288,5,0,3:0:0:0:
406,112,117464,2,0,P|356:95|295:128,1,122.500001168251,8|0,3:0|0:0,0:0:0:0:
309,223,117640,2,0,P|358:241|419:207,1,122.500001168251,2|0,0:0|0:0,0:0:0:0:
510,18,117817,6,0,B|467:-7|435:36|435:36|429:138|429:138|435:140|435:140|429:138|429:138|425:210|425:210|431:211|431:211|425:210|425:210|421:287,1,346.500003304482,0|0,3:0|0:0,0:0:0:0:
501,345,118170,2,0,B|474:317|447:317|447:317|447:311|447:311|446:317|446:317|419:316|397:333|405:336|384:354|349:354|349:354|350:360|350:360|349:354|349:354|318:352|301:332,1,241.500004606247,2|0,0:0|0:0,0:0:0:0:
305,336,118523,2,0,L|310:243,1,80.5000015354157
276,108,118699,5,0,3:0:0:0:
95,338,118876,2,0,B|152:330|152:330|172:339|172:339|227:332,1,129.499999505997,8|0,3:0|0:0,0:0:0:0:
222,333,119052,2,0,L|227:240,1,80.5000015354157,2|0,0:0|0:0,0:0:0:0:
197,154,119229,2,0,B|166:120|107:136|92:195|118:236|162:241|201:235|201:235|263:228|263:228|261:220|261:220|263:228|263:228|359:218,1,367.500003504753,2|0,0:0|0:0,0:0:0:0:
434,268,119582,6,0,L|439:218,1,35,0|0,3:0|0:0,0:0:0:0:
446,269,119758,2,0,B|451:220|451:220|447:214|447:214|452:168,1,97.9999970092774
276,108,119935,2,0,B|334:102|334:102|342:106|342:106|397:100,1,122.500001168251,2|0,0:0|0:0,0:0:0:0:
506,30,120111,2,0,B|490:1|490:1|483:64|483:64|486:70|486:70|481:115,1,129.499999505997,2|0,0:0|0:0,0:0:0:0:
435,354,120288,5,8,3:0:0:0:
435,354,120464,2,0,L|385:349,1,35
140,270,120641,2,0,B|117:292|117:292|126:369|126:369|151:379,1,132.999996448517,2|0,0:0|0:0,0:0:0:0:
296,365,120817,2,0,B|319:343|319:343|310:266|310:266|285:256,1,132.999996448517,2|0,0:0|0:0,0:0:0:0:
205,159,120993,5,0,3:0:0:0:
285,136,121170,2,0,P|274:112|257:93,1,52.5000020027161,2|0,0:0|0:0,0:0:0:0:
124,149,121346,2,0,P|129:123|146:100,1,52.5000020027161,2|0,0:0|0:0,0:0:0:0:
365,139,121523,1,0,3:0:0:0:
128,22,121699,6,0,B|120:77|120:77|130:98|130:98|123:149,1,129.499999505997,8|0,3:0|0:0,0:0:0:0:
50,229,121876,2,0,L|41:169,1,52.5000020027161,2|0,0:0|0:0,0:0:0:0:
75,231,121964,2,0,L|85:309,1,57.7500005507469,2|0,0:0|0:0,0:0:0:0:
101,234,122052,2,0,B|156:239|156:239|156:233|156:233|156:239|156:239|212:245,1,105.000004005432,2|0,0:0|0:0,0:0:0:0:
225,322,122229,2,0,B|217:263|217:263|224:262|224:262|217:263|217:263|210:203,1,122.500001168251,2|0,0:0|0:0,0:0:0:0:
365,139,122405,6,0,B|359:100|359:100|355:69|308:48|278:83|283:114|283:114|293:178|293:178|287:181|287:181|293:178|293:178|302:235|302:235|296:238|296:238|302:235|302:235|310:298|310:298|315:336|349:351|392:334|387:292|387:292|382:257,1,525.000020027161,4|0,3:2|0:0,0:0:0:0:
475,150,122935,2,0,B|424:142|424:142|415:145|415:145|350:136,1,112,2|0,0:0|0:0,0:0:0:0:
151,133,123111,6,0,B|182:102|185:48|185:48|201:156|201:156|208:155|208:155|201:155|201:155|203:174|203:174|209:212|189:238|185:232|170:252|174:287|174:287|184:357,1,398.999989345551,8|0,3:0|0:0,0:0:0:0:
254,281,123464,2,0,B|137:293|137:293|133:298|133:298|28:305|28:305|-7:277|-7:277|97:269,1,357.000006809235,0|0,3:0|0:0,0:0:0:0:
331,362,123817,2,0,B|288:338|291:288|291:288|295:216|295:216|288:216|288:216|295:216|295:216|299:160|299:160|293:160|293:160|299:160|299:160|303:99,1,293.999991027832,0|0,3:0|0:0,0:0:0:0:
442,209,124170,2,0,B|423:205|412:192|412:192|400:204|384:206|384:206|399:213|409:229|409:229|420:215|442:209,1,122.500001168251,2|0,0:0|0:0,0:0:0:0:
145,190,124346,2,0,B|163:193|174:206|174:206|186:194|202:192|202:192|187:185|177:169|177:169|166:183|144:189,1,122.500001168251,2|0,0:0|0:0,0:0:0:0:
476,111,124523,6,0,L|91:150,1,367.500003504753,8|0,3:0|0:0,0:0:0:0:
12,78,124876,2,0,B|91:70|91:70|89:63|89:63|91:70|91:70|162:62|162:62|161:54|161:54|162:62|162:62|242:54,1,241.500004606247,2|0,0:0|0:0,0:0:0:0:
323,46,125229,6,0,P|308:79|315:93,1,52.5000020027161,2|0,0:0|0:0,0:0:0:0:
390,165,125405,1,2,1:2:0:0:
390,165,125493,1,0,1:0:0:0:
390,165,125582,1,2,1:2:0:0:
484,64,125758,2,0,P|489:88|475:110,1,52.5000020027161,2|0,1:2|0:0,0:0:0:0:
308,331,125935,6,0,B|394:322|394:322|396:281|420:243|420:243|284:258|284:258|285:251|285:251|283:258|283:258|208:264,1,388.49999851799,8|0,3:0|0:0,0:0:0:0:
164,360,126288,2,0,B|171:281|171:281|175:275|175:275|189:149|189:149|160:129|160:129|149:232,1,346.500003304482,0|0,3:0|0:0,0:0:0:0:
216,264,126641,5,0,0:0:0:0:
262,189,126817,2,0,P|282:205|296:227,1,52.5000020027161,2|0,0:0|0:0,0:0:0:0:
243,342,126993,2,0,P|267:332|286:311,1,52.5000020027161,2|0,0:0|0:0,0:0:0:0:
125,149,127170,1,0,3:0:0:0:
394,148,127346,6,0,B|302:156|302:156|298:162|298:162|174:170|174:170|168:165|168:165|74:172,1,315.000012016297,8|0,3:0|1:0,0:0:0:0:
308,133,127699,2,0,B|311:91|311:91|326:76|326:76|313:59|313:59|315:15,1,122.500001168251,2|0,0:0|0:0,0:0:0:0:
131,37,127876,2,0,B|128:79|128:79|113:94|113:94|126:111|126:111|124:155,1,122.500001168251,2|0,0:0|0:0,0:0:0:0:
192,324,128052,6,0,B|100:329|100:329|69:331|35:291|66:251|99:250|99:250|200:244|200:244|205:249|205:249|305:241|305:241|313:237|313:237|413:230,1,525.000020027161,4|0,3:2|0:0,0:0:0:0:
266,277,128582,1,0,3:0:0:0:
453,164,128758,2,0,B|449:217|449:217|452:223|452:223|444:306|444:306|411:327|398:356|398:356|392:324|367:299|367:299|372:216|372:216|376:210|376:210|381:149,1,420,8|0,3:0|0:0,0:0:0:0:
480,45,129111,6,0,B|502:89|502:89|472:128|472:128|350:119|350:119|319:91|319:91|315:95|315:95|215:88,1,346.500003304482,0|0,3:0|0:0,0:0:0:0:
150,82,129464,2,0,P|211:85|162:60,1,157.500006008148,0|0,0:3|0:0,0:0:0:0:
39,71,129817,2,0,B|87:74|87:74|92:78|92:78|150:81,1,112,2|0,0:0|0:0,0:0:0:0:
291,94,129993,5,0,3:0:0:0:
177,349,130170,2,0,L|320:339,1,129.499999505997,8|0,3:0|0:0,0:0:0:0:
304,323,130346,2,0,B|255:326|255:326|250:330|250:330|192:333,1,112,2|0,0:0|0:0,0:0:0:0:
99,258,130523,1,0,0:0:0:0:
99,258,130699,2,0,B|156:254|156:254|161:250|161:250|210:247,1,112,2|0,0:0|0:0,0:0:0:0:
413,178,130876,6,0,L|409:216,1,35,0|0,3:0|0:0,0:0:0:0:
423,183,131052,2,0,B|417:232|417:232|413:236|413:236|409:278,1,97.9999970092774
304,323,131229,2,0,B|310:259|310:259|315:253|315:253|321:200,1,122.500001168251,2|0,0:0|0:0,0:0:0:0:
349,116,131405,2,0,B|282:123|282:123|276:128|276:128|220:134,1,129.499999505997,2|0,0:0|0:0,0:0:0:0:
99,258,131582,6,0,B|107:240|118:231|118:231|108:220|105:207|105:207|100:220|87:228|87:228|97:241|99:258,1,115.500001101494,8|0,3:0|0:0,0:0:0:0:
122,23,131758,2,0,B|115:39|104:49|104:49|114:59|116:72|116:72|122:60|135:51|135:51|123:42|121:23,1,115.500001101494,2|0,0:0|0:0,0:0:0:0:
14,27,131935,2,0,B|89:18|89:18|88:12|88:12|89:18|89:18|133:13|133:13|162:8|194:26|180:29|210:46|232:43|232:43|272:39|272:39|275:45|275:45|272:39|272:39|326:34,1,346.500003304482,2|0,0:0|0:0,0:0:0:0:
419,29,132288,5,0,3:0:0:0:
471,180,132464,2,0,B|493:144|466:90|464:103|430:56|464:-1,1,188.999994232178,2|0,0:0|0:0,0:0:0:0:
391,149,132817,1,0,3:0:0:0:
152,128,132993,2,0,L|287:139,1,129.499999505997,8|0,3:0|0:0,0:0:0:0:
281,138,133170,2,0,P|309:139|293:123,1,62.9999980773926,2|0,0:0|0:0,0:0:0:0:
403,240,133346,5,0,1:0:0:0:
359,236,133435,1,0,1:0:0:0:
319,254,133523,1,0,1:0:0:0:
275,250,133612,1,0,1:0:0:0:
190,212,133699,2,0,B|192:273|192:273|197:280|197:280|200:363|200:363|161:331|115:327|115:327|109:192|109:192|113:183|113:183|107:44,1,525.000020027161,4|0,3:2|0:0,3:0:0:0:
82,201,134229,5,0,3:0:0:0:
422,123,134405,2,0,B|245:106|245:106|238:112|238:112|43:93,1,367.500003504753,8|0,3:0|0:0,0:0:0:0:
47,13,134758,2,0,L|103:18,2,43.75,0|0|0,1:0|1:0|1:0,1:0:0:0:
77,210,134935,1,0,3:0:0:0:
349,230,135111,5,8,3:0:0:0:
336,141,135288,1,2,0:0:0:0:
227,340,135464,5,0,3:0:0:0:
449,288,135641,2,0,B|355:229|254:292|273:295|193:347|104:314|59:210|176:107|250:161|275:214,1,503.999984619141,8|0,3:0|0:0,0:0:0:0:
227,340,136523,6,0,L|234:289,3,35,2|0|0|0,3:2|0:0|0:0|0:0,0:0:0:0:
304,244,137229,2,0,L|297:193,3,35,2|0|0|0,0:0|0:0|0:0|0:0,0:0:0:0:
231,147,137935,2,0,L|238:96,3,35,2|0|0|0,0:0|0:0|0:0|0:0,0:0:0:0:
337,27,138641,5,0,0:0:0:0:
325,48,138729,1,0,0:0:0:0:
320,72,138817,1,0,0:0:0:0:
323,95,138905,2,0,P|340:138|369:157,1,70,2|0,0:0|0:3,0:3:0:0:
445,169,139170,1,2,0:0:0:0:
506,249,139346,6,0,L|460:255,3,35,2|0|0|0,0:0|0:0|0:0|0:0,0:0:0:0:
402,315,140052,2,0,L|356:309,3,35,2|0|0|0,0:0|0:0|0:0|0:0,0:0:0:0:
303,247,140758,2,0,L|257:253,3,35,2|0|0|0,0:0|0:0|0:0|0:0,0:0:0:0:
166,327,141464,5,0,0:0:0:0:
170,302,141552,1,0,0:0:0:0:
174,277,141641,1,0,0:0:0:0:
179,253,141729,2,0,L|191:174,1,70,2|0,0:0|0:0,0:0:0:0:
110,147,141993,1,2,0:0:0:0:
174,60,142170,6,0,L|183:111,3,41.9999987182618,2|0|0|0,0:0|0:0|0:0|0:0,0:0:0:0:
334,161,142876,2,0,L|325:212,3,41.9999987182618,2|0|0|0,0:0|0:0|0:0|0:0,0:0:0:0:
191,287,143582,2,0,L|200:338,3,41.9999987182618,2|0|0|0,0:0|0:0|0:0|0:0,0:0:0:0:
36,276,144288,5,0,0:0:0:0:
60,290,144376,1,0,0:0:0:0:
88,296,144464,1,0,0:0:0:0:
115,293,144552,2,0,P|165:273|187:239,1,83.9999974365235,2|0,0:0|0:3,0:3:0:0:
201,151,144817,1,2,0:0:0:0:
45,30,144993,6,0,L|96:39,3,41.9999987182618,2|0|0|0,0:0|0:0|0:0|0:0,0:0:0:0:
201,151,145699,2,0,L|252:142,3,41.9999987182618,2|0|0|0,0:0|0:0|0:0|0:0,0:0:0:0:
357,38,146405,2,0,L|408:47,3,41.9999987182618,2|0|0|0,0:0|0:0|0:0|0:0,0:0:0:0:
479,209,147111,6,0,B|493:193|485:173|485:173|470:190|478:209,1,70,2|0,0:0|0:0,0:0:0:0:
430,269,147288,2,0,B|416:285|424:305|424:305|439:288|431:269,1,70,2|0,0:0|0:0,0:0:0:0:
394,197,147464,2,0,B|408:181|400:161|400:161|385:178|393:197,1,70,2|0,0:0|0:0,0:0:0:0:
345,257,147641,2,0,B|331:273|339:293|339:293|354:276|346:257,1,70,2|0,0:0|0:0,0:0:0:0:
314,182,147817,5,2,0:0:0:0:
293,185,147905,1,0,0:0:0:0:
272,188,147993,1,0,0:0:0:0:
251,191,148082,1,0,0:0:0:0:
236,323,148523,5,2,0:0:0:0:
215,320,148611,1,0,0:0:0:0:
194,317,148699,1,0,0:0:0:0:
173,314,148788,1,0,0:0:0:0:
127,192,149229,5,2,0:0:0:0:
106,195,149317,1,0,0:0:0:0:
85,198,149405,1,0,0:0:0:0:
64,201,149494,1,0,0:0:0:0:
203,11,149935,5,0,0:0:0:0:
185,48,150023,1,0,0:0:0:0:
186,89,150111,1,0,0:0:0:0:
201,127,150199,2,0,P|262:161|320:154,1,97.9999970092774,2|0,0:0|0:0,0:0:0:0:
371,121,150464,1,2,0:0:0:0:
468,159,150641,5,2,0:0:0:0:
465,180,150729,1,0,0:0:0:0:
462,201,150817,1,0,0:0:0:0:
459,222,150906,1,0,0:0:0:0:
363,327,151346,5,2,0:0:0:0:
360,306,151434,1,0,0:0:0:0:
357,285,151522,1,0,0:0:0:0:
354,264,151611,1,0,0:0:0:0:
262,151,152052,5,2,0:0:0:0:
259,172,152140,1,0,0:0:0:0:
256,193,152228,1,0,0:0:0:0:
253,214,152317,1,0,0:0:0:0:
164,339,152758,5,0,0:0:0:0:
159,297,152846,1,0,0:0:0:0:
153,254,152935,1,0,0:0:0:0:
148,212,153023,2,0,L|134:99,1,97.9999970092774,2|0,0:0|0:0,0:0:0:0:
207,51,153288,1,2,0:0:0:0:
31,128,153464,5,2,0:0:0:0:
56,131,153552,1,0,0:0:0:0:
81,135,153640,1,0,0:0:0:0:
107,138,153729,1,0,0:0:0:0:
159,297,154170,5,2,0:0:0:0:
184,294,154258,1,0,0:0:0:0:
209,290,154346,1,0,0:0:0:0:
235,287,154435,1,0,0:0:0:0:
266,122,154876,5,2,0:0:0:0:
291,125,154964,1,0,0:0:0:0:
316,129,155052,1,0,0:0:0:0:
342,132,155141,1,0,0:0:0:0:
430,337,155582,5,0,0:0:0:0:
434,296,155670,1,0,0:0:0:0:
420,257,155758,1,0,0:0:0:0:
394,226,155846,2,0,P|325:213|272:239,1,97.9999970092774,2|0,0:0|0:0,0:0:0:0:
235,287,156111,1,2,0:0:0:0:
154,118,156288,5,2,0:0:0:0:
158,149,156376,1,0,0:0:0:0:
163,181,156464,1,0,0:0:0:0:
167,213,156553,1,0,0:0:0:0:
300,10,156993,5,2,0:0:0:0:
296,41,157081,1,0,0:0:0:0:
291,72,157169,1,0,0:0:0:0:
287,105,157258,2,0,L|276:186,1,70
282,190,157523,1,2,0:0:0:0:
156,273,157699,5,2,0:0:0:0:
226,251,157876,1,2,0:0:0:0:
296,272,158052,1,2,0:0:0:0:
338,332,158229,2,0,P|392:204|435:373,1,420.000016021729,2|0,0:0|0:0,0:0:0:0:
138,266,159111,6,0,P|184:212|233:9,1,262.500010013581,2|0,3:2|0:0,0:0:0:0:
247,287,159641,2,0,P|264:214|223:9,1,262.500010013581,2|0,0:0|0:0,0:0:0:0:
356,255,160170,2,0,P|344:190|220:21,1,262.500010013581,2|0,0:0|0:0,0:0:0:0:
442,178,160699,2,0,P|405:128|222:28,1,262.500010013581,2|0,0:0|0:0,0:0:0:0:
461,29,161229,6,0,P|409:76|304:106,1,157.500006008148
234,32,161582,2,0,P|299:111|309:165,1,157.500006008148
474,260,161935,6,0,P|345:206|183:224,1,297.500005674362,2|0,0:0|0:0,0:0:0:0:
399,332,162464,2,0,P|304:229|150:176,1,297.500005674362,2|0,0:0|0:0,0:0:0:0:
305,367,162993,2,0,P|262:233|144:120,1,297.500005674362,2|0,0:0|0:0,0:0:0:0:
209,367,163523,2,0,P|226:228|168:76,1,297.500005674362,2|0,0:0|0:0,0:0:0:0:
302,171,164052,6,0,P|235:185|142:158,1,157.500006008148
14,133,164405,2,0,P|69:204|75:280,1,146.999995513916
31,328,164758,6,0,P|131:277|293:276,1,262.500010013581,2|0,0:0|0:0,0:0:0:0:
333,83,165288,2,0,P|292:211|310:351,1,262.500010013581,2|0,0:0|0:0,0:0:0:0:
31,218,165817,2,0,P|142:214|290:281,1,262.500010013581,2|0,0:0|0:0,0:0:0:0:
74,121,166346,2,0,P|180:166|290:295,1,262.500010013581,2|0,0:0|0:0,0:0:0:0:
305,41,166876,6,0,P|230:101|208:176,1,157.500006008148
280,277,167229,2,0,P|184:238|120:249,1,157.500006008148
107,66,167582,6,0,P|122:134|68:320,1,262.500010013581,2|0,0:0|0:0,0:0:0:0:
209,104,168111,2,0,P|193:172|66:317,1,262.500010013581,2|0,0:0|0:0,0:0:0:0:
285,181,168641,2,0,P|241:236|65:314,1,262.500010013581,2|0,0:0|0:0,0:0:0:0:
318,302,169170,2,0,P|247:296|156:253,1,157.500006008148,2|0,0:0|0:0,3:0:0:0:
118,48,169523,5,0,0:0:0:0:
203,156,169699,1,2,0:0:0:0:
311,189,169876,1,0,0:0:0:0:
398,184,170052,1,0,0:0:0:0:
373,46,170229,6,0,P|354:85|354:124,1,62.9999980773926,2|0,0:0|0:0,0:0:0:0:
421,307,170405,6,0,P|309:248|173:234,1,262.500010013581,2|0,0:0|0:0,0:0:0:0:
427,196,170935,2,0,P|300:188|171:234,1,262.500010013581,2|0,0:0|0:0,0:0:0:0:
386,92,171464,2,0,P|268:138|171:234,1,262.500010013581,2|0,0:0|0:0,0:0:0:0:
306,15,171993,2,0,P|219:105|171:234,1,262.500010013581,2|0,0:0|0:0,0:0:0:0:
49,63,172523,6,0,P|100:64|201:108,1,157.500006008148
341,90,172876,2,0,P|384:150|394:245,1,157.500006008148
113,268,173229,6,0,P|240:216|400:233,1,297.500005674362,2|0,0:0|0:0,0:0:0:0:
187,339,173758,2,0,P|281:238|433:186,1,297.500005674362,2|0,0:0|0:0,0:0:0:0:
280,375,174287,2,0,P|322:243|438:132,1,297.500005674362,2|0,0:0|0:0,0:0:0:0:
374,374,174817,2,0,P|357:237|415:87,1,297.500005674362,2|0,0:0|0:0,0:0:0:0:
497,148,175346,6,0,P|420:162|317:127,1,168
216,23,175699,2,0,P|241:87|221:188,1,168
75,239,176052,6,0,P|214:205|332:241,1,262.500010013581,2|0,0:0|0:0,0:0:0:0:
409,80,176582,2,0,P|361:177|357:340,1,262.500010013581,2|0,0:0|0:0,0:0:0:0:
98,133,177111,2,0,P|237:160|329:242,1,262.500010013581,2|0,0:0|0:0,0:0:0:0:
163,46,177641,2,0,P|278:129|326:243,1,262.500010013581,2|0,0:0|0:0,0:0:0:0:
380,95,178170,6,0,P|329:177|330:265,1,157.500006008148
408,320,178523,2,0,P|325:280|242:282,1,157.500006008148
180,359,178876,6,0,P|215:307|226:114,1,262.500010013581,2|0,0:0|0:0,0:0:0:0:
94,295,179405,2,0,P|143:266|225:111,1,236.250000901222,2|0,0:0|0:0,0:0:0:0:
63,203,179935,2,0,P|105:197|232:101,1,192.500005874634,2|0,0:0|0:0,0:0:0:0:
126,82,180464,2,0,P|185:90|237:123,1,105,2|0,0:0|0:0,0:0:0:0:
300,196,180817,5,0,0:0:0:0:
349,137,180993,1,2,0:0:0:0:
406,111,181170,1,0,0:0:0:0:
454,110,181346,1,0,0:0:0:0:
488,117,181523,1,2,0:0:0:0:
498,271,181699,6,0,P|416:249|383:205,1,119.000002269745,6|0,0:0|0:0,0:0:0:0:
339,91,182052,2,0,P|326:169|284:204,1,119.000002269745,2|0,0:0|0:0,0:0:0:0:
207,267,182405,2,2,L|266:276,3,45.4999979171754
207,267,182758,2,0,L|196:126,1,131.25
205,127,182935,1,0,0:0:0:0:
264,62,183111,6,0,P|211:101|147:101,1,119.000002269745,2|0,0:0|0:0,0:0:0:0:
21,30,183464,2,0,P|63:83|67:155,1,119.000002269745,2|0,0:0|0:0,0:0:0:0:
14,231,183817,5,2,0:0:0:0:
36,211,183905,1,0,0:0:0:0:
64,202,183993,1,0,0:0:0:0:
93,204,184082,2,0,L|191:221,1,83.9999974365235,2|0,0:0|0:0,0:0:0:0:
258,235,184346,1,2,0:0:0:0:
285,345,184523,6,0,P|279:292|309:217,1,119.000002269745,2|0,0:0|0:0,0:0:0:0:
253,142,184876,2,0,P|286:100|360:68,1,119.000002269745,2|0,0:0|0:0,0:0:0:0:
499,177,185229,5,2,0:0:0:0:
470,197,185317,1,0,0:0:0:0:
434,202,185405,1,0,0:0:0:0:
401,192,185493,1,0,0:0:0:0:
372,171,185582,2,0,L|384:36,1,131.25,2|0,0:0|0:0,0:0:0:0:
372,28,185758,1,0,0:0:0:0:
262,59,185935,6,0,L|203:68,1,41.9999987182618,2|0,0:0|0:0,0:0:0:0:
253,142,186111,2,0,L|196:150,1,48.9999985046387,2|0,0:0|0:0,0:0:0:0:
289,216,186288,1,2,0:0:0:0:
279,296,186464,2,0,B|229:272|179:304|188:308|148:335|96:313,1,178.500003404617,2|0,0:0|0:0,0:0:0:0:
118,107,186817,5,0,0:0:0:0:
118,107,186905,2,0,L|134:244,1,132.999996448517,2|0,0:0|0:0,0:0:0:0:
22,317,187170,2,0,L|12:236,1,66.4999982242585,2|0,0:0|0:0,0:0:0:0:
41,147,187346,6,0,L|87:153,1,41.9999987182618,2|0,0:0|0:0,0:0:0:0:
45,156,187523,2,0,L|103:164,1,48.9999985046387,2|0,0:0|0:0,0:0:0:0:
225,137,187699,1,2,0:0:0:0:
215,217,187876,1,2,0:0:0:0:
184,49,188052,5,2,0:0:0:0:
217,39,188141,1,0,0:0:0:0:
251,42,188229,1,0,0:0:0:0:
282,55,188317,1,0,0:0:0:0:
306,80,188405,2,0,L|324:224,1,131.25,2|0,0:0|0:0,0:0:0:0:
311,225,188582,1,0,0:0:0:0:
445,112,188758,6,0,L|398:107,1,45.4999979171754,2|0,0:0|0:0,0:0:0:0:
458,200,188935,2,0,L|404:194,1,52.5000020027161,2|0,0:0|0:0,0:0:0:0:
448,368,189111,1,2,0:0:0:0:
419,281,189288,2,0,B|402:305|342:329|291:304|291:304|325:310|353:291,1,188.999994232178,2|0,0:0|0:0,0:0:0:0:
279,165,189641,5,0,0:0:0:0:
279,165,189729,2,0,L|292:311,1,140,2|0,0:0|0:0,0:0:0:0:
140,377,189993,2,0,L|133:292,1,70,2|0,0:0|0:0,0:0:0:0:
93,211,190170,6,0,L|139:217,1,45.4999979171754,6|0,0:0|0:0,0:0:0:0:
79,128,190346,2,0,L|137:136,1,52.5000020027161,2|0,0:0|0:0,0:0:0:0:
324,122,190523,2,0,P|266:169|206:172,1,125.999996154785,2|0,0:0|0:0,0:0:0:0:
72,0,190876,5,2,0:0:0:0:
105,4,190964,1,0,0:0:0:0:
134,19,191052,1,0,0:0:0:0:
155,45,191141,1,0,0:0:0:0:
163,78,191229,2,0,L|181:231,1,131.25,2|0,0:0|0:0,0:0:0:0:
169,222,191405,1,0,0:0:0:0:
312,189,191582,6,0,L|264:181,1,45.4999979171754,2|0,0:0|0:0,0:0:0:0:
310,101,191758,2,0,L|244:90,1,52.5000020027161,2|0,0:0|0:0,0:0:0:0:
488,142,191935,1,2,0:0:0:0:
401,117,192111,2,0,P|396:152|410:192,1,62.9999980773926,2|0,0:0|0:0,0:0:0:0:
497,344,192288,6,0,B|460:362|460:362|433:354,1,70,6|0,0:0|0:0,0:0:0:0:
228,286,192464,2,0,B|265:268|265:268|292:276,1,70,2|0,0:0|0:0,0:0:0:0:
489,262,192641,2,0,B|457:251|457:251|420:269,1,70,2|0,0:0|0:0,0:0:0:0:
236,362,192817,2,0,B|273:374|273:374|310:356,1,70,2|0,0:0|0:0,0:0:0:0:
312,190,192993,5,0,0:0:0:0:
270,187,193082,1,0,0:0:0:0:
230,183,193170,1,0,0:0:0:0:
190,180,193258,1,0,0:0:0:0:
149,179,193346,2,0,P|95:155|63:90,1,132.999996448517,2|0,0:0|0:0,0:0:0:0:
344,76,193699,5,0,0:0:0:0:
317,46,193788,1,0,0:0:0:0:
280,32,193876,1,0,0:0:0:0:
241,30,193964,1,0,0:0:0:0:
205,44,194052,2,0,L|221:240,1,175,2|0,0:0|0:0,0:0:0:0:
441,283,194405,5,0,0:0:0:0:
401,279,194493,1,0,0:0:0:0:
360,275,194582,1,0,0:0:0:0:
320,271,194670,1,0,0:0:0:0:
280,268,194758,2,0,L|135:253,1,132.999996448517,2|0,0:0|0:0,0:0:0:0:
377,52,195111,5,0,0:0:0:0:
400,84,195199,1,0,0:0:0:0:
406,123,195288,1,0,0:0:0:0:
396,161,195376,2,0,L|221:177,1,167.999994873047,6|0,0:0|0:0,0:0:0:0:
124,101,195641,2,0,L|215:93,1,77.0000023498536,2|0,0:0|0:0,0:0:0:0:
268,261,195817,5,0,0:0:0:0:
273,221,195905,1,0,0:0:0:0:
278,181,195993,1,0,0:0:0:0:
283,141,196082,1,0,0:0:0:0:
289,101,196170,2,0,P|272:39|205:5,1,132.999996448517,2|0,0:0|0:0,0:0:0:0:
60,256,196523,5,0,0:0:0:0:
48,217,196611,1,0,0:0:0:0:
51,177,196699,1,0,0:0:0:0:
73,143,196788,1,0,0:0:0:0:
108,125,196876,2,0,L|285:141,1,175,2|0,0:0|0:0,0:0:0:0:
424,0,197229,5,0,0:0:0:0:
384,0,197317,1,0,0:0:0:0:
347,16,197405,1,0,0:0:0:0:
324,48,197493,1,0,0:0:0:0:
314,87,197582,2,0,P|317:157|354:214,1,132.999996448517,2|0,0:0|0:0,0:0:0:0:
468,344,197935,6,0,L|475:291,1,41.9999987182618
487,220,198111,1,0,0:0:0:0:
487,220,198199,2,0,L|311:237,1,167.999994873047,6|0,0:0|0:0,0:0:0:0:
163,187,198464,2,0,L|262:177,1,77.0000023498536,2|0,0:0|0:0,0:0:0:0:
318,343,198641,5,0,0:0:0:0:
324,303,198729,1,0,0:0:0:0:
330,263,198817,1,0,0:0:0:0:
336,223,198905,1,0,0:0:0:0:
342,183,198993,2,0,P|329:122|266:82,1,132.999996448517,2|0,0:0|0:0,0:0:0:0:
117,110,199346,5,0,0:0:0:0:
120,147,199435,1,0,0:0:0:0:
123,184,199523,1,0,0:0:0:0:
126,221,199611,1,0,0:0:0:0:
129,258,199699,2,0,L|319:278,1,175,2|0,0:0|0:0,0:0:0:0:
402,351,200052,5,0,0:0:0:0:
368,337,200141,1,0,0:0:0:0:
343,311,200229,1,0,0:0:0:0:
331,277,200317,1,0,0:0:0:0:
331,242,200405,2,0,L|347:123,1,119.000002269745,2|0,0:0|0:0,0:0:0:0:
396,30,200758,6,0,L|345:37,1,41.9999987182618
267,43,200935,1,0,0:0:0:0:
267,43,201023,2,0,L|246:185,1,140,6|0,0:0|0:0,0:0:0:0:
152,225,201288,2,0,L|164:131,1,70,2|0,0:0|0:0,0:0:0:0:
62,84,201464,5,0,0:0:0:0:
84,105,201552,1,0,0:0:0:0:
112,120,201641,1,0,0:0:0:0:
142,126,201729,1,0,0:0:0:0:
175,126,201817,2,0,L|308:120,1,105.000004005432,2|0,0:0|0:0,0:0:0:0:
424,120,202170,5,0,0:0:0:0:
415,148,202258,1,0,0:0:0:0:
408,176,202346,1,0,0:0:0:0:
400,204,202435,1,0,0:0:0:0:
393,232,202523,2,0,L|251:217,1,140,2|0,0:0|0:0,0:0:0:0:
140,102,202876,5,2,1:2:0:0:
182,173,203052,1,2,0:0:0:0:
176,256,203229,1,2,0:0:0:0:
12,331,203405,5,2,1:2:0:0:
60,323,203493,1,0,1:0:0:0:
108,315,203582,1,0,1:0:0:0:
32,212,203758,1,0,1:0:0:0:
176,256,203935,1,0,1:0:0:0:
1,319,204111,1,0,1:0:0:0:
314,322,204288,6,0,B|298:346|298:346|290:259,1,87.5,8|0,3:0|0:0,0:0:0:0:
283,206,204464,1,0,0:0:0:0:
283,206,204552,1,0,1:0:0:0:
489,324,204729,5,0,1:0:0:0:
466,361,204817,2,0,L|452:252,1,87.5,8|0,3:0|0:0,0:0:0:0:
421,192,204993,2,2,L|413:136,2,52.5000020027161
499,4,205258,5,0,1:0:0:0:
509,45,205346,2,0,P|433:94|338:89,1,175,8|0,3:0|0:0,0:0:0:0:
174,33,205611,5,0,1:0:0:0:
213,14,205699,2,0,L|201:115,1,87.5,8|0,3:0|0:0,0:0:0:0:
190,181,205876,1,0,0:0:0:0:
190,181,205964,1,0,1:0:0:0:
28,343,206141,5,0,1:0:0:0:
35,300,206229,2,0,B|10:284|10:284|71:276,1,87.5,8|0,3:0|0:0,0:0:0:0:
152,263,206405,1,2,0:0:0:0:
152,263,206493,2,2,L|212:255,1,52.5000020027161
404,319,206670,5,0,1:0:0:0:
362,323,206758,2,0,L|372:262,3,52.5000020027161,8|0|0|0,3:0|0:0|0:0|0:0,0:0:0:0:
497,87,207111,6,0,L|408:98,1,87.5,8|0,3:0|0:0,0:0:0:0:
324,107,207288,1,0,0:0:0:0:
324,107,207376,1,0,1:0:0:0:
504,286,207552,5,0,1:0:0:0:
512,242,207641,2,0,B|532:221|532:221|471:228,1,87.5,8|0,3:0|0:0,0:0:0:0:
382,239,207817,2,2,L|323:246,2,52.5000020027161
250,376,208082,5,0,1:0:0:0:
291,362,208170,2,0,P|301:285|254:200,1,175,8|0,3:0|0:0,0:0:0:0:
78,191,208435,5,0,1:0:0:0:
121,186,208523,2,0,B|141:206|141:206|134:145,1,87.5,8|0,3:0|0:0,0:0:0:0:
127,68,208699,1,0,0:0:0:0:
127,68,208788,1,0,1:0:0:0:
336,28,208964,5,0,1:0:0:0:
302,0,209052,2,0,L|314:106,1,87.5,8|0,3:0|0:0,0:0:0:0:
370,155,209229,1,2,0:0:0:0:
370,155,209317,2,2,L|378:221,1,52.5000020027161
389,363,209493,5,0,1:0:0:0:
398,319,209582,2,0,P|316:283|259:292,1,131.25,8|0,3:0|0:0,0:0:0:0:
276,286,209758,2,0,L|271:246,3,26.2500010013581,0|0|0|0,1:0|1:0|1:0|1:0,1:0:0:0:
192,332,209935,6,0,L|183:245,1,87.5,8|0,3:0|0:0,0:0:0:0:
172,164,210111,1,0,0:0:0:0:
172,164,210199,1,0,1:0:0:0:
26,37,210376,5,0,1:0:0:0:
64,16,210464,2,0,L|55:103,1,87.5,8|0,3:0|0:0,0:0:0:0:
31,185,210641,2,2,L|85:177,2,52.5000020027161
9,353,210905,5,0,1:0:0:0:
0,310,210993,2,0,P|89:269|173:276,1,175,8|0,3:0|0:0,0:0:0:0:
334,340,211258,5,0,1:0:0:0:
291,348,211346,2,0,B|271:368|271:368|278:307,1,87.5,8|0,3:0|0:0,0:0:0:0:
289,229,211523,1,0,0:0:0:0:
289,229,211611,1,0,1:0:0:0:
432,104,211788,5,0,1:0:0:0:
445,145,211876,2,0,B|351:181|273:126|293:111|203:43|108:87,1,350,8|0,3:0|0:0,0:0:0:0:
34,222,212317,5,0,1:0:0:0:
25,178,212405,2,0,L|119:190,1,87.5,8|0,3:0|0:0,0:0:0:0:
32,168,212582,2,0,L|126:180,1,87.5,2|0,0:0|0:0,0:0:0:0:
288,295,212758,6,0,B|272:317|272:317|266:243,1,87.5,8|0,3:0|0:0,0:0:0:0:
259,173,212935,1,0,0:0:0:0:
259,173,213023,1,0,1:0:0:0:
88,314,213199,5,0,1:0:0:0:
119,344,213287,2,0,L|113:238,1,87.5,8|0,3:0|0:0,0:0:0:0:
110,177,213464,2,2,L|106:114,2,52.5000020027161
350,67,213729,5,0,1:0:0:0:
355,108,213817,2,0,P|275:146|175:128,1,175,8|0,3:0|0:0,0:0:0:0:
8,76,214082,5,0,1:0:0:0:
39,46,214170,2,0,L|33:152,1,87.5,8|0,3:0|0:0,0:0:0:0:
30,213,214347,1,0,0:0:0:0:
30,213,214435,1,0,1:0:0:0:
150,362,214611,5,0,1:0:0:0:
142,319,214699,2,0,B|122:299|122:299|183:306,1,87.5,8|0,3:0|0:0,0:0:0:0:
291,323,214876,2,0,B|270:347|266:372|266:372|250:304|289:242,1,175,2|0,1:2|0:0,0:0:0:0:
469,200,215141,5,0,1:0:0:0:
483,244,215229,2,0,B|349:231|349:231|342:234|342:234|195:218,1,283.500001081467,8|0,3:0|0:0,0:0:0:0:
0,100,215582,6,0,L|108:87,1,97.9999970092774,8|0,3:0|0:0,0:0:0:0:
183,78,215758,1,0,0:0:0:0:
183,78,215846,1,0,1:0:0:0:
415,71,216023,5,0,1:0:0:0:
379,36,216111,2,0,B|359:16|359:16|367:94,1,97.9999970092774,8|0,3:0|0:0,0:0:0:0:
377,170,216288,1,2,0:0:0:0:
377,170,216376,2,2,L|383:232,1,52.5000020027161
401,379,216552,5,0,1:0:0:0:
392,330,216640,2,0,B|415:314|415:314|344:307,1,97.9999970092774,8|0,3:0|0:0,0:0:0:0:
147,349,216817,5,0,0:0:0:0:
147,349,216905,1,0,1:0:0:0:
189,373,216993,2,0,L|175:259,1,97.9999970092774,8|0,3:0|0:0,0:0:0:0:
168,182,217170,1,0,0:0:0:0:
168,182,217258,1,0,1:0:0:0:
33,0,217435,5,0,1:0:0:0:
12,44,217523,2,0,L|122:34,1,97.9999970092774,8|0,3:0|0:0,0:0:0:0:
198,26,217699,1,0,0:0:0:0:
198,26,217788,2,0,L|190:85,1,52.5000020027161
25,280,217964,5,0,1:0:0:0:
0,237,218052,2,0,L|118:225,1,97.9999970092774,8|0,3:0|0:0,0:0:0:0:
268,217,218229,5,0,0:0:0:0:
268,217,218317,1,0,1:0:0:0:
243,181,218405,2,0,B|232:265|232:265|245:294|245:294|235:373,1,195.999994018555,8|0,3:0|0:0,0:0:0:0:
149,355,218670,2,0,L|155:305,1,35,0|0,1:0|0:0,0:0:0:0:
97,64,218846,5,0,1:0:0:0:
78,109,218935,2,0,B|175:100|175:100|181:105|181:105|288:96,1,195.999994018555,8|0,3:0|0:0,0:0:0:0:
361,54,219199,2,0,L|356:88,1,35
363,339,219376,5,0,1:0:0:0:
343,295,219464,2,0,B|485:283|485:283|436:308,1,195.999994018555,8|0,3:0|0:0,0:0:0:0:
192,357,219729,1,0,1:0:0:0:
236,377,219817,2,0,B|242:300|242:300|225:262|225:262|230:185,1,195.999994018555,8|0,3:0|0:0,0:0:0:0:
251,98,220082,2,0,L|205:102,1,35,0|0,1:0|0:0,0:0:0:0:
39,248,220258,5,0,1:0:0:0:
51,200,220346,2,0,B|124:192|124:192|138:173|138:173|154:190|154:190|234:184,1,195.999994018555,8|0,3:0|0:0,0:0:0:0:
312,220,220611,2,0,P|322:183|317:152,1,52.5000020027161,0|0,1:0|0:0,0:0:0:0:
434,25,220788,5,0,1:0:0:0:
448,70,220876,2,0,B|342:77,1,105.000004005432,8|0,3:0|0:0,0:0:0:0:
251,98,221052,2,0,L|256:56,3,41.9999987182618,0|0|0|0,1:0|1:0|1:0|1:0,1:0:0:0:
119,133,221229,6,0,B|128:51|128:51|150:31|150:31|167:54|167:54|148:250,1,315.000012016297,8|0,3:0|0:0,0:0:0:0:
142,320,221582,1,8,3:0:0:0:
238,0,221758,2,0,B|258:30|258:30|251:101,1,105.000004005432,8|0,3:0|0:0,0:0:0:0:
119,133,221935,2,0,L|299:118,1,157.500006008148,8|0,3:0|0:0,0:0:0:0:
265,366,222288,6,0,B|279:251|279:251|309:225|309:225|284:196|284:196|298:65,1,315.000012016297,8|0,3:0|0:0,0:0:0:0:
182,362,222641,2,0,B|194:241|194:241|169:211|169:211|200:186|200:186|214:71,1,315.000012016297,8|0,3:0|0:0,0:0:0:0:
119,133,222993,1,8,3:0:0:0:
425,130,223170,2,0,B|394:110|394:110|323:117,1,105.000004005432,8|0,3:0|0:0,0:0:0:0:
311,20,223346,2,0,L|293:176,1,157.500006008148,8|0,3:0|0:0,0:0:0:0:
483,284,223699,6,0,B|504:238|504:238|472:191|472:191|220:212,1,315.000012016297,8|0,3:0|0:0,0:0:0:0:
102,329,224052,5,8,3:0:0:0:
78,234,224229,1,10,3:0:0:0:
292,163,224405,1,8,3:0:0:0:
93,322,224582,1,8,3:0:0:0:
57,125,224758,5,6,3:2:0:0:
88,141,224846,1,2,3:0:0:0:
130,143,224935,1,2,3:0:0:0:
176,128,225023,1,2,3:0:0:0:
221,94,225111,1,10,3:0:0:0:
279,73,225199,1,2,3:0:0:0:
347,88,225288,1,2,3:0:0:0:
385,154,225376,1,2,3:0:0:0:
376,367,226876,6,0,P|389:328|383:304,1,45.4999979171754,2|0,0:0|0:0,0:0:0:0:
393,372,227052,2,0,P|406:333|400:309,1,45.4999979171754,2|0,0:0|0:0,0:0:0:0:
408,376,227229,2,0,P|421:337|415:313,1,45.4999979171754,2|0,0:0|0:0,0:0:0:0:
385,154,227405,5,0,3:0:0:0:
173,201,227582,2,0,B|264:207|264:207|271:213|271:213|372:221|372:221|398:184|398:184|383:148,1,280,8|0,3:0|0:0,0:0:0:0:
301,103,227846,2,0,L|311:152,1,35,0|0,1:0|0:0,0:0:0:0:
270,242,228023,5,0,1:0:0:0:
285,320,228111,2,0,B|157:310|157:310|149:316|149:316|20:305,1,251.999992309571,8|0,3:0|0:0,0:0:0:0:
24,224,228376,2,0,L|71:228,1,35,0|0,1:0|0:0,0:0:0:0:
41,66,228552,5,0,1:0:0:0:
13,141,228641,2,0,B|66:145|66:145|71:140|71:140|124:143,1,105.000004005432,8|0,3:0|0:0,0:0:0:0:
219,143,228817,1,0,3:0:0:0:
285,320,228993,6,0,B|254:263|283:206|283:206|283:212|283:212|322:150|296:93,1,245.000002336502,8|0,3:0|0:0,0:0:0:0:
246,22,229258,5,0,1:0:0:0:
322,12,229346,1,0,3:0:0:0:
322,12,229435,1,0,1:0:0:0:
378,63,229523,2,0,P|369:119|311:168,1,122.500001168251,8|0,3:0|0:0,0:0:0:0:
41,66,229699,6,0,B|19:20|53:-12|96:-21|135:10|124:81|124:81|120:119|120:119|114:123|114:123|106:201,1,315.000012016297,4|0,3:2|0:0,0:0:0:0:
45,270,230052,2,0,B|-9:247|-9:247|78:237|78:237|77:230|77:230|78:237|78:237|145:229|145:229|145:222|145:222|145:229|145:229|251:217,1,336,0|0,3:0|0:0,0:0:0:0:
435,219,230405,6,0,P|438:286|349:211,1,245.000002336502,8|0,3:0|0:0,0:0:0:0:
374,122,230670,2,0,L|378:171,1,35,0|0,1:0|0:0,0:0:0:0:
365,21,230846,5,0,1:0:0:0:
433,72,230935,2,0,B|384:119|319:92|319:92|325:89|325:89|266:57|206:90,1,245,8|0,3:0|0:0,0:0:0:0:
162,154,231199,5,0,1:0:0:0:
131,86,231288,1,0,3:0:0:0:
131,86,231376,1,0,1:0:0:0:
55,62,231464,2,0,B|47:171|47:171|41:177|41:177|37:255|37:255|70:256|98:283,1,258.999999011993,8|0,3:0|0:0,0:0:0:0:
35,370,231729,2,0,L|38:329,1,35,0|0,1:0|0:0,0:0:0:0:
197,345,231905,5,0,1:0:0:0:
117,356,231993,2,0,B|120:301|120:301|126:301|126:301|120:300|120:300|124:260,1,105.000004005432,8|0,3:0|0:0,0:0:0:0:
131,169,232170,1,0,3:0:0:0:
324,367,232346,2,0,B|327:308|327:308|329:277|309:258|281:273|279:303|279:303|274:366,1,210.000008010865,8|0,3:0|0:0,0:0:0:0:
386,78,232876,5,0,3:0:0:0:
386,78,232964,2,0,L|390:121,1,35,2|0,1:2|0:0,0:0:0:0:
399,215,233141,5,0,1:0:0:0:
476,199,233229,2,0,B|347:187|347:187|341:180|341:180|314:202|314:202|249:196,1,231.000002202988,8|0,3:0|0:0,0:0:0:0:
213,107,233493,1,0,1:0:0:0:
213,107,233582,2,0,B|217:169|217:169|213:166|213:166|219:242,1,122.500001168251,2|0,0:0|0:0,0:0:0:0:
221,318,233758,5,8,3:0:0:0:
344,300,233935,2,0,B|366:280|394:307|381:340|352:335|316:330|316:330|199:316,1,210.000008010865,2|0,0:0|0:0,0:0:0:0:
83,300,234199,5,0,1:0:0:0:
120,369,234288,2,0,P|108:312|134:250,1,122.500001168251,8|0,3:0|0:0,0:0:0:0:
227,112,234464,1,0,3:0:0:0:
55,84,234641,2,0,P|43:154|121:81,1,245.000002336502,8|0,3:0|0:0,0:0:0:0:
108,17,234905,5,0,1:0:0:0:
108,17,234993,1,0,1:0:0:0:
108,17,235082,1,0,1:0:0:0:
187,26,235170,1,8,3:0:0:0:
0,213,235346,6,0,B|92:205|92:205|123:231|123:231|147:198|147:198|220:192|220:192|221:199|221:199|220:192|220:192|311:183,1,346.500003304482,4|0,3:2|0:0,0:0:0:0:
383,214,235699,2,0,B|388:178|388:178|385:171|385:171|391:134,1,70,0|0,3:0|0:0,0:0:0:0:
300,12,235876,2,0,B|324:48|324:48|312:122,1,105.000004005432,2|0,0:0|0:0,0:0:0:0:
288,348,236052,6,0,B|378:340|378:340|423:336|443:292|414:253|377:256|377:256|282:265|282:265|277:271|277:271|182:280,1,420,8|0,3:0|0:0,0:0:0:0:
77,198,236405,2,0,B|80:177|80:177|86:142|126:126|160:153|155:189|155:189|146:247|146:247|152:248|152:248|146:247|146:247|137:317|137:317|131:353|89:368|58:336|63:308|63:308|67:280,1,420,8|0,3:0|0:0,0:0:0:0:
49,86,236758,6,0,B|89:55|145:65|145:65|146:56|146:56|145:65|145:65|197:79|222:125|222:125|246:172|298:179|298:179|298:187|298:187|299:179|299:179|360:180|384:124|384:124|397:125|397:125|384:124|384:124|399:77|369:39,1,525.000020027161,0|0,3:0|0:0,0:0:0:0:
304,94,237288,5,0,3:0:0:0:
378,282,237464,2,0,B|412:229|412:229|383:170,1,119.000002269745,2|0,0:0|0:0,0:0:0:0:
214,170,237641,2,0,B|180:223|180:223|209:282,1,119.000002269745,2|0,0:0|0:0,0:0:0:0:
487,288,237817,2,0,B|333:304|333:304|327:297|327:297|324:306|324:306|213:318|213:318|184:301|184:301|77:315,1,420,8|0,3:0|0:0,0:0:0:0:
0,306,238170,6,0,B|35:331|43:379|43:379|59:256|59:256|54:245|54:245|67:143,1,315.000012016297,0|0,3:0|0:0,0:0:0:0:
85,36,238523,2,0,B|36:42|36:42|7:47|-17:84|13:122|45:118|45:118|123:108|123:108|132:102|132:102|209:91,1,315.000012016297,0|0,3:0|0:0,0:0:0:0:
382,87,238876,6,0,B|364:32|364:32|350:152|350:152|360:177|360:177|350:264,1,280,8|0,3:0|0:0,0:0:0:0:
361,338,239141,2,0,L|326:341,1,35,0|0,1:0|0:0,0:0:0:0:
400,180,239317,5,0,1:0:0:0:
429,255,239405,2,0,B|304:267|304:267|297:262|297:262|178:272,1,251.999992309571,8|0,3:0|0:0,0:0:0:0:
109,238,239670,2,0,L|74:241,1,35,0|0,1:0|0:0,0:0:0:0:
266,346,239846,5,0,1:0:0:0:
190,345,239935,2,0,B|200:294|200:294|198:289|198:289|208:236,1,105.000004005432,8|0,3:0|0:0,0:0:0:0:
224,147,240111,1,0,3:0:0:0:
97,35,240288,6,0,B|123:88|182:111|182:111|175:116|175:116|236:136|297:107,1,245.000002336502,8|0,3:0|0:0,0:0:0:0:
343,28,240552,5,0,1:0:0:0:
388,95,240641,1,0,3:0:0:0:
388,95,240729,1,0,1:0:0:0:
371,169,240817,2,0,P|354:225|284:263,1,122.500001168251,8|0,3:0|0:0,0:0:0:0:
73,327,240993,6,0,B|105:278|169:284|169:284|274:296|274:296|271:303|271:303|274:296|274:296|366:303,1,315.000012016297,4|0,3:2|0:0,0:0:0:0:
145,204,241346,2,0,B|272:217|272:217|273:211|273:211|272:217|272:217|403:228|403:228|335:194,1,336,0|0,3:0|0:0,0:0:0:0:
244,21,241699,6,0,P|317:45|214:98,1,245.000002336502,8|0,3:0|0:0,0:0:0:0:
128,60,241964,2,0,L|184:65,1,35,0|0,1:0|0:0,0:0:0:0:
9,62,242141,1,0,1:0:0:0:
62,0,242229,2,0,B|107:50|78:114|78:114|75:108|75:108|41:166|72:227,1,245,8|0,3:0|0:0,0:0:0:0:
144,249,242493,5,0,1:0:0:0:
82,296,242582,1,0,3:0:0:0:
82,296,242670,1,0,1:0:0:0:
66,370,242758,2,0,B|130:364|130:364|129:357|129:357|131:364|131:364|201:358|201:358|237:375|237:375|313:367,1,258.999999011993,8|0,3:0|0:0,0:0:0:0:
390,371,243023,2,0,L|398:321,1,35,0|0,1:0|0:0,0:0:0:0:
439,209,243199,5,0,1:0:0:0:
466,284,243288,2,0,B|419:288|419:288|409:286|409:286|361:290,1,105.000004005432,8|0,3:0|0:0,0:0:0:0:
257,294,243464,1,0,3:0:0:0:
434,121,243641,2,0,B|389:128|364:158|364:158|344:128|358:98|358:98|388:120|434:119,1,210.000008010865,8|0,3:0|0:0,0:0:0:0:
150,12,244170,5,0,3:0:0:0:
150,12,244258,2,0,L|145:59,1,35,2|0,1:2|0:0,0:0:0:0:
135,142,244435,1,0,1:0:0:0:
68,98,244523,2,0,B|46:124|15:132|15:132|226:116,1,231.000002202988,8|0,3:0|0:0,0:0:0:0:
225,50,244788,5,0,1:0:0:0:
225,50,244876,2,0,B|218:113|218:113|221:120|221:120|214:186,1,122.500001168251,2|0,0:0|0:0,0:0:0:0:
205,335,245052,1,8,3:0:0:0:
48,272,245229,2,0,B|111:278|111:278|140:281|163:266|155:264|177:251|209:254|209:254|272:261,1,210.000008010865,2|0,0:0|0:0,0:0:0:0:
334,266,245493,5,0,1:0:0:0:
387,328,245582,2,0,P|374:254|397:208,1,122.500001168251,8|0,3:0|0:0,0:0:0:0:
487,135,245758,1,0,3:0:0:0:
299,97,245935,2,0,P|344:104|283:16,1,245.000002336502,8|0,3:0|0:0,0:0:0:0:
222,58,246199,5,0,1:0:0:0:
222,58,246288,1,0,1:0:0:0:
222,58,246376,1,0,1:0:0:0:
137,60,246464,1,8,3:0:0:0:
163,208,246641,6,0,B|97:215|97:215|67:186|67:186|183:173|183:173|186:165|186:165|224:186|224:186|312:176,1,346.500003304482,4|0,3:2|0:0,0:0:0:0:
468,165,246993,2,0,B|442:169|442:169|435:166|435:166|399:171,1,70,0|0,3:0|0:0,0:0:0:0:
299,97,247170,2,0,B|326:127|326:127|319:201,1,105.000004005432,2|0,0:0|0:0,0:0:0:0:
61,341,247346,6,0,B|83:292|133:288|133:288|212:279|212:279|244:291|244:291|339:280,1,280,8|0,3:0|0:0,0:0:0:0:
468,165,247611,2,0,L|462:207,1,35,0|0,3:0|0:0,0:0:0:0:
437,351,247788,5,0,1:0:0:0:
404,273,247876,1,8,3:0:0:0:
404,273,249111,6,0,P|393:240|395:215,1,52.5000020027161,2|0,0:0|0:0,0:0:0:0:
213,125,249464,6,0,B|326:116|326:116|332:111|332:111|420:104|420:104|454:142|454:142|427:188|427:188|338:196|338:196|332:192|332:192|212:202,1,525.000020027161,4|0,3:2|0:0,0:0:0:0:
87,73,249993,2,0,P|94:119|142:169,1,115.500001101494,2|0,0:0|0:0,0:0:0:0:
266,330,250170,2,0,B|208:324|162:362|162:362|178:255|178:255|171:242|171:242|191:80,1,388.49999851799,8|0,3:0|0:0,0:0:0:0:
425,17,250523,2,0,B|488:38|471:110|409:114|409:114|351:119|351:119|342:114|342:114|207:125,1,346.500003304482,0|0,3:0|0:0,0:0:0:0:
265,32,250876,5,0,0:0:0:0:
265,32,251052,2,0,B|307:60|303:102|303:102|294:189,1,168,2|0,0:0|0:0,0:0:0:0:
277,360,251405,1,0,3:0:0:0:
468,196,251582,6,0,B|380:203|380:203|374:199|374:199|251:209|251:209|247:215|247:215|158:222,1,315.000012016297,8|0,3:0|0:0,0:0:0:0:
386,238,251935,2,0,B|383:280|383:280|396:293|396:293|381:303|381:303|377:347,1,122.500001168251,2|0,0:0|0:0,0:0:0:0:
181,321,252111,2,0,B|183:278|183:278|170:265|170:265|185:255|185:255|189:211,1,122.500001168251,2|0,0:0|0:0,0:0:0:0:
321,82,252288,6,0,B|343:30|425:33|440:93|433:141|392:154|356:157|334:159|334:159|292:163|292:163|258:165|234:147|241:145|219:129|180:132|180:132|148:135|148:135|149:140|149:140|148:135|148:135|69:142,1,525.000020027161,4|0,3:2|0:0,0:0:0:0:
52,262,252817,5,0,3:0:0:0:
214,7,252993,2,0,P|234:63|208:117,1,122.500001168251,8|0,3:0|0:0,0:0:0:0:
109,111,253169,2,0,P|87:55|115:2,1,122.500001168251,2|0,0:0|0:0,0:0:0:0:
366,0,253346,6,0,B|372:68|372:68|379:68|379:68|372:68|372:68|377:130|377:130|383:129|383:129|377:130|377:130|381:176|381:176|359:226|359:226|369:328,1,346.500003304482,0|0,3:0|0:0,0:0:0:0:
467,303,253699,2,0,B|430:348|370:341|370:341|316:335|316:335|317:342|317:342|316:335|316:335|220:325,1,241.500004606247,2|0,0:0|0:0,0:0:0:0:
252,328,254052,2,0,L|243:239,1,80.5000015354157
231,108,254229,5,0,3:0:0:0:
490,129,254405,2,0,B|425:122|425:122|414:128|414:128|351:120,1,129.499999505997,8|0,3:0|0:0,0:0:0:0:
363,122,254582,2,0,L|372:211,1,80.5000015354157,2|0,0:0|0:0,0:0:0:0:
446,228,254758,2,0,B|339:217|339:217|339:211|339:211|339:217|339:217|300:213|300:213|265:209|237:233|244:233|220:260|175:254|175:254|152:252|152:252|154:247|154:247|153:252|153:252|81:244,1,367.500003504753,2|0,0:0|0:0,0:0:0:0:
25,266,255111,6,0,L|20:222,1,35,0|0,3:0|0:0,0:0:0:0:
34,271,255288,2,0,B|28:219|28:219|31:213|31:213|27:168,1,97.9999970092774
126,92,255464,2,0,B|133:153|133:153|128:161|128:161|134:214,1,122.500001168251,2|0,0:0|0:0,0:0:0:0:
137,319,255641,2,0,B|116:300|116:300|171:294|171:294|176:299|176:299|218:295,1,129.499999505997,2|0,0:0|0:0,0:0:0:0:
408,284,255817,5,8,3:0:0:0:
408,284,255993,2,0,L|412:237,1,35
335,79,256170,2,0,B|391:74|391:74|397:63|397:63|405:73|405:73|464:69,1,132.999996448517,2|0,0:0|0:0,0:0:0:0:
468,186,256346,2,0,B|412:191|412:191|406:202|406:202|398:192|398:192|339:196,1,132.999996448517,2|0,0:0|0:0,0:0:0:0:
133,212,256523,5,0,3:0:0:0:
170,139,256699,2,0,P|145:130|119:131,1,52.5000020027161,2|0,0:0|0:0,0:0:0:0:
100,286,256876,2,0,P|124:294|150:293,1,52.5000020027161,2|0,0:0|0:0,0:0:0:0:
266,226,257052,1,0,3:0:0:0:
5,202,257229,6,0,B|64:209|64:209|71:204|71:204|140:212,1,129.499999505997,8|0,3:0|0:0,0:0:0:0:
266,226,257405,2,0,L|206:235,1,52.5000020027161,2|0,0:0|0:0,0:0:0:0:
268,201,257493,2,0,L|346:191,1,57.7500005507469,2|0,0:0|0:0,0:0:0:0:
271,175,257581,2,0,B|276:120|276:120|270:120|270:120|276:120|276:120|282:64,1,105.000004005432,2|0,0:0|0:0,0:0:0:0:
356,41,257758,2,0,B|297:49|297:49|296:42|296:42|297:49|297:49|237:56,1,122.500001168251,2|0,0:0|0:0,0:0:0:0:
81,150,257935,6,0,B|81:95|41:59|41:59|66:2|135:11|135:11|122:105|122:105|129:104|129:104|122:105|122:105|112:175|112:175|120:172|120:172|112:175|112:175|94:330,1,525.000020027161,4|0,3:2|0:0,0:0:0:0:
193,185,258464,2,0,B|186:240|186:240|193:240|193:240|186:240|186:240|180:289,1,112,2|0,0:0|0:0,0:0:0:0:
0,342,258641,6,0,B|110:331|110:331|113:324|113:324|110:331|110:331|189:322|189:322|194:316|194:316|236:345|236:345|385:327,1,398.999989345551,8|0,3:0|0:0,0:0:0:0:
476,281,258993,2,0,B|471:328|471:328|467:360|427:383|391:350|395:320|395:320|404:244|404:244|428:210|428:210|438:126,1,357.000006809235,0|0,3:0|0:0,0:0:0:0:
374,35,259346,2,0,B|424:28|424:28|447:48|482:51|482:51|407:60|407:60|400:57|400:57|294:71,1,293.999991027832,0|0,3:0|0:0,0:0:0:0:
332,257,259699,6,0,B|357:239|389:238|389:238|358:232|336:205,1,122.500001168251,2|0,0:0|0:0,0:0:0:0:
150,194,259876,2,0,B|124:211|92:212|92:212|123:218|145:245,1,122.500001168251,2|0,0:0|0:0,0:0:0:0:
263,0,260052,6,0,L|224:385,1,367.500003504753,8|0,3:0|0:0,0:0:0:0:
123,357,260405,2,0,B|202:349|202:349|200:342|200:342|202:349|202:349|273:341|273:341|272:333|272:333|273:341|273:341|353:333,1,241.500004606247,2|0,0:0|0:0,0:0:0:0:
424,331,260758,6,0,P|438:297|431:283,1,52.5000020027161,2|0,0:0|0:0,0:0:0:0:
356,204,260934,1,2,1:2:0:0:
356,204,261022,1,0,1:0:0:0:
356,204,261111,1,2,1:2:0:0:
262,315,261287,2,0,P|256:291|270:268,1,52.5000020027161,2|0,1:2|0:0,0:0:0:0:
439,109,261464,6,0,B|466:146|513:150|513:150|366:161|366:161|367:155|367:155|366:161|366:161|299:166|299:166|301:159|301:159|299:166|299:166|234:170,1,388.49999851799,8|0,3:0|0:0,0:0:0:0:
117,201,261817,2,0,B|104:159|104:159|138:111|138:111|133:108|133:108|138:112|138:112|175:64|175:64|197:120|197:120|202:116|202:116|197:120|197:120|218:175|218:175|185:223,1,346.500003304482,0|0,3:0|0:0,0:0:0:0:
150,281,262170,5,0,0:0:0:0:
233,283,262346,2,0,P|228:317|213:339,1,52.5000020027161,2|0,0:0|0:0,0:0:0:0:
67,269,262523,2,0,P|65:303|77:327,1,52.5000020027161,2|0,0:0|0:0,0:0:0:0:
175,64,262699,1,0,3:0:0:0:
2,182,262876,6,0,B|94:175|94:175|98:169|98:169|216:158|216:158|223:163|223:163|311:156,1,315.000012016297,8|0,3:0|1:0,0:0:0:0:
84,142,263229,2,0,B|71:114|71:114|87:97|87:97|95:28,1,122.500001168251,2|0,0:0|0:0,0:0:0:0:
263,21,263405,2,0,B|276:49|276:49|260:66|260:66|252:135,1,122.500001168251,2|0,0:0|0:0,0:0:0:0:
227,320,263582,6,0,B|84:335|84:335|115:293|110:249|110:249|217:238|217:238|217:245|217:245|217:238|217:238|296:230|296:230|296:237|296:237|296:230|296:230|384:222,1,525.000020027161,4|0,3:2|0:0,0:0:0:0:
364,314,264111,1,0,3:0:0:0:
387,105,264288,2,0,B|450:110|450:110|493:112|515:153|489:194|447:192|447:192|378:186|378:186|378:194|378:194|378:186|378:186|314:180|314:180|313:188|313:188|314:180|314:180|232:174,1,420,8|0,3:0|0:0,0:0:0:0:
141,15,264641,6,0,B|82:33|82:103|82:103|191:109|191:109|197:116|197:116|225:95|225:95|342:102,1,346.500003304482,0|0,3:0|0:0,0:0:0:0:
387,105,264993,2,0,P|325:104|375:127,1,157.500006008148,0|0,0:3|0:0,0:0:0:0:
498,112,265346,2,0,B|450:111|450:111|445:107|445:107|387:106,1,112,2|0,0:0|0:0,0:0:0:0:
245,98,265522,5,0,3:0:0:0:
287,353,265699,2,0,B|267:219,1,129.499999505997,8|0,3:0|0:0,0:0:0:0:
268,225,265876,2,0,B|208:221|208:221|201:227|201:227|151:223,1,112,2|0,0:0|0:0,0:0:0:0:
89,306,266052,1,0,0:0:0:0:
89,306,266229,2,0,B|149:310|149:310|156:304|156:304|206:308,1,112,2|0,0:0|0:0,0:0:0:0:
427,319,266405,6,0,L|420:277,1,35,0|0,3:0|0:0,0:0:0:0:
438,325,266582,2,0,B|430:273|430:273|434:264|434:264|428:223,1,97.9999970092774
459,151,266758,2,0,B|395:146|395:146|385:152|385:152|334:149,1,122.500001168251,2|0,0:0|0:0,0:0:0:0:
352,277,266935,2,0,B|341:211|341:211|346:199|346:199|339:148,1,129.499999505997,2|0,0:0|0:0,0:0:0:0:
200,15,267111,6,0,B|190:35|178:47|178:47|190:58|193:74|193:74|199:58|215:47|215:47|204:34|200:14,1,115.500001101494,8|0,3:0|0:0,0:0:0:0:
176,268,267288,2,0,B|185:247|197:235|197:235|185:224|182:208|182:208|176:224|160:235|160:235|172:249|176:269,1,115.500001101494,2|0,0:0|0:0,0:0:0:0:
90,121,267464,2,0,B|169:115|169:115|176:108|176:108|273:99|273:99|315:95|344:131|339:183|290:202|255:189|241:161,1,346.500003304482,2|0,0:0|0:0,0:0:0:0:
200,15,267817,5,0,3:0:0:0:
335,0,267993,2,0,B|300:49|329:101|333:90|363:137|329:194,1,188.999994232178,2|0,0:0|0:0,0:0:0:0:
406,50,268346,1,0,3:0:0:0:
269,215,268523,2,0,L|404:226,1,129.499999505997,8|0,3:0|0:0,0:0:0:0:
398,225,268700,2,0,P|426:226|410:210,1,62.9999980773926,2|0,0:0|1:0,0:0:0:0:
203,313,268876,5,0,1:0:0:0:
207,269,268965,1,0,1:0:0:0:
189,229,269053,1,0,1:0:0:0:
193,185,269142,1,0,1:0:0:0:
250,129,269229,2,0,B|192:156|143:123|143:123|138:130|138:130|143:123|143:123|90:86|25:121|25:121|42:213|42:213|39:220|39:220|61:327|61:327|83:255,1,525.000020027161,4|0,3:2|0:0,0:0:0:0:
115,200,269758,5,0,3:0:0:0:
249,379,269935,2,0,L|279:2,1,367.500003504753,8|0,3:0|0:0,0:0:0:0:
359,30,270288,2,0,L|355:81,2,43.75,0|0|0,1:0|1:0|1:0,1:0:0:0:
128,79,270464,1,0,3:0:0:0:
340,225,270641,5,8,3:0:0:0:
241,244,270817,1,2,0:0:0:0:
476,201,270993,5,0,3:0:0:0:
156,349,271170,2,0,B|235:285|203:186|203:186|208:264|145:319|54:334|-8:231|77:166|123:193,1,503.999984619141,8|0,3:0|0:0,0:0:0:0:
385,264,272052,6,0,B|419:363|351:392|262:391|240:298|305:216|309:229|350:159|300:77,1,419.999987182618,4|0,3:2|0:0,0:0:0:0:
185,101,272582,2,0,B|272:156|345:73|312:-44|171:-17|102:-5|42:74,1,419.999987182618,0|0,3:0|0:0,0:0:0:0:
23,264,273111,6,0,L|400:216,1,367.500003504753,8|0,3:0|0:0,0:0:0:0:
477,205,273464,1,0,3:0:0:0:
347,326,273641,2,0,B|394:256|355:194|345:212|310:146|360:79,1,251.999992309571,2|0,0:0|0:0,0:0:0:0:
477,205,273993,1,0,3:0:0:0:
437,50,274170,5,2,0:0:0:0:
437,50,274258,1,0,1:0:0:0:
455,283,274435,1,0,1:0:0:0:
477,205,274523,6,0,L|106:184,1,367.500003504753,8|0,3:0|0:0,0:0:0:0:
57,102,274876,6,0,B|83:71|87:29|87:29|116:121|70:214,1,262.5,4|0,3:2|0:0,0:0:0:0:
81,220,275229,2,0,P|99:184|104:160,1,52.5000020027161,2|0,0:0|0:0,0:0:0:0:
241,36,275405,2,0,P|210:123|234:292,1,262.5,0|0,3:0|0:0,0:0:0:0:
221,294,275758,2,0,P|204:256|201:230,1,52.5000020027161,2|0,0:0|0:0,0:0:0:0:
447,181,275935,6,0,L|76:221,1,367.500003504753,8|0,3:0|0:0,0:0:0:0:
0,233,276288,1,0,3:0:0:0:
64,366,276464,2,0,P|107:275|109:114,1,262.5,2|0,0:0|0:0,0:0:0:0:
203,132,276817,1,0,3:0:0:0:
1,65,276993,2,0,B|54:106|111:111|165:86|169:-6|94:-24|56:9,1,262.5,2|0,0:0|0:0,0:0:0:0:
0,233,277346,6,0,L|378:265,1,367.500003504753,8|0,3:0|0:0,0:0:0:0:
456,272,277699,2,0,B|424:312|429:360|429:360|378:275|431:184|439:201|483:118|433:40,1,419.999987182618,4|0,3:2|0:0,0:0:0:0:
272,73,278229,2,0,B|360:24|420:121|382:200|301:221|179:181|115:99,1,419.999987182618,0|0,3:0|0:0,0:0:0:0:
0,233,278758,6,0,L|384:197,1,367.500003504753,8|0,3:0|0:0,0:0:0:0:
453,189,279111,1,0,3:0:0:0:
332,297,279288,2,0,B|317:347|371:357|395:328|404:258|357:184,1,209.999993591309,2|0,0:0|0:0,0:0:0:0:
271,82,279641,1,0,3:0:0:0:
426,21,279817,5,2,0:0:0:0:
426,21,279905,1,0,1:0:0:0:
426,267,280082,1,0,1:0:0:0:
453,189,280170,2,0,L|68:163,1,367.500003504753,8|0,3:0|0:0,0:0:0:0:
83,273,280523,6,0,B|127:185|107:97|107:97|102:148|72:183,1,251.999992309571,4|0,3:2|0:0,0:0:0:0:
75,161,280876,2,0,P|89:130|95:89,1,52.5000020027161,2|0,0:0|0:0,0:0:0:0:
252,309,281052,2,0,B|232:233|277:171|282:184|345:140|373:19|215:-24|168:79|201:145,1,419.999987182618,0|0,3:0|0:0,0:0:0:0:
0,258,281582,6,0,L|373:220,1,367.500003504753,8|0,3:0|0:0,0:0:0:0:
464,210,281935,1,0,3:0:0:0:
446,372,282111,2,0,P|387:245|402:118,1,251.999992309571,2|0,0:0|0:0,0:0:0:0:
446,2,282464,5,0,3:0:0:0:
328,64,282641,1,2,0:0:0:0:
213,52,282817,1,2,0:0:0:0:
464,210,282993,6,0,L|91:172,1,367.500003504753,8|0,3:0|0:0,0:0:0:0:
47,325,283346,2,0,B|-27:335|-39:207|91:204|141:309|141:309|123:226|166:132,1,419.999987182618,4|0,3:2|0:0,0:0:0:0:
236,46,283876,2,0,B|268:-4|396:-46|415:138|333:173|204:92|223:85|169:46|83:94,1,419.999987182618,0|0,3:0|0:0,0:0:0:0:
12,220,284405,6,0,L|385:182,1,367.500003504753,8|0,3:0|0:0,0:0:0:0:
459,175,284758,1,0,3:0:0:0:
284,214,284935,2,0,B|252:266|304:331|304:331|368:283|356:224,1,251.999992309571,2|0,0:0|0:0,0:0:0:0:
331,146,285288,1,0,3:0:0:0:
429,338,285464,5,2,0:0:0:0:
429,338,285552,1,0,1:0:0:0:
444,98,285729,1,0,1:0:0:0:
459,175,285817,6,0,L|87:149,1,367.500003504753,8|0,3:0|0:0,0:0:0:0:
0,137,286170,2,0,B|36:116|54:75|54:75|77:172|27:259,1,262.5,4|0,3:2|0:0,0:0:0:0:
40,268,286523,2,0,P|58:234|69:199,1,52.5000020027161,2|0,0:0|0:0,0:0:0:0:
279,76,286699,2,0,B|271:-3|135:17|176:155|218:214,1,262.5,0|0,3:0|0:0,0:0:0:0:
198,206,287052,2,0,P|181:169|173:136,1,52.5000020027161,2|0,0:0|0:0,0:0:0:0:
40,268,287229,6,0,L|430:229,1,367.500003504753,8|0,3:0|0:0,0:0:0:0:
488,219,287582,1,0,3:0:0:0:
401,329,287758,2,0,B|349:263|383:194|392:204|424:128|368:69,1,262.5,2|0,0:0|0:0,0:0:0:0:
298,41,288111,1,0,3:0:0:0:
201,126,288288,2,0,P|325:132|453:49,1,262.5,2|0,0:0|0:0,0:0:0:0:
488,219,288641,6,0,L|115:253,1,367.500003504753,8|0,3:0|0:0,0:0:0:0:
26,264,288993,2,0,B|3:338|57:392|146:376|176:316|153:217|122:136|56:82,1,419.999987182618,4|0,3:2|0:0,0:0:0:0:
11,168,289523,2,0,B|130:208|179:148|157:148|191:58|342:64|357:188|265:232|217:194,1,419.999987182618,0|0,3:0|0:0,0:0:0:0:
7,56,290052,6,0,L|384:91,1,367.500003504753,8|0,3:0|0:0,0:0:0:0:
464,99,290405,1,0,3:0:0:0:
446,263,290582,2,0,P|341:194|378:85,1,251.999992309571,2|0,0:0|0:0,0:0:0:0:
469,104,290935,1,0,3:0:0:0:
306,177,291111,5,2,0:0:0:0:
306,177,291199,1,0,1:0:0:0:
428,343,291376,1,0,1:0:0:0:
446,263,291464,2,0,L|77:297,1,367.500003504753,8|0,3:0|0:0,0:0:0:0:
48,365,291817,6,0,L|70:244,1,122.500001168251,8|0,3:0|0:0,0:0:0:0:
88,168,291993,1,0,0:0:0:0:
88,168,292082,1,0,1:0:0:0:
215,361,292258,1,0,1:0:0:0:
134,367,292346,2,0,L|156:246,1,122.500001168251,8|0,3:0|0:0,0:0:0:0:
174,170,292522,1,0,0:0:0:0:
174,170,292611,1,0,1:0:0:0:
28,55,292788,5,0,1:0:0:0:
0,131,292876,2,0,L|261:150,1,245.000002336502,8|0,3:0|0:0,0:0:0:0:
401,21,293141,5,0,1:0:0:0:
320,15,293229,2,0,L|342:136,1,122.500001168251,8|0,3:0|0:0,0:0:0:0:
360,212,293405,1,0,0:0:0:0:
360,212,293494,1,0,1:0:0:0:
431,371,293670,5,0,1:0:0:0:
455,293,293758,2,0,L|332:287,1,122.500001168251,8|0,3:0|0:0,0:0:0:0:
254,288,293934,1,0,0:0:0:0:
254,288,294023,1,0,1:0:0:0:
123,353,294199,5,0,1:0:0:0:
199,378,294288,2,0,L|236:7,1,367.500003504753,8|0,3:0|0:0,0:0:0:0:
235,12,294641,6,0,P|180:53|36:61,1,209.999993591309,2|0,0:0|0:0,0:0:0:0:
33,73,295170,2,0,P|71:85|106:85,1,70,2|0,0:0|0:0,0:0:0:0:
363,6,295346,6,0,B|310:79|347:147|350:128|391:199|341:279,1,283.500001081467,8|0,3:0|0:0,0:0:0:0:
222,335,295699,2,0,B|295:215|480:199|473:348|410:393|336:360,1,385.000011749268,0|0,3:0|0:0,0:0:0:0:
356,380,296229,2,0,P|428:357|375:244,1,231.000007049561,2|0,0:0|0:0,0:0:0:0:
222,335,296582,5,0,3:0:0:0:
188,127,296758,1,8,3:0:0:0:
188,127,296846,1,0,1:0:0:0:
119,234,297023,1,0,1:0:0:0:
119,234,297111,2,0,P|181:170|367:143,1,262.5,2|0,0:0|0:0,0:0:0:0:
426,301,297464,6,0,B|386:220|431:165|438:181|465:142|483:49|439:5|338:5|306:82|352:148,1,419.999987182618,4|0,3:2|0:0,0:0:0:0:
504,236,297993,1,0,3:0:0:0:
226,301,298170,2,0,B|248:340|241:385|241:385|296:296|259:185,1,283.500001081467,8|0,3:0|0:0,0:0:0:0:
152,21,298523,2,0,P|300:89|144:138,1,419.999987182618,0|0,3:0|0:0,0:0:0:0:
136,148,299052,2,0,P|220:184|316:73,1,251.999992309571,2|0,0:0|0:0,0:0:0:0:
84,80,299405,5,0,3:0:0:0:
226,301,299582,2,0,B|183:322|127:312|95:212|208:164|294:223,1,283.500001081467,8|0,3:0|0:0,0:0:0:0:
343,335,299935,2,0,P|314:236|375:68,1,262.5,2|0,0:0|0:0,0:0:0:0:
461,33,300288,6,0,B|389:75|312:44|333:36|259:5|176:49|176:49|236:43|278:69,1,385.000011749268,0|0,3:0|0:0,0:0:0:0:
260,73,300817,2,0,P|211:62|173:65,1,77.0000023498536,2|0,0:0|0:0,0:0:0:0:
53,272,300993,2,0,B|160:227|248:289|248:289|207:275|169:286,1,283.500001081467,8|0,3:0|0:0,0:0:0:0:
38,265,301346,2,0,P|128:243|268:281,1,231.000007049561,2|0,0:0|0:0,0:0:0:0:
208,371,301699,5,0,3:0:0:0:
208,371,301876,2,0,P|186:271|222:129,1,231.000007049561,2|0,0:0|0:0,0:0:0:0:
307,0,302229,5,0,3:0:0:0:
508,85,302405,1,8,3:0:0:0:
508,85,302493,1,0,1:0:0:0:
436,14,302670,1,0,1:0:0:0:
436,14,302758,2,0,B|387:83|424:150|429:136|463:206|411:271,1,262.5,2|0,0:0|0:0,0:0:0:0:
317,263,303111,6,0,B|438:234|452:387|368:417|227:365|173:282,1,385.000011749268,4|0,3:2|0:0,0:0:0:0:
176,311,303641,2,0,P|216:347|247:363,1,77.0000023498536,2|0,0:0|0:0,0:0:0:0:
428,168,303817,2,0,P|302:221|143:202,1,283.500001081467,8|0,3:0|0:0,0:0:0:0:
116,55,304170,2,0,B|79:118|105:176|115:160|139:217|106:277,1,231.000007049561,0|0,3:0|0:0,0:0:0:0:
0,359,304523,1,0,3:0:0:0:
0,359,304699,2,0,P|84:310|211:300,1,210,2|0,0:0|0:0,0:0:0:0:
314,347,305052,5,2,0:0:0:0:
402,82,305229,1,8,3:0:0:0:
313,150,305405,1,2,0:0:0:0:
214,155,305582,1,2,0:0:0:0:
231,0,305758,6,0,P|255:46|252:81,1,70,2|0,0:0|0:0,0:0:0:0:
112,125,305935,2,0,P|139:81|171:66,1,70,2|0,0:0|0:0,0:0:0:0:
313,150,306111,1,0,1:0:0:0:
313,150,306199,1,0,1:0:0:0:
313,150,306288,1,0,1:0:0:0:
244,0,306464,6,0,P|268:46|265:81,1,70,2|0,0:0|0:0,0:0:0:0:
190,354,306641,2,0,P|282:285|458:257,1,283.500001081467,8|0,3:0|0:0,0:0:0:0:
487,337,306993,2,0,B|443:257|479:196|490:214|510:184|540:88|486:44|371:64|397:163,1,385.000011749268,0|0,3:0|0:0,0:0:0:0:
381,158,307523,2,0,P|413:79|512:147,1,231.000007049561,2|0,0:0|0:0,0:0:0:0:
487,337,307876,5,0,3:0:0:0:
208,191,308052,1,8,3:0:0:0:
208,191,308141,1,0,1:0:0:0:
250,359,308317,1,0,1:0:0:0:
250,359,308405,2,0,P|224:319|224:273,1,87.5
301,201,308582,2,0,L|197:189,1,94.5000003604889,2|0,0:2|0:0,0:0:0:0:
44,267,308758,6,0,B|81:312|79:376|79:376|133:301|91:205|86:237|40:133|92:54,1,437.5,4|0,3:2|0:0,0:0:0:0:
207,190,309288,1,0,3:0:0:0:
0,74,309464,2,0,P|106:140|279:129,1,283.500001081467,8|0,3:0|0:0,0:0:0:0:
462,57,309817,2,0,P|463:161|324:39,1,419.999987182618,0|0,3:0|0:0,0:0:0:0:
307,37,310346,2,0,P|279:120|399:215,1,251.999992309571,2|0,0:0|0:0,0:0:0:0:
396,3,310699,5,0,3:0:0:0:
427,310,310876,2,0,B|497:352|531:262|453:225|357:233|278:290,1,283.500001081467,8|0,3:0|0:0,0:0:0:0:
512,260,311229,2,0,P|416:233|268:276,1,251.999992309571,2|0,0:0|0:0,0:0:0:0:
108,281,311582,6,0,B|148:315|153:369|153:369|210:227|158:89,1,385.000011749268,0|0,3:0|0:0,0:0:0:0:
170,84,312111,2,0,P|185:127|193:179,1,77.0000023498536,2|0,0:0|0:0,0:0:0:0:
25,302,312288,2,0,B|104:352|173:307|147:302|220:257|294:295,1,283.500001081467,8|0,3:0|0:0,0:0:0:0:
387,358,312641,2,0,P|389:272|320:342,1,231.000007049561,2|0,0:0|0:0,0:0:0:0:
486,357,312993,5,0,3:0:0:0:
486,357,313170,2,0,B|511:284|474:236|466:251|429:196|447:131,1,231.000007049561,2|0,0:0|0:0,0:0:0:0:
505,6,313523,5,0,3:0:0:0:
291,5,313699,2,0,P|251:97|261:195,1,189.000000720978,8|0,3:0|0:0,0:0:0:0:
307,272,313964,5,0,1:0:0:0:
278,275,314052,1,0,1:0:0:0:
249,278,314141,1,0,1:0:0:0:
220,281,314229,1,0,1:0:0:0:
191,284,314317,1,0,1:0:0:0:
147,355,314405,6,0,B|194:224|139:80|139:80|142:142|113:196,1,385.000011749268,4|0,3:2|0:0,0:0:0:0:
55,273,314935,1,0,3:0:0:0:
4,39,315111,2,0,P|111:103|276:111,1,283.500001081467,8|0,3:0|0:0,0:0:0:0:
350,30,315464,6,0,L|357:77,3,26.2500010013581,0|0|0|0,1:0|1:0|1:0|1:0,1:0:0:0:
365,148,315641,1,0,3:0:0:0:
191,284,315817,1,8,3:0:0:0:
132,220,315993,2,0,P|168:200|213:202,1,70,2|0,0:0|0:0,0:0:0:0:
378,269,316170,5,0,3:0:0:0:
96,311,316346,1,8,3:0:0:0:
104,318,316523,1,2,0:0:0:0:
126,217,316700,1,2,0:0:0:0:
111,134,316876,1,2,0:0:0:0:
66,79,317053,1,2,0:0:0:0:
25,222,317229,6,0,B|55:220|80:239|80:239|107:228|120:203|120:203|160:205|181:235|181:235|227:223|254:171|254:171|316:188|335:243|335:243|424:232|442:156,1,545.999975006105
