osu file format v14

[General]
AudioFilename: audio.ogg
AudioLeadIn: 0
PreviewTime: 255478
Countdown: 0
SampleSet: None
StackLeniency: 0.7
Mode: 3
LetterboxInBreaks: 0
SpecialStyle: 0
WidescreenStoryboard: 1

[Editor]
DistanceSpacing: 1.5
BeatDivisor: 8
GridSize: 32
TimelineZoom: 3.799998

[Metadata]
Title:<> ~Truth in Uncertainty~ LN Training
TitleUnicode:《/nttld.:beings》 ~Truth in Uncertainty~ LN Training
Artist:GTS Sound Team
ArtistUnicode:GTS Sound Team
Creator:ytGrapeFrootZ34
Version:7
Source:Expert Global Taiko Showdown 2022
Tags:LN, ena, ezmmr, upan, castella, suddendeath, onta, Hylotl, SoraIro-' , Marathon, Cicada, Longnote, stream, jack, speed, tech, burst
BeatmapID:4556988
BeatmapSetID:2160950

[Difficulty]
HPDrainRate:6
CircleSize:4
OverallDifficulty:6.6
ApproachRate:5
SliderMultiplier:1.4
SliderTickRate:1

[Events]
//Background and Video events
0,0,"bgggg.jpg",0,0
//Break Periods
//Storyboard Layer 0 (Background)
//Storyboard Layer 1 (Fail)
//Storyboard Layer 2 (Pass)
//Storyboard Layer 3 (Foreground)
//Storyboard Layer 4 (Overlay)
//Storyboard Sound Samples

[TimingPoints]
1073,272.727272727273,5,1,0,50,1,8
1073,-84.7457627118644,5,1,0,50,0,8
2164,272.727272727273,4,1,0,50,1,0
2164,-84.7457627118644,4,1,0,50,0,0
63232,272.727272727273,4,1,0,50,1,0
63232,-84.7457627118644,4,1,0,50,0,0
78505,272.727272727273,4,1,0,50,1,0
78505,-84.7457627118644,4,1,0,50,0,0
98141,272.727272727273,4,1,0,50,1,0
98141,-84.7457627118644,4,1,0,50,0,0
124322,266.666666666667,4,1,0,50,1,0
124322,-86.2068965517241,4,1,0,50,0,0
125388,250,4,1,0,50,1,0
125388,-92.5925925925926,4,1,0,50,0,0
126388,235.294117647059,4,1,0,50,1,0
126388,-98.0392156862745,4,1,0,50,0,0
127329,222.222222222222,4,1,0,50,1,0
127329,-104.166666666667,4,1,0,50,0,0
128217,210.526315789474,4,1,0,50,1,0
128217,-109.89010989011,4,1,0,50,0,0
129059,200,4,1,0,50,1,0
129059,-114.942528735632,4,1,0,50,0,0
130659,230.769230769231,5,1,0,50,1,0
130659,-100,5,1,0,50,0,0
131725,526.315789473684,727,1,0,50,1,0
131725,-43.859649122807,727,1,0,50,0,0
140124,523.331879633668,8,1,0,50,1,0
140124,-44.0528634361233,8,1,0,50,0,0
148497,523.331879633668,8,1,0,50,1,8
148497,-44.0528634361233,8,1,0,50,0,8
149282,545.454545454546,4,1,0,50,1,0
149282,-42.3728813559322,4,1,0,50,0,0
156907,272.727272727273,4,1,0,50,1,0
156907,-84.7457627118644,4,1,0,50,0,0
157997,300,4,1,0,50,1,0
157997,-76.9230769230769,4,1,0,50,0,0
179597,300,4,1,0,50,1,0
179597,-76.9230769230769,4,1,0,50,0,0
196397,300,4,1,0,50,1,0
196397,-76.9230769230769,4,1,0,50,0,0
220397,400,4,1,0,50,1,8
220397,-57.8034682080925,4,1,0,50,0,8
220418,400,3,1,0,50,1,0
220418,-57.8034682080925,3,1,0,50,0,0
227318,400,6,1,0,50,1,0
227318,-57.8034682080925,6,1,0,50,0,0
229418,400,3,1,0,50,1,0
229418,-57.8034682080925,3,1,0,50,0,0
234218,400,6,1,0,50,1,0
234218,-57.8034682080925,6,1,0,50,0,0
236318,400,3,1,0,50,1,0
236318,-57.8034682080925,3,1,0,50,0,0
237218,400,3,1,0,50,1,8
237218,-57.8034682080925,3,1,0,50,0,8
238418,333.333333333334,4,1,0,50,1,0
238418,-69.4444444444444,4,1,0,50,0,0
238751,300,4,1,0,50,1,8
238751,-76.9230769230769,4,1,0,50,0,8
239051,272.727272727273,4,1,0,50,1,8
239051,-84.7457627118644,4,1,0,50,0,8
239596,260.869565217391,4,1,0,50,1,0
239596,-88.495575221239,4,1,0,50,0,0
239856,272.727272727273,4,1,0,50,1,8
239856,-84.7457627118644,4,1,0,50,0,8
240128,260.869565217391,4,1,0,50,1,8
240128,-88.495575221239,4,1,0,50,0,8
240649,260.869565217391,4,1,0,50,1,0
240649,-88.495575221239,4,1,0,50,0,0
240910,250,4,1,0,50,1,8
240910,-92.5925925925926,4,1,0,50,0,8
241160,244.897959183673,4,1,0,50,1,8
241160,-94.3396226415094,4,1,0,50,0,8
241404,240,4,1,0,50,1,8
241404,-96.1538461538461,4,1,0,50,0,8
241644,235.294117647059,4,1,0,50,1,0
241644,-98.0392156862745,4,1,0,50,0,0
242555,230.769230769231,4,1,0,50,1,0
242555,-100,4,1,0,50,0,0
255478,230.769230769231,5,1,0,50,1,0
255478,-100,5,1,0,50,0,0
256631,230.769230769231,4,1,0,50,1,0
256631,-100,4,1,0,50,0,0
281554,230.769230769231,5,1,0,50,1,0
281554,-100,5,1,0,50,0,0
282707,230.769230769231,4,1,0,50,1,0
282707,-100,4,1,0,50,0,0
283630,230.769230769231,5,1,0,50,1,0
283630,-100,5,1,0,50,0,0
284783,230.769230769231,4,1,0,50,1,0
284783,-100,4,1,0,50,0,0
288475,230.769230769231,6,1,0,50,1,0
288475,-100,6,1,0,50,0,0
291244,230.769230769231,6,1,0,50,1,0
291244,-100,6,1,0,50,0,0
324474,230.769230769231,8,1,0,50,1,0
324474,-100,8,1,0,50,0,0
326320,230.769230769231,4,1,0,50,1,0
326320,-100,4,1,0,50,0,0
370627,224.299065420561,4,1,0,50,1,0
370627,-103.092783505155,4,1,0,50,0,0
372421,218.181818181818,4,1,0,50,1,0
372421,-105.263157894737,4,1,0,50,0,0
374166,212.389380530973,4,1,0,50,1,0
374166,-108.695652173913,4,1,0,50,0,0
375865,206.896551724138,4,1,0,50,1,0
375865,-111.111111111111,4,1,0,50,0,0
377520,206.896551724138,4,1,0,50,1,0
377520,-111.111111111111,4,1,0,50,0,0
410623,413.793103448276,4,1,0,50,1,0
410623,-55.8659217877095,4,1,0,50,0,0

[Colours]
Combo1 : 255,121,124
Combo2 : 255,255,255
Combo3 : 170,170,170

[HitObjects]
320,192,115595,1,0,0:0:0:0:
64,192,115595,128,0,115731:0:0:0:0:
448,192,115595,128,0,115663:0:0:0:0:
192,192,115663,1,0,0:0:0:0:
320,192,115663,128,0,115868:0:0:0:0:
448,192,115731,1,0,0:0:0:0:
192,192,115731,128,0,115800:0:0:0:0:
64,192,115800,1,0,0:0:0:0:
448,192,115800,128,0,115902:0:0:0:0:
192,192,115868,128,0,115936:0:0:0:0:
64,192,115902,128,0,115970:0:0:0:0:
320,192,115936,128,0,116004:0:0:0:0:
448,192,115970,128,0,116038:0:0:0:0:
192,192,116004,128,0,116038:0:0:0:0:
64,192,116038,128,0,116072:0:0:0:0:
320,192,116072,128,0,116106:0:0:0:0:
448,192,116106,128,0,116141:0:0:0:0:
64,192,116141,128,0,116277:0:0:0:0:
192,192,116141,128,0,116209:0:0:0:0:
320,192,116209,128,0,116379:0:0:0:0:
448,192,116209,1,0,0:0:0:0:
192,192,116277,1,0,0:0:0:0:
448,192,116277,128,0,116345:0:0:0:0:
64,192,116345,128,0,116413:0:0:0:0:
192,192,116345,128,0,116447:0:0:0:0:
448,192,116413,128,0,116481:0:0:0:0:
320,192,116447,128,0,116516:0:0:0:0:
64,192,116481,128,0,116550:0:0:0:0:
192,192,116516,128,0,116584:0:0:0:0:
448,192,116550,128,0,116584:0:0:0:0:
320,192,116584,128,0,116618:0:0:0:0:
64,192,116618,128,0,116652:0:0:0:0:
192,192,116652,128,0,116686:0:0:0:0:
448,192,116686,128,0,116754:0:0:0:0:
320,192,116686,128,0,116822:0:0:0:0:
192,192,116754,1,0,0:0:0:0:
64,192,116754,128,0,116925:0:0:0:0:
448,192,116822,1,0,0:0:0:0:
192,192,116822,128,0,116891:0:0:0:0:
448,192,116891,128,0,116993:0:0:0:0:
320,192,116891,128,0,116959:0:0:0:0:
192,192,116959,128,0,117027:0:0:0:0:
64,192,116993,128,0,117061:0:0:0:0:
320,192,117027,128,0,117095:0:0:0:0:
448,192,117061,128,0,117129:0:0:0:0:
192,192,117095,128,0,117129:0:0:0:0:
64,192,117129,128,0,117163:0:0:0:0:
320,192,117163,128,0,117197:0:0:0:0:
448,192,117197,128,0,117231:0:0:0:0:
64,192,117231,128,0,117368:0:0:0:0:
192,192,117231,128,0,117300:0:0:0:0:
320,192,117300,128,0,117470:0:0:0:0:
448,192,117300,1,0,0:0:0:0:
192,192,117368,1,0,0:0:0:0:
448,192,117368,128,0,117436:0:0:0:0:
64,192,117436,128,0,117504:0:0:0:0:
192,192,117436,128,0,117538:0:0:0:0:
448,192,117504,128,0,117572:0:0:0:0:
320,192,117538,128,0,117606:0:0:0:0:
64,192,117572,128,0,117641:0:0:0:0:
192,192,117606,128,0,117675:0:0:0:0:
448,192,117641,128,0,117675:0:0:0:0:
320,192,117675,128,0,117709:0:0:0:0:
64,192,117709,128,0,117743:0:0:0:0:
192,192,117743,128,0,117777:0:0:0:0:
320,192,117777,128,0,117845:0:0:0:0:
448,192,117777,128,0,117913:0:0:0:0:
64,192,117845,1,0,0:0:0:0:
192,192,117845,128,0,117981:0:0:0:0:
320,192,117913,1,0,0:0:0:0:
64,192,117913,128,0,118016:0:0:0:0:
448,192,117981,128,0,118084:0:0:0:0:
320,192,117981,128,0,118050:0:0:0:0:
192,192,118050,128,0,118118:0:0:0:0:
64,192,118084,128,0,118152:0:0:0:0:
320,192,118118,128,0,118186:0:0:0:0:
448,192,118152,128,0,118220:0:0:0:0:
192,192,118186,128,0,118220:0:0:0:0:
64,192,118220,128,0,118254:0:0:0:0:
320,192,118254,128,0,118288:0:0:0:0:
448,192,118288,128,0,118322:0:0:0:0:
192,192,118322,128,0,118459:0:0:0:0:
64,192,118322,128,0,118391:0:0:0:0:
448,192,118391,128,0,118527:0:0:0:0:
320,192,118391,1,0,0:0:0:0:
64,192,118459,1,0,0:0:0:0:
320,192,118459,128,0,118561:0:0:0:0:
192,192,118527,128,0,118629:0:0:0:0:
64,192,118527,128,0,118595:0:0:0:0:
448,192,118595,128,0,118663:0:0:0:0:
320,192,118629,128,0,118697:0:0:0:0:
64,192,118663,128,0,118731:0:0:0:0:
192,192,118697,128,0,118766:0:0:0:0:
448,192,118731,128,0,118766:0:0:0:0:
320,192,118766,128,0,118800:0:0:0:0:
64,192,118800,128,0,118834:0:0:0:0:
192,192,118834,128,0,118868:0:0:0:0:
320,192,118868,128,0,118936:0:0:0:0:
448,192,118868,128,0,119004:0:0:0:0:
64,192,118936,1,0,0:0:0:0:
192,192,118936,128,0,119072:0:0:0:0:
320,192,119004,1,0,0:0:0:0:
64,192,119004,128,0,119106:0:0:0:0:
448,192,119072,128,0,119175:0:0:0:0:
320,192,119072,128,0,119141:0:0:0:0:
192,192,119141,128,0,119209:0:0:0:0:
64,192,119175,128,0,119243:0:0:0:0:
320,192,119209,128,0,119277:0:0:0:0:
448,192,119243,128,0,119311:0:0:0:0:
192,192,119277,128,0,119311:0:0:0:0:
64,192,119311,128,0,119345:0:0:0:0:
320,192,119345,128,0,119379:0:0:0:0:
448,192,119379,128,0,119413:0:0:0:0:
192,192,119413,128,0,119550:0:0:0:0:
64,192,119413,128,0,119481:0:0:0:0:
320,192,119481,128,0,119652:0:0:0:0:
448,192,119481,1,0,0:0:0:0:
64,192,119550,1,0,0:0:0:0:
448,192,119550,128,0,119618:0:0:0:0:
192,192,119618,128,0,119720:0:0:0:0:
64,192,119618,128,0,119686:0:0:0:0:
448,192,119686,128,0,119754:0:0:0:0:
320,192,119720,128,0,119788:0:0:0:0:
64,192,119754,128,0,119822:0:0:0:0:
192,192,119788,128,0,119856:0:0:0:0:
448,192,119822,128,0,119856:0:0:0:0:
320,192,119856,128,0,119891:0:0:0:0:
64,192,119891,128,0,119925:0:0:0:0:
192,192,119925,128,0,119959:0:0:0:0:
448,192,119959,128,0,120027:0:0:0:0:
320,192,119959,128,0,120095:0:0:0:0:
192,192,120027,1,0,0:0:0:0:
64,192,120027,128,0,120197:0:0:0:0:
448,192,120095,1,0,0:0:0:0:
192,192,120095,128,0,120163:0:0:0:0:
448,192,120163,128,0,120266:0:0:0:0:
320,192,120163,128,0,120231:0:0:0:0:
192,192,120231,128,0,120300:0:0:0:0:
64,192,120266,128,0,120334:0:0:0:0:
320,192,120300,128,0,120368:0:0:0:0:
448,192,120334,128,0,120402:0:0:0:0:
192,192,120368,128,0,120402:0:0:0:0:
64,192,120402,128,0,120436:0:0:0:0:
320,192,120436,128,0,120470:0:0:0:0:
448,192,120470,128,0,120504:0:0:0:0:
64,192,120504,128,0,120641:0:0:0:0:
192,192,120504,128,0,120572:0:0:0:0:
320,192,120572,128,0,120743:0:0:0:0:
448,192,120572,1,0,0:0:0:0:
192,192,120641,1,0,0:0:0:0:
448,192,120641,128,0,120709:0:0:0:0:
64,192,120709,128,0,120777:0:0:0:0:
192,192,120709,128,0,120811:0:0:0:0:
448,192,120777,128,0,120845:0:0:0:0:
320,192,120811,128,0,120879:0:0:0:0:
64,192,120845,128,0,120913:0:0:0:0:
192,192,120879,128,0,120947:0:0:0:0:
448,192,120913,128,0,120947:0:0:0:0:
320,192,120947,128,0,120981:0:0:0:0:
64,192,120981,128,0,121016:0:0:0:0:
192,192,121016,128,0,121050:0:0:0:0:
320,192,121050,128,0,121118:0:0:0:0:
448,192,121050,128,0,121186:0:0:0:0:
64,192,121118,1,0,0:0:0:0:
192,192,121118,128,0,121254:0:0:0:0:
320,192,121186,1,0,0:0:0:0:
64,192,121186,128,0,121288:0:0:0:0:
320,192,121254,128,0,121322:0:0:0:0:
448,192,121254,128,0,121356:0:0:0:0:
192,192,121322,128,0,121391:0:0:0:0:
64,192,121356,128,0,121425:0:0:0:0:
320,192,121391,128,0,121459:0:0:0:0:
448,192,121425,128,0,121493:0:0:0:0:
192,192,121459,128,0,121493:0:0:0:0:
64,192,121493,128,0,121527:0:0:0:0:
320,192,121527,128,0,121561:0:0:0:0:
448,192,121561,128,0,121595:0:0:0:0:
192,192,121595,128,0,121731:0:0:0:0:
64,192,121595,128,0,121663:0:0:0:0:
448,192,121663,128,0,121800:0:0:0:0:
320,192,121663,1,0,0:0:0:0:
64,192,121731,1,0,0:0:0:0:
320,192,121731,128,0,121834:0:0:0:0:
192,192,121800,128,0,121902:0:0:0:0:
64,192,121800,128,0,121868:0:0:0:0:
448,192,121868,128,0,121936:0:0:0:0:
320,192,121902,128,0,121970:0:0:0:0:
64,192,121936,128,0,122004:0:0:0:0:
192,192,121970,128,0,122038:0:0:0:0:
448,192,122004,128,0,122038:0:0:0:0:
320,192,122038,128,0,122072:0:0:0:0:
64,192,122072,128,0,122106:0:0:0:0:
192,192,122106,128,0,122141:0:0:0:0:
320,192,122141,128,0,122277:0:0:0:0:
448,192,122141,128,0,122209:0:0:0:0:
64,192,122209,128,0,122379:0:0:0:0:
192,192,122209,1,0,0:0:0:0:
192,192,122277,128,0,122345:0:0:0:0:
448,192,122277,1,0,0:0:0:0:
320,192,122345,128,0,122413:0:0:0:0:
448,192,122345,128,0,122447:0:0:0:0:
192,192,122413,128,0,122481:0:0:0:0:
64,192,122447,128,0,122516:0:0:0:0:
320,192,122481,128,0,122550:0:0:0:0:
448,192,122516,128,0,122584:0:0:0:0:
192,192,122550,128,0,122584:0:0:0:0:
64,192,122584,128,0,122618:0:0:0:0:
320,192,122618,128,0,122652:0:0:0:0:
448,192,122652,128,0,122686:0:0:0:0:
192,192,122686,128,0,122754:0:0:0:0:
64,192,122686,128,0,122822:0:0:0:0:
448,192,122754,1,0,0:0:0:0:
320,192,122754,128,0,122925:0:0:0:0:
448,192,122822,128,0,122891:0:0:0:0:
192,192,122822,1,0,0:0:0:0:
192,192,122891,128,0,122993:0:0:0:0:
64,192,122891,128,0,122959:0:0:0:0:
448,192,122959,128,0,123027:0:0:0:0:
320,192,122993,128,0,123061:0:0:0:0:
64,192,123027,128,0,123095:0:0:0:0:
192,192,123061,128,0,123129:0:0:0:0:
448,192,123095,128,0,123129:0:0:0:0:
320,192,123129,128,0,123163:0:0:0:0:
64,192,123163,128,0,123197:0:0:0:0:
192,192,123197,128,0,123231:0:0:0:0:
448,192,123231,128,0,123368:0:0:0:0:
320,192,123231,128,0,123300:0:0:0:0:
192,192,123300,128,0,123436:0:0:0:0:
64,192,123300,1,0,0:0:0:0:
64,192,123368,128,0,123470:0:0:0:0:
320,192,123368,1,0,0:0:0:0:
448,192,123436,128,0,123538:0:0:0:0:
320,192,123436,128,0,123504:0:0:0:0:
192,192,123504,128,0,123572:0:0:0:0:
64,192,123538,128,0,123606:0:0:0:0:
320,192,123572,128,0,123641:0:0:0:0:
448,192,123606,128,0,123675:0:0:0:0:
192,192,123641,128,0,123675:0:0:0:0:
64,192,123675,128,0,123709:0:0:0:0:
320,192,123709,128,0,123743:0:0:0:0:
448,192,123743,128,0,123777:0:0:0:0:
64,192,123777,128,0,123845:0:0:0:0:
192,192,123777,128,0,123913:0:0:0:0:
320,192,123845,1,0,0:0:0:0:
448,192,123845,128,0,123981:0:0:0:0:
320,192,123913,128,0,123981:0:0:0:0:
64,192,123913,1,0,0:0:0:0:
64,192,123981,128,0,124118:0:0:0:0:
192,192,123981,128,0,124118:0:0:0:0:
320,192,124050,1,0,0:0:0:0:
448,192,124050,1,0,0:0:0:0:
320,192,124118,128,0,124288:0:0:0:0:
448,192,124118,128,0,124254:0:0:0:0:
64,192,124186,1,0,0:0:0:0:
192,192,124186,1,0,0:0:0:0:
64,192,124254,128,0,124355:0:0:0:0:
192,192,124254,128,0,124322:0:0:0:0:
