osu file format v14

[General]
AudioFilename: audio.ogg
AudioLeadIn: 0
PreviewTime: 255478
Countdown: 0
SampleSet: None
StackLeniency: 0.7
Mode: 3
LetterboxInBreaks: 0
SpecialStyle: 0
WidescreenStoryboard: 1

[Editor]
DistanceSpacing: 1.5
BeatDivisor: 8
GridSize: 32
TimelineZoom: 3.799998

[Metadata]
Title:<> ~Truth in Uncertainty~ LN Training
TitleUnicode:《/nttld.:beings》 ~Truth in Uncertainty~ LN Training
Artist:GTS Sound Team
ArtistUnicode:GTS Sound Team
Creator:ytGrapeFrootZ34
Version:6
Source:Expert Global Taiko Showdown 2022
Tags:LN, ena, ezmmr, upan, castella, suddendeath, onta, Hylotl, SoraIro-' , Marathon, Cicada, Longnote, stream, jack, speed, tech, burst
BeatmapID:4556986
BeatmapSetID:2160950

[Difficulty]
HPDrainRate:6
CircleSize:4
OverallDifficulty:6.6
ApproachRate:5
SliderMultiplier:1.4
SliderTickRate:1

[Events]
//Background and Video events
0,0,"bgggg.jpg",0,0
//Break Periods
//Storyboard Layer 0 (Background)
//Storyboard Layer 1 (Fail)
//Storyboard Layer 2 (Pass)
//Storyboard Layer 3 (Foreground)
//Storyboard Layer 4 (Overlay)
//Storyboard Sound Samples

[TimingPoints]
1073,272.727272727273,5,1,0,50,1,8
1073,-84.7457627118644,5,1,0,50,0,8
2164,272.727272727273,4,1,0,50,1,0
2164,-84.7457627118644,4,1,0,50,0,0
63232,272.727272727273,4,1,0,50,1,0
63232,-84.7457627118644,4,1,0,50,0,0
78505,272.727272727273,4,1,0,50,1,0
78505,-84.7457627118644,4,1,0,50,0,0
98141,272.727272727273,4,1,0,50,1,0
98141,-84.7457627118644,4,1,0,50,0,0
124322,266.666666666667,4,1,0,50,1,0
124322,-86.2068965517241,4,1,0,50,0,0
125388,250,4,1,0,50,1,0
125388,-92.5925925925926,4,1,0,50,0,0
126388,235.294117647059,4,1,0,50,1,0
126388,-98.0392156862745,4,1,0,50,0,0
127329,222.222222222222,4,1,0,50,1,0
127329,-104.166666666667,4,1,0,50,0,0
128217,210.526315789474,4,1,0,50,1,0
128217,-109.89010989011,4,1,0,50,0,0
129059,200,4,1,0,50,1,0
129059,-114.942528735632,4,1,0,50,0,0
130659,230.769230769231,5,1,0,50,1,0
130659,-100,5,1,0,50,0,0
131725,526.315789473684,727,1,0,50,1,0
131725,-43.859649122807,727,1,0,50,0,0
140124,523.331879633668,8,1,0,50,1,0
140124,-44.0528634361233,8,1,0,50,0,0
148497,523.331879633668,8,1,0,50,1,8
148497,-44.0528634361233,8,1,0,50,0,8
149282,545.454545454546,4,1,0,50,1,0
149282,-42.3728813559322,4,1,0,50,0,0
156907,272.727272727273,4,1,0,50,1,0
156907,-84.7457627118644,4,1,0,50,0,0
157997,300,4,1,0,50,1,0
157997,-76.9230769230769,4,1,0,50,0,0
179597,300,4,1,0,50,1,0
179597,-76.9230769230769,4,1,0,50,0,0
196397,300,4,1,0,50,1,0
196397,-76.9230769230769,4,1,0,50,0,0
220397,400,4,1,0,50,1,8
220397,-57.8034682080925,4,1,0,50,0,8
220418,400,3,1,0,50,1,0
220418,-57.8034682080925,3,1,0,50,0,0
227318,400,6,1,0,50,1,0
227318,-57.8034682080925,6,1,0,50,0,0
229418,400,3,1,0,50,1,0
229418,-57.8034682080925,3,1,0,50,0,0
234218,400,6,1,0,50,1,0
234218,-57.8034682080925,6,1,0,50,0,0
236318,400,3,1,0,50,1,0
236318,-57.8034682080925,3,1,0,50,0,0
237218,400,3,1,0,50,1,8
237218,-57.8034682080925,3,1,0,50,0,8
238418,333.333333333334,4,1,0,50,1,0
238418,-69.4444444444444,4,1,0,50,0,0
238751,300,4,1,0,50,1,8
238751,-76.9230769230769,4,1,0,50,0,8
239051,272.727272727273,4,1,0,50,1,8
239051,-84.7457627118644,4,1,0,50,0,8
239596,260.869565217391,4,1,0,50,1,0
239596,-88.495575221239,4,1,0,50,0,0
239856,272.727272727273,4,1,0,50,1,8
239856,-84.7457627118644,4,1,0,50,0,8
240128,260.869565217391,4,1,0,50,1,8
240128,-88.495575221239,4,1,0,50,0,8
240649,260.869565217391,4,1,0,50,1,0
240649,-88.495575221239,4,1,0,50,0,0
240910,250,4,1,0,50,1,8
240910,-92.5925925925926,4,1,0,50,0,8
241160,244.897959183673,4,1,0,50,1,8
241160,-94.3396226415094,4,1,0,50,0,8
241404,240,4,1,0,50,1,8
241404,-96.1538461538461,4,1,0,50,0,8
241644,235.294117647059,4,1,0,50,1,0
241644,-98.0392156862745,4,1,0,50,0,0
242555,230.769230769231,4,1,0,50,1,0
242555,-100,4,1,0,50,0,0
255478,230.769230769231,5,1,0,50,1,0
255478,-100,5,1,0,50,0,0
256631,230.769230769231,4,1,0,50,1,0
256631,-100,4,1,0,50,0,0
281554,230.769230769231,5,1,0,50,1,0
281554,-100,5,1,0,50,0,0
282707,230.769230769231,4,1,0,50,1,0
282707,-100,4,1,0,50,0,0
283630,230.769230769231,5,1,0,50,1,0
283630,-100,5,1,0,50,0,0
284783,230.769230769231,4,1,0,50,1,0
284783,-100,4,1,0,50,0,0
288475,230.769230769231,6,1,0,50,1,0
288475,-100,6,1,0,50,0,0
291244,230.769230769231,6,1,0,50,1,0
291244,-100,6,1,0,50,0,0
324474,230.769230769231,8,1,0,50,1,0
324474,-100,8,1,0,50,0,0
326320,230.769230769231,4,1,0,50,1,0
326320,-100,4,1,0,50,0,0
370627,224.299065420561,4,1,0,50,1,0
370627,-103.092783505155,4,1,0,50,0,0
372421,218.181818181818,4,1,0,50,1,0
372421,-105.263157894737,4,1,0,50,0,0
374166,212.389380530973,4,1,0,50,1,0
374166,-108.695652173913,4,1,0,50,0,0
375865,206.896551724138,4,1,0,50,1,0
375865,-111.111111111111,4,1,0,50,0,0
377520,206.896551724138,4,1,0,50,1,0
377520,-111.111111111111,4,1,0,50,0,0
410623,413.793103448276,4,1,0,50,1,0
410623,-55.8659217877095,4,1,0,50,0,0

[Colours]
Combo1 : 255,121,124
Combo2 : 255,255,255
Combo3 : 170,170,170

[HitObjects]
192,192,96164,5,0,0:0:0:0:
320,192,96266,1,0,0:0:0:0:
64,192,96470,1,0,0:0:0:0:
448,192,96743,128,0,97050:0:0:0:0:
320,192,96743,1,0,0:0:0:0:
192,192,97016,128,0,97289:0:0:0:0:
64,192,97016,1,0,0:0:0:0:
448,192,97289,128,0,97561:0:0:0:0:
320,192,97289,128,0,97561:0:0:0:0:
64,192,97561,128,0,97834:0:0:0:0:
192,192,97561,128,0,97834:0:0:0:0:
320,192,97834,128,0,98141:0:0:0:0:
448,192,97834,128,0,98005:0:0:0:0:
448,192,98141,128,0,98277:0:0:0:0:
64,192,98141,128,0,98209:0:0:0:0:
192,192,98141,128,0,98209:0:0:0:0:
320,192,98209,128,0,98277:0:0:0:0:
64,192,98277,128,0,98413:0:0:0:0:
192,192,98277,128,0,98345:0:0:0:0:
320,192,98345,128,0,98481:0:0:0:0:
448,192,98345,128,0,98413:0:0:0:0:
192,192,98413,128,0,98481:0:0:0:0:
448,192,98481,128,0,98618:0:0:0:0:
64,192,98481,128,0,98550:0:0:0:0:
192,192,98550,128,0,98686:0:0:0:0:
320,192,98550,128,0,98652:0:0:0:0:
64,192,98618,128,0,98720:0:0:0:0:
448,192,98686,128,0,98754:0:0:0:0:
320,192,98720,128,0,98788:0:0:0:0:
192,192,98754,128,0,98822:0:0:0:0:
64,192,98788,128,0,98856:0:0:0:0:
448,192,98822,128,0,98993:0:0:0:0:
320,192,98856,128,0,98959:0:0:0:0:
192,192,98891,128,0,98925:0:0:0:0:
64,192,98959,128,0,99027:0:0:0:0:
192,192,98993,128,0,99061:0:0:0:0:
320,192,99027,128,0,99095:0:0:0:0:
448,192,99061,128,0,99129:0:0:0:0:
64,192,99095,128,0,99129:0:0:0:0:
192,192,99129,128,0,99163:0:0:0:0:
320,192,99163,128,0,99197:0:0:0:0:
192,192,99231,128,0,99368:0:0:0:0:
448,192,99231,128,0,99300:0:0:0:0:
64,192,99231,128,0,99300:0:0:0:0:
320,192,99300,128,0,99368:0:0:0:0:
448,192,99368,128,0,99504:0:0:0:0:
64,192,99368,128,0,99436:0:0:0:0:
320,192,99436,128,0,99504:0:0:0:0:
192,192,99436,128,0,99572:0:0:0:0:
64,192,99504,128,0,99572:0:0:0:0:
320,192,99572,128,0,99641:0:0:0:0:
448,192,99572,128,0,99709:0:0:0:0:
192,192,99641,128,0,99743:0:0:0:0:
64,192,99641,128,0,99709:0:0:0:0:
320,192,99709,128,0,99777:0:0:0:0:
448,192,99777,128,0,99811:0:0:0:0:
64,192,99777,128,0,99845:0:0:0:0:
192,192,99811,128,0,99879:0:0:0:0:
320,192,99845,128,0,99913:0:0:0:0:
448,192,99879,128,0,99947:0:0:0:0:
64,192,99913,128,0,100084:0:0:0:0:
192,192,99947,128,0,100050:0:0:0:0:
320,192,99981,128,0,100016:0:0:0:0:
448,192,100050,128,0,100084:0:0:0:0:
320,192,100084,128,0,100118:0:0:0:0:
192,192,100118,128,0,100152:0:0:0:0:
64,192,100152,128,0,100186:0:0:0:0:
448,192,100186,1,0,0:0:0:0:
320,192,100220,1,0,0:0:0:0:
192,192,100254,1,0,0:0:0:0:
64,192,100322,128,0,100459:0:0:0:0:
448,192,100322,128,0,100391:0:0:0:0:
320,192,100322,128,0,100391:0:0:0:0:
192,192,100391,128,0,100459:0:0:0:0:
448,192,100459,128,0,100595:0:0:0:0:
320,192,100459,128,0,100527:0:0:0:0:
192,192,100527,128,0,100663:0:0:0:0:
64,192,100527,128,0,100595:0:0:0:0:
320,192,100595,128,0,100663:0:0:0:0:
64,192,100663,128,0,100800:0:0:0:0:
448,192,100663,128,0,100731:0:0:0:0:
320,192,100731,128,0,100868:0:0:0:0:
192,192,100731,128,0,100834:0:0:0:0:
448,192,100800,128,0,100902:0:0:0:0:
64,192,100868,128,0,100936:0:0:0:0:
192,192,100902,128,0,100970:0:0:0:0:
320,192,100936,128,0,101004:0:0:0:0:
448,192,100970,128,0,101038:0:0:0:0:
64,192,101004,128,0,101175:0:0:0:0:
192,192,101038,128,0,101141:0:0:0:0:
320,192,101072,128,0,101106:0:0:0:0:
448,192,101141,128,0,101209:0:0:0:0:
320,192,101175,128,0,101243:0:0:0:0:
192,192,101209,128,0,101277:0:0:0:0:
64,192,101243,128,0,101311:0:0:0:0:
448,192,101277,128,0,101311:0:0:0:0:
320,192,101311,128,0,101345:0:0:0:0:
192,192,101345,128,0,101379:0:0:0:0:
320,192,101413,128,0,101550:0:0:0:0:
64,192,101413,128,0,101481:0:0:0:0:
448,192,101413,128,0,101481:0:0:0:0:
192,192,101481,128,0,101550:0:0:0:0:
64,192,101550,128,0,101686:0:0:0:0:
448,192,101550,128,0,101618:0:0:0:0:
192,192,101618,128,0,101686:0:0:0:0:
320,192,101618,128,0,101754:0:0:0:0:
448,192,101686,128,0,101754:0:0:0:0:
192,192,101754,128,0,101822:0:0:0:0:
64,192,101754,128,0,101891:0:0:0:0:
320,192,101822,128,0,101925:0:0:0:0:
448,192,101822,128,0,101891:0:0:0:0:
192,192,101891,128,0,101959:0:0:0:0:
64,192,101959,128,0,101993:0:0:0:0:
448,192,101959,128,0,102027:0:0:0:0:
320,192,101993,128,0,102061:0:0:0:0:
192,192,102027,128,0,102095:0:0:0:0:
64,192,102061,128,0,102129:0:0:0:0:
448,192,102095,128,0,102266:0:0:0:0:
320,192,102129,128,0,102231:0:0:0:0:
192,192,102163,128,0,102197:0:0:0:0:
64,192,102231,128,0,102504:0:0:0:0:
192,192,102266,128,0,102436:0:0:0:0:
320,192,102300,128,0,102436:0:0:0:0:
448,192,102334,128,0,102436:0:0:0:0:
192,192,102504,128,0,102572:0:0:0:0:
320,192,102504,128,0,102641:0:0:0:0:
448,192,102504,128,0,102572:0:0:0:0:
64,192,102572,128,0,102641:0:0:0:0:
192,192,102641,128,0,102777:0:0:0:0:
448,192,102641,128,0,102709:0:0:0:0:
64,192,102709,128,0,102845:0:0:0:0:
320,192,102709,128,0,102777:0:0:0:0:
448,192,102777,128,0,102845:0:0:0:0:
320,192,102845,128,0,102981:0:0:0:0:
192,192,102845,128,0,102913:0:0:0:0:
448,192,102913,128,0,102981:0:0:0:0:
64,192,102913,128,0,103016:0:0:0:0:
192,192,102981,128,0,103050:0:0:0:0:
320,192,103050,128,0,103084:0:0:0:0:
448,192,103050,128,0,103118:0:0:0:0:
64,192,103084,128,0,103152:0:0:0:0:
192,192,103118,128,0,103186:0:0:0:0:
320,192,103152,128,0,103220:0:0:0:0:
448,192,103186,128,0,103254:0:0:0:0:
64,192,103220,128,0,103322:0:0:0:0:
192,192,103254,128,0,103288:0:0:0:0:
320,192,103322,128,0,103391:0:0:0:0:
448,192,103322,128,0,103356:0:0:0:0:
192,192,103356,128,0,103425:0:0:0:0:
64,192,103391,128,0,103459:0:0:0:0:
448,192,103425,128,0,103459:0:0:0:0:
320,192,103459,128,0,103493:0:0:0:0:
192,192,103493,128,0,103527:0:0:0:0:
64,192,103527,128,0,103561:0:0:0:0:
192,192,103595,128,0,103663:0:0:0:0:
320,192,103595,128,0,103663:0:0:0:0:
448,192,103595,128,0,103731:0:0:0:0:
64,192,103663,128,0,103731:0:0:0:0:
192,192,103731,128,0,103868:0:0:0:0:
320,192,103731,128,0,103800:0:0:0:0:
64,192,103800,128,0,103868:0:0:0:0:
448,192,103800,128,0,103936:0:0:0:0:
320,192,103868,128,0,103936:0:0:0:0:
64,192,103936,128,0,104072:0:0:0:0:
192,192,103936,128,0,104004:0:0:0:0:
320,192,104004,128,0,104106:0:0:0:0:
448,192,104004,128,0,104072:0:0:0:0:
192,192,104072,128,0,104141:0:0:0:0:
448,192,104141,128,0,104209:0:0:0:0:
64,192,104141,128,0,104175:0:0:0:0:
320,192,104175,128,0,104243:0:0:0:0:
192,192,104209,128,0,104277:0:0:0:0:
64,192,104243,128,0,104311:0:0:0:0:
448,192,104277,128,0,104447:0:0:0:0:
320,192,104311,128,0,104413:0:0:0:0:
192,192,104345,128,0,104379:0:0:0:0:
64,192,104413,128,0,104447:0:0:0:0:
192,192,104447,128,0,104481:0:0:0:0:
320,192,104481,128,0,104516:0:0:0:0:
448,192,104516,128,0,104550:0:0:0:0:
64,192,104550,1,0,0:0:0:0:
192,192,104584,1,0,0:0:0:0:
320,192,104618,1,0,0:0:0:0:
192,192,104686,128,0,104822:0:0:0:0:
64,192,104686,128,0,104754:0:0:0:0:
448,192,104686,128,0,104754:0:0:0:0:
320,192,104754,128,0,104822:0:0:0:0:
64,192,104822,128,0,104891:0:0:0:0:
448,192,104822,128,0,104959:0:0:0:0:
192,192,104891,128,0,105027:0:0:0:0:
320,192,104891,128,0,104959:0:0:0:0:
64,192,104959,128,0,105027:0:0:0:0:
320,192,105027,128,0,105231:0:0:0:0:
448,192,105027,128,0,105095:0:0:0:0:
64,192,105095,128,0,105163:0:0:0:0:
192,192,105095,128,0,105197:0:0:0:0:
448,192,105163,128,0,105266:0:0:0:0:
64,192,105231,128,0,105300:0:0:0:0:
192,192,105266,128,0,105334:0:0:0:0:
320,192,105300,128,0,105368:0:0:0:0:
448,192,105334,128,0,105402:0:0:0:0:
64,192,105368,128,0,105538:0:0:0:0:
192,192,105402,128,0,105504:0:0:0:0:
320,192,105436,128,0,105470:0:0:0:0:
448,192,105504,128,0,105572:0:0:0:0:
320,192,105538,128,0,105606:0:0:0:0:
192,192,105572,128,0,105641:0:0:0:0:
64,192,105606,128,0,105675:0:0:0:0:
448,192,105641,1,0,0:0:0:0:
320,192,105675,1,0,0:0:0:0:
192,192,105709,1,0,0:0:0:0:
320,192,105777,128,0,105981:0:0:0:0:
64,192,105777,128,0,105811:0:0:0:0:
192,192,105811,128,0,105981:0:0:0:0:
448,192,105845,128,0,105981:0:0:0:0:
320,192,106050,128,0,106254:0:0:0:0:
64,192,106050,128,0,106084:0:0:0:0:
192,192,106084,128,0,106254:0:0:0:0:
448,192,106118,128,0,106254:0:0:0:0:
448,192,106322,128,0,106391:0:0:0:0:
64,192,106322,1,0,0:0:0:0:
320,192,106339,128,0,106373:0:0:0:0:
192,192,106459,128,0,106527:0:0:0:0:
320,192,106476,128,0,106510:0:0:0:0:
448,192,106595,1,0,0:0:0:0:
64,192,106595,128,0,106868:0:0:0:0:
192,192,106612,128,0,106766:0:0:0:0:
320,192,106868,1,0,0:0:0:0:
192,192,106868,128,0,107004:0:0:0:0:
448,192,106868,128,0,106936:0:0:0:0:
64,192,106936,1,0,0:0:0:0:
320,192,106936,128,0,107072:0:0:0:0:
448,192,107004,1,0,0:0:0:0:
64,192,107004,128,0,107141:0:0:0:0:
192,192,107072,128,0,107141:0:0:0:0:
448,192,107072,128,0,107277:0:0:0:0:
320,192,107141,128,0,107209:0:0:0:0:
64,192,107209,1,0,0:0:0:0:
192,192,107209,128,0,107379:0:0:0:0:
64,192,107277,128,0,107345:0:0:0:0:
320,192,107277,1,0,0:0:0:0:
448,192,107345,128,0,107447:0:0:0:0:
320,192,107345,128,0,107413:0:0:0:0:
64,192,107413,128,0,107481:0:0:0:0:
192,192,107447,128,0,107516:0:0:0:0:
320,192,107481,128,0,107550:0:0:0:0:
448,192,107516,128,0,107584:0:0:0:0:
64,192,107550,128,0,107720:0:0:0:0:
192,192,107584,128,0,107686:0:0:0:0:
320,192,107618,128,0,107652:0:0:0:0:
448,192,107686,128,0,107754:0:0:0:0:
320,192,107720,128,0,107788:0:0:0:0:
192,192,107754,128,0,107822:0:0:0:0:
64,192,107788,128,0,107856:0:0:0:0:
448,192,107822,128,0,107856:0:0:0:0:
320,192,107856,128,0,107891:0:0:0:0:
192,192,107891,128,0,107925:0:0:0:0:
320,192,107959,1,0,0:0:0:0:
448,192,107959,128,0,108095:0:0:0:0:
64,192,107959,128,0,108027:0:0:0:0:
192,192,108027,1,0,0:0:0:0:
320,192,108027,128,0,108163:0:0:0:0:
64,192,108095,1,0,0:0:0:0:
192,192,108095,128,0,108231:0:0:0:0:
64,192,108163,128,0,108231:0:0:0:0:
448,192,108163,128,0,108368:0:0:0:0:
320,192,108231,128,0,108300:0:0:0:0:
64,192,108300,1,0,0:0:0:0:
192,192,108300,128,0,108436:0:0:0:0:
320,192,108368,1,0,0:0:0:0:
64,192,108368,128,0,108436:0:0:0:0:
448,192,108436,128,0,108606:0:0:0:0:
320,192,108436,128,0,108572:0:0:0:0:
64,192,108504,1,0,0:0:0:0:
192,192,108504,1,0,0:0:0:0:
64,192,108572,128,0,108709:0:0:0:0:
192,192,108572,128,0,108709:0:0:0:0:
320,192,108641,1,0,0:0:0:0:
448,192,108675,1,0,0:0:0:0:
320,192,108709,128,0,108845:0:0:0:0:
448,192,108743,128,0,108845:0:0:0:0:
64,192,108777,1,0,0:0:0:0:
192,192,108777,1,0,0:0:0:0:
64,192,108845,128,0,108913:0:0:0:0:
192,192,108845,128,0,108913:0:0:0:0:
320,192,108913,128,0,109050:0:0:0:0:
448,192,108913,128,0,108981:0:0:0:0:
64,192,108981,1,0,0:0:0:0:
192,192,108981,1,0,0:0:0:0:
192,192,109050,1,0,0:0:0:0:
64,192,109050,128,0,109186:0:0:0:0:
448,192,109050,128,0,109118:0:0:0:0:
320,192,109118,1,0,0:0:0:0:
192,192,109118,128,0,109254:0:0:0:0:
320,192,109186,128,0,109322:0:0:0:0:
448,192,109186,1,0,0:0:0:0:
448,192,109254,128,0,109322:0:0:0:0:
64,192,109254,128,0,109459:0:0:0:0:
192,192,109322,128,0,109391:0:0:0:0:
320,192,109391,1,0,0:0:0:0:
448,192,109391,128,0,109527:0:0:0:0:
192,192,109459,1,0,0:0:0:0:
320,192,109459,128,0,109561:0:0:0:0:
192,192,109527,128,0,109595:0:0:0:0:
64,192,109527,128,0,109629:0:0:0:0:
448,192,109595,128,0,109663:0:0:0:0:
320,192,109629,128,0,109697:0:0:0:0:
192,192,109663,128,0,109731:0:0:0:0:
64,192,109697,128,0,109766:0:0:0:0:
448,192,109731,128,0,109902:0:0:0:0:
320,192,109766,128,0,109868:0:0:0:0:
192,192,109800,128,0,109834:0:0:0:0:
64,192,109868,128,0,109936:0:0:0:0:
192,192,109902,128,0,109970:0:0:0:0:
320,192,109936,128,0,110004:0:0:0:0:
448,192,109970,128,0,110038:0:0:0:0:
64,192,110004,128,0,110038:0:0:0:0:
192,192,110038,128,0,110072:0:0:0:0:
320,192,110072,128,0,110106:0:0:0:0:
192,192,110141,1,0,0:0:0:0:
448,192,110141,128,0,110277:0:0:0:0:
64,192,110141,128,0,110209:0:0:0:0:
192,192,110209,128,0,110345:0:0:0:0:
320,192,110209,1,0,0:0:0:0:
320,192,110277,128,0,110413:0:0:0:0:
64,192,110277,1,0,0:0:0:0:
448,192,110345,128,0,110413:0:0:0:0:
64,192,110345,128,0,110481:0:0:0:0:
192,192,110413,128,0,110550:0:0:0:0:
448,192,110481,1,0,0:0:0:0:
320,192,110481,128,0,110618:0:0:0:0:
448,192,110550,128,0,110618:0:0:0:0:
64,192,110550,1,0,0:0:0:0:
192,192,110618,128,0,110754:0:0:0:0:
64,192,110618,128,0,110788:0:0:0:0:
448,192,110686,1,0,0:0:0:0:
320,192,110686,1,0,0:0:0:0:
320,192,110754,128,0,110891:0:0:0:0:
448,192,110754,128,0,110891:0:0:0:0:
192,192,110822,1,0,0:0:0:0:
64,192,110856,1,0,0:0:0:0:
192,192,110891,128,0,111027:0:0:0:0:
64,192,110925,128,0,111027:0:0:0:0:
320,192,110959,1,0,0:0:0:0:
448,192,110959,1,0,0:0:0:0:
320,192,111027,128,0,111095:0:0:0:0:
448,192,111027,128,0,111095:0:0:0:0:
64,192,111095,128,0,111163:0:0:0:0:
192,192,111095,128,0,111163:0:0:0:0:
320,192,111163,1,0,0:0:0:0:
448,192,111163,128,0,111231:0:0:0:0:
192,192,111231,1,0,0:0:0:0:
320,192,111231,128,0,111368:0:0:0:0:
64,192,111231,128,0,111300:0:0:0:0:
448,192,111300,1,0,0:0:0:0:
192,192,111300,128,0,111436:0:0:0:0:
448,192,111368,128,0,111504:0:0:0:0:
64,192,111368,1,0,0:0:0:0:
320,192,111436,128,0,111504:0:0:0:0:
64,192,111436,128,0,111572:0:0:0:0:
192,192,111504,128,0,111641:0:0:0:0:
448,192,111572,128,0,111709:0:0:0:0:
320,192,111572,1,0,0:0:0:0:
64,192,111641,1,0,0:0:0:0:
320,192,111641,128,0,111743:0:0:0:0:
192,192,111709,128,0,111777:0:0:0:0:
64,192,111709,128,0,111811:0:0:0:0:
448,192,111777,128,0,111845:0:0:0:0:
320,192,111811,128,0,111879:0:0:0:0:
192,192,111845,128,0,111913:0:0:0:0:
64,192,111879,128,0,111947:0:0:0:0:
448,192,111913,128,0,112084:0:0:0:0:
320,192,111947,128,0,112050:0:0:0:0:
192,192,111981,128,0,112016:0:0:0:0:
64,192,112050,128,0,112118:0:0:0:0:
192,192,112084,128,0,112152:0:0:0:0:
320,192,112118,128,0,112186:0:0:0:0:
448,192,112152,128,0,112220:0:0:0:0:
64,192,112186,128,0,112220:0:0:0:0:
192,192,112220,128,0,112254:0:0:0:0:
320,192,112254,128,0,112288:0:0:0:0:
192,192,112322,1,0,0:0:0:0:
448,192,112322,128,0,112459:0:0:0:0:
64,192,112322,128,0,112391:0:0:0:0:
320,192,112391,1,0,0:0:0:0:
192,192,112391,128,0,112595:0:0:0:0:
64,192,112459,1,0,0:0:0:0:
320,192,112459,128,0,112527:0:0:0:0:
448,192,112527,1,0,0:0:0:0:
64,192,112527,128,0,112629:0:0:0:0:
320,192,112595,128,0,112663:0:0:0:0:
448,192,112629,128,0,112697:0:0:0:0:
192,192,112663,128,0,112731:0:0:0:0:
64,192,112697,128,0,112766:0:0:0:0:
320,192,112731,128,0,112766:0:0:0:0:
448,192,112766,128,0,112800:0:0:0:0:
192,192,112800,128,0,112834:0:0:0:0:
64,192,112834,128,0,112868:0:0:0:0:
448,192,112868,128,0,113004:0:0:0:0:
320,192,112868,128,0,112936:0:0:0:0:
192,192,112936,128,0,113106:0:0:0:0:
64,192,112936,1,0,0:0:0:0:
320,192,113004,1,0,0:0:0:0:
64,192,113004,128,0,113072:0:0:0:0:
448,192,113072,128,0,113141:0:0:0:0:
320,192,113072,128,0,113175:0:0:0:0:
64,192,113141,128,0,113209:0:0:0:0:
192,192,113175,128,0,113243:0:0:0:0:
448,192,113209,128,0,113277:0:0:0:0:
320,192,113243,128,0,113311:0:0:0:0:
64,192,113277,128,0,113311:0:0:0:0:
192,192,113311,128,0,113345:0:0:0:0:
448,192,113345,128,0,113379:0:0:0:0:
320,192,113379,128,0,113413:0:0:0:0:
64,192,113413,128,0,113481:0:0:0:0:
192,192,113413,128,0,113550:0:0:0:0:
320,192,113481,1,0,0:0:0:0:
448,192,113481,128,0,113652:0:0:0:0:
64,192,113550,1,0,0:0:0:0:
320,192,113550,128,0,113618:0:0:0:0:
64,192,113618,128,0,113720:0:0:0:0:
192,192,113618,128,0,113686:0:0:0:0:
320,192,113686,128,0,113754:0:0:0:0:
448,192,113720,128,0,113788:0:0:0:0:
192,192,113754,128,0,113822:0:0:0:0:
64,192,113788,128,0,113856:0:0:0:0:
320,192,113822,128,0,113856:0:0:0:0:
448,192,113856,128,0,113891:0:0:0:0:
192,192,113891,128,0,113925:0:0:0:0:
64,192,113925,128,0,113959:0:0:0:0:
448,192,113959,128,0,114095:0:0:0:0:
320,192,113959,128,0,114027:0:0:0:0:
192,192,114027,128,0,114197:0:0:0:0:
64,192,114027,1,0,0:0:0:0:
320,192,114095,1,0,0:0:0:0:
64,192,114095,128,0,114163:0:0:0:0:
448,192,114163,128,0,114231:0:0:0:0:
320,192,114163,128,0,114266:0:0:0:0:
64,192,114231,128,0,114300:0:0:0:0:
192,192,114266,128,0,114334:0:0:0:0:
448,192,114300,128,0,114368:0:0:0:0:
320,192,114334,128,0,114402:0:0:0:0:
64,192,114368,128,0,114402:0:0:0:0:
192,192,114402,128,0,114436:0:0:0:0:
448,192,114436,128,0,114470:0:0:0:0:
320,192,114470,128,0,114504:0:0:0:0:
64,192,114504,128,0,114572:0:0:0:0:
192,192,114504,128,0,114641:0:0:0:0:
320,192,114572,1,0,0:0:0:0:
448,192,114572,128,0,114743:0:0:0:0:
64,192,114641,1,0,0:0:0:0:
320,192,114641,128,0,114709:0:0:0:0:
64,192,114709,128,0,114811:0:0:0:0:
192,192,114709,128,0,114777:0:0:0:0:
320,192,114777,128,0,114845:0:0:0:0:
448,192,114811,128,0,114879:0:0:0:0:
192,192,114845,128,0,114913:0:0:0:0:
64,192,114879,128,0,114947:0:0:0:0:
320,192,114913,128,0,114947:0:0:0:0:
448,192,114947,128,0,114981:0:0:0:0:
192,192,114981,128,0,115016:0:0:0:0:
64,192,115016,128,0,115050:0:0:0:0:
448,192,115050,128,0,115186:0:0:0:0:
320,192,115050,128,0,115118:0:0:0:0:
192,192,115118,128,0,115288:0:0:0:0:
64,192,115118,1,0,0:0:0:0:
320,192,115186,1,0,0:0:0:0:
64,192,115186,128,0,115254:0:0:0:0:
320,192,115254,128,0,115322:0:0:0:0:
448,192,115254,128,0,115391:0:0:0:0:
64,192,115322,128,0,115527:0:0:0:0:
192,192,115356,128,0,115459:0:0:0:0:
320,192,115391,128,0,115425:0:0:0:0:
448,192,115459,128,0,115527:0:0:0:0:
320,192,115493,128,0,115527:0:0:0:0:
192,192,115527,1,0,0:0:0:0:
