osu file format v14

[General]
AudioFilename: audio.ogg
AudioLeadIn: 0
PreviewTime: 255478
Countdown: 0
SampleSet: None
StackLeniency: 0.7
Mode: 3
LetterboxInBreaks: 0
SpecialStyle: 0
WidescreenStoryboard: 1

[Editor]
DistanceSpacing: 1.5
BeatDivisor: 8
GridSize: 32
TimelineZoom: 3.799998

[Metadata]
Title:<> ~Truth in Uncertainty~ LN Training
TitleUnicode:《/nttld.:beings》 ~Truth in Uncertainty~ LN Training
Artist:GTS Sound Team
ArtistUnicode:GTS Sound Team
Creator:ytGrapeFrootZ34
Version:25
Source:Expert Global Taiko Showdown 2022
Tags:LN, ena, ezmmr, upan, castella, suddendeath, onta, Hylotl, SoraIro-' , Marathon, Cicada, Longnote, stream, jack, speed, tech, burst
BeatmapID:4556978
BeatmapSetID:2160950

[Difficulty]
HPDrainRate:6
CircleSize:4
OverallDifficulty:6.6
ApproachRate:5
SliderMultiplier:1.4
SliderTickRate:1

[Events]
//Background and Video events
0,0,"bgggg.jpg",0,0
//Break Periods
//Storyboard Layer 0 (Background)
//Storyboard Layer 1 (Fail)
//Storyboard Layer 2 (Pass)
//Storyboard Layer 3 (Foreground)
//Storyboard Layer 4 (Overlay)
//Storyboard Sound Samples

[TimingPoints]
1073,272.727272727273,5,1,0,50,1,8
1073,-84.7457627118644,5,1,0,50,0,8
2164,272.727272727273,4,1,0,50,1,0
2164,-84.7457627118644,4,1,0,50,0,0
63232,272.727272727273,4,1,0,50,1,0
63232,-84.7457627118644,4,1,0,50,0,0
78505,272.727272727273,4,1,0,50,1,0
78505,-84.7457627118644,4,1,0,50,0,0
98141,272.727272727273,4,1,0,50,1,0
98141,-84.7457627118644,4,1,0,50,0,0
124322,266.666666666667,4,1,0,50,1,0
124322,-86.2068965517241,4,1,0,50,0,0
125388,250,4,1,0,50,1,0
125388,-92.5925925925926,4,1,0,50,0,0
126388,235.294117647059,4,1,0,50,1,0
126388,-98.0392156862745,4,1,0,50,0,0
127329,222.222222222222,4,1,0,50,1,0
127329,-104.166666666667,4,1,0,50,0,0
128217,210.526315789474,4,1,0,50,1,0
128217,-109.89010989011,4,1,0,50,0,0
129059,200,4,1,0,50,1,0
129059,-114.942528735632,4,1,0,50,0,0
130659,230.769230769231,5,1,0,50,1,0
130659,-100,5,1,0,50,0,0
131725,526.315789473684,727,1,0,50,1,0
131725,-43.859649122807,727,1,0,50,0,0
140124,523.331879633668,8,1,0,50,1,0
140124,-44.0528634361233,8,1,0,50,0,0
148497,523.331879633668,8,1,0,50,1,8
148497,-44.0528634361233,8,1,0,50,0,8
149282,545.454545454546,4,1,0,50,1,0
149282,-42.3728813559322,4,1,0,50,0,0
156907,272.727272727273,4,1,0,50,1,0
156907,-84.7457627118644,4,1,0,50,0,0
157997,300,4,1,0,50,1,0
157997,-76.9230769230769,4,1,0,50,0,0
179597,300,4,1,0,50,1,0
179597,-76.9230769230769,4,1,0,50,0,0
196397,300,4,1,0,50,1,0
196397,-76.9230769230769,4,1,0,50,0,0
220397,400,4,1,0,50,1,8
220397,-57.8034682080925,4,1,0,50,0,8
220418,400,3,1,0,50,1,0
220418,-57.8034682080925,3,1,0,50,0,0
227318,400,6,1,0,50,1,0
227318,-57.8034682080925,6,1,0,50,0,0
229418,400,3,1,0,50,1,0
229418,-57.8034682080925,3,1,0,50,0,0
234218,400,6,1,0,50,1,0
234218,-57.8034682080925,6,1,0,50,0,0
236318,400,3,1,0,50,1,0
236318,-57.8034682080925,3,1,0,50,0,0
237218,400,3,1,0,50,1,8
237218,-57.8034682080925,3,1,0,50,0,8
238418,333.333333333334,4,1,0,50,1,0
238418,-69.4444444444444,4,1,0,50,0,0
238751,300,4,1,0,50,1,8
238751,-76.9230769230769,4,1,0,50,0,8
239051,272.727272727273,4,1,0,50,1,8
239051,-84.7457627118644,4,1,0,50,0,8
239596,260.869565217391,4,1,0,50,1,0
239596,-88.495575221239,4,1,0,50,0,0
239856,272.727272727273,4,1,0,50,1,8
239856,-84.7457627118644,4,1,0,50,0,8
240128,260.869565217391,4,1,0,50,1,8
240128,-88.495575221239,4,1,0,50,0,8
240649,260.869565217391,4,1,0,50,1,0
240649,-88.495575221239,4,1,0,50,0,0
240910,250,4,1,0,50,1,8
240910,-92.5925925925926,4,1,0,50,0,8
241160,244.897959183673,4,1,0,50,1,8
241160,-94.3396226415094,4,1,0,50,0,8
241404,240,4,1,0,50,1,8
241404,-96.1538461538461,4,1,0,50,0,8
241644,235.294117647059,4,1,0,50,1,0
241644,-98.0392156862745,4,1,0,50,0,0
242555,230.769230769231,4,1,0,50,1,0
242555,-100,4,1,0,50,0,0
255478,230.769230769231,5,1,0,50,1,0
255478,-100,5,1,0,50,0,0
256631,230.769230769231,4,1,0,50,1,0
256631,-100,4,1,0,50,0,0
281554,230.769230769231,5,1,0,50,1,0
281554,-100,5,1,0,50,0,0
282707,230.769230769231,4,1,0,50,1,0
282707,-100,4,1,0,50,0,0
283630,230.769230769231,5,1,0,50,1,0
283630,-100,5,1,0,50,0,0
284783,230.769230769231,4,1,0,50,1,0
284783,-100,4,1,0,50,0,0
288475,230.769230769231,6,1,0,50,1,0
288475,-100,6,1,0,50,0,0
291244,230.769230769231,6,1,0,50,1,0
291244,-100,6,1,0,50,0,0
324474,230.769230769231,8,1,0,50,1,0
324474,-100,8,1,0,50,0,0
326320,230.769230769231,4,1,0,50,1,0
326320,-100,4,1,0,50,0,0
370627,224.299065420561,4,1,0,50,1,0
370627,-103.092783505155,4,1,0,50,0,0
372421,218.181818181818,4,1,0,50,1,0
372421,-105.263157894737,4,1,0,50,0,0
374166,212.389380530973,4,1,0,50,1,0
374166,-108.695652173913,4,1,0,50,0,0
375865,206.896551724138,4,1,0,50,1,0
375865,-111.111111111111,4,1,0,50,0,0
377520,206.896551724138,4,1,0,50,1,0
377520,-111.111111111111,4,1,0,50,0,0
410623,413.793103448276,4,1,0,50,1,0
410623,-55.8659217877095,4,1,0,50,0,0

[Colours]
Combo1 : 255,121,124
Combo2 : 255,255,255
Combo3 : 170,170,170

[HitObjects]
64,192,376692,5,0,0:0:0:0:
448,192,376692,1,0,0:0:0:0:
320,192,376692,128,0,377313:0:0:0:0:
64,192,376899,128,0,377313:0:0:0:0:
448,192,377106,128,0,377313:0:0:0:0:
192,192,377313,128,0,377520:0:0:0:0:
64,192,377520,128,0,377623:0:0:0:0:
320,192,377520,128,0,377571:0:0:0:0:
448,192,377520,128,0,377571:0:0:0:0:
192,192,377571,128,0,377675:0:0:0:0:
320,192,377623,128,0,377675:0:0:0:0:
448,192,377623,128,0,377726:0:0:0:0:
64,192,377675,128,0,377778:0:0:0:0:
192,192,377726,128,0,377830:0:0:0:0:
320,192,377726,128,0,377778:0:0:0:0:
448,192,377778,128,0,377882:0:0:0:0:
320,192,377830,128,0,377933:0:0:0:0:
64,192,377830,128,0,377882:0:0:0:0:
192,192,377882,128,0,377985:0:0:0:0:
64,192,377933,128,0,378037:0:0:0:0:
448,192,377933,128,0,377985:0:0:0:0:
320,192,377985,128,0,378088:0:0:0:0:
192,192,378037,128,0,378088:0:0:0:0:
448,192,378037,128,0,378140:0:0:0:0:
64,192,378088,128,0,378192:0:0:0:0:
192,192,378140,128,0,378244:0:0:0:0:
320,192,378140,128,0,378192:0:0:0:0:
448,192,378192,128,0,378295:0:0:0:0:
320,192,378244,128,0,378295:0:0:0:0:
64,192,378244,128,0,378295:0:0:0:0:
192,192,378295,128,0,378347:0:0:0:0:
64,192,378347,128,0,378451:0:0:0:0:
320,192,378347,128,0,378399:0:0:0:0:
448,192,378347,128,0,378451:0:0:0:0:
192,192,378399,128,0,378554:0:0:0:0:
320,192,378451,128,0,378502:0:0:0:0:
64,192,378502,128,0,378606:0:0:0:0:
448,192,378502,128,0,378606:0:0:0:0:
320,192,378554,128,0,378709:0:0:0:0:
192,192,378606,128,0,378657:0:0:0:0:
448,192,378657,128,0,378709:0:0:0:0:
64,192,378657,128,0,378761:0:0:0:0:
192,192,378709,128,0,378761:0:0:0:0:
320,192,378761,128,0,378813:0:0:0:0:
448,192,378761,128,0,378813:0:0:0:0:
192,192,378813,128,0,378864:0:0:0:0:
64,192,378813,128,0,378916:0:0:0:0:
320,192,378864,128,0,378916:0:0:0:0:
448,192,378864,128,0,378916:0:0:0:0:
192,192,378916,128,0,378968:0:0:0:0:
64,192,378968,128,0,379020:0:0:0:0:
320,192,378968,128,0,379020:0:0:0:0:
448,192,378968,128,0,379020:0:0:0:0:
192,192,379020,128,0,379071:0:0:0:0:
64,192,379071,128,0,379123:0:0:0:0:
320,192,379071,128,0,379123:0:0:0:0:
448,192,379071,128,0,379123:0:0:0:0:
192,192,379123,128,0,379175:0:0:0:0:
320,192,379175,128,0,379226:0:0:0:0:
448,192,379175,128,0,379226:0:0:0:0:
64,192,379175,128,0,379330:0:0:0:0:
192,192,379226,128,0,379278:0:0:0:0:
448,192,379278,128,0,379330:0:0:0:0:
320,192,379278,128,0,379382:0:0:0:0:
192,192,379330,128,0,379433:0:0:0:0:
64,192,379382,128,0,379433:0:0:0:0:
448,192,379382,128,0,379537:0:0:0:0:
320,192,379433,128,0,379485:0:0:0:0:
64,192,379485,128,0,379537:0:0:0:0:
192,192,379485,128,0,379588:0:0:0:0:
320,192,379537,128,0,379640:0:0:0:0:
448,192,379588,128,0,379640:0:0:0:0:
64,192,379588,128,0,379744:0:0:0:0:
192,192,379640,128,0,379692:0:0:0:0:
448,192,379692,128,0,379744:0:0:0:0:
320,192,379692,128,0,379847:0:0:0:0:
192,192,379744,128,0,379795:0:0:0:0:
64,192,379795,128,0,379951:0:0:0:0:
448,192,379795,128,0,379899:0:0:0:0:
192,192,379847,128,0,379951:0:0:0:0:
320,192,379899,128,0,379951:0:0:0:0:
448,192,379951,128,0,380002:0:0:0:0:
320,192,380002,128,0,380054:0:0:0:0:
192,192,380002,128,0,380106:0:0:0:0:
64,192,380002,128,0,380054:0:0:0:0:
448,192,380054,128,0,380157:0:0:0:0:
320,192,380106,128,0,380209:0:0:0:0:
64,192,380106,128,0,380157:0:0:0:0:
192,192,380157,128,0,380261:0:0:0:0:
64,192,380209,128,0,380313:0:0:0:0:
448,192,380209,128,0,380261:0:0:0:0:
320,192,380261,128,0,380364:0:0:0:0:
192,192,380313,128,0,380364:0:0:0:0:
448,192,380313,128,0,380416:0:0:0:0:
64,192,380364,128,0,380468:0:0:0:0:
192,192,380416,128,0,380520:0:0:0:0:
320,192,380416,128,0,380468:0:0:0:0:
448,192,380468,128,0,380571:0:0:0:0:
320,192,380520,128,0,380623:0:0:0:0:
64,192,380520,128,0,380571:0:0:0:0:
192,192,380571,128,0,380675:0:0:0:0:
64,192,380623,128,0,380675:0:0:0:0:
448,192,380623,128,0,380726:0:0:0:0:
320,192,380675,128,0,380726:0:0:0:0:
64,192,380726,128,0,380778:0:0:0:0:
192,192,380726,128,0,380778:0:0:0:0:
320,192,380778,128,0,380830:0:0:0:0:
448,192,380778,128,0,380882:0:0:0:0:
64,192,380830,128,0,380882:0:0:0:0:
192,192,380830,128,0,380933:0:0:0:0:
320,192,380882,128,0,380985:0:0:0:0:
448,192,380933,128,0,380985:0:0:0:0:
64,192,380933,128,0,381037:0:0:0:0:
192,192,380985,128,0,381088:0:0:0:0:
320,192,381037,128,0,381088:0:0:0:0:
448,192,381037,128,0,381140:0:0:0:0:
64,192,381088,128,0,381192:0:0:0:0:
192,192,381140,128,0,381192:0:0:0:0:
320,192,381140,128,0,381244:0:0:0:0:
448,192,381192,128,0,381295:0:0:0:0:
64,192,381244,128,0,381295:0:0:0:0:
192,192,381244,128,0,381347:0:0:0:0:
320,192,381295,128,0,381399:0:0:0:0:
448,192,381347,128,0,381399:0:0:0:0:
64,192,381347,128,0,381502:0:0:0:0:
192,192,381399,128,0,381451:0:0:0:0:
448,192,381451,128,0,381502:0:0:0:0:
320,192,381451,128,0,381554:0:0:0:0:
192,192,381502,128,0,381606:0:0:0:0:
64,192,381554,128,0,381606:0:0:0:0:
448,192,381554,128,0,381709:0:0:0:0:
320,192,381606,128,0,381657:0:0:0:0:
64,192,381657,128,0,381709:0:0:0:0:
192,192,381657,128,0,381761:0:0:0:0:
320,192,381709,128,0,381813:0:0:0:0:
448,192,381761,128,0,381813:0:0:0:0:
64,192,381761,128,0,381864:0:0:0:0:
192,192,381813,128,0,381916:0:0:0:0:
320,192,381864,128,0,381916:0:0:0:0:
448,192,381864,128,0,381968:0:0:0:0:
64,192,381916,128,0,382020:0:0:0:0:
192,192,381968,128,0,382020:0:0:0:0:
320,192,381968,128,0,382071:0:0:0:0:
448,192,382020,128,0,382071:0:0:0:0:
64,192,382071,128,0,382123:0:0:0:0:
192,192,382071,128,0,382123:0:0:0:0:
320,192,382123,128,0,382175:0:0:0:0:
448,192,382123,128,0,382175:0:0:0:0:
64,192,382175,128,0,382226:0:0:0:0:
192,192,382175,128,0,382226:0:0:0:0:
320,192,382226,128,0,382278:0:0:0:0:
448,192,382226,128,0,382278:0:0:0:0:
64,192,382278,128,0,382330:0:0:0:0:
192,192,382278,128,0,382330:0:0:0:0:
320,192,382330,128,0,382382:0:0:0:0:
448,192,382330,128,0,382382:0:0:0:0:
64,192,382382,128,0,382433:0:0:0:0:
192,192,382382,128,0,382433:0:0:0:0:
448,192,382433,128,0,382485:0:0:0:0:
320,192,382433,128,0,382537:0:0:0:0:
64,192,382485,128,0,382537:0:0:0:0:
192,192,382485,128,0,382588:0:0:0:0:
448,192,382537,128,0,382640:0:0:0:0:
320,192,382588,128,0,382640:0:0:0:0:
64,192,382588,128,0,382744:0:0:0:0:
192,192,382640,128,0,382692:0:0:0:0:
320,192,382692,128,0,382744:0:0:0:0:
448,192,382692,128,0,382795:0:0:0:0:
192,192,382744,128,0,382847:0:0:0:0:
64,192,382795,128,0,382847:0:0:0:0:
320,192,382795,128,0,382951:0:0:0:0:
448,192,382847,128,0,382899:0:0:0:0:
192,192,382899,128,0,383002:0:0:0:0:
64,192,382899,128,0,382951:0:0:0:0:
448,192,382951,128,0,383054:0:0:0:0:
64,192,383002,128,0,383157:0:0:0:0:
320,192,383002,128,0,383054:0:0:0:0:
192,192,383054,128,0,383106:0:0:0:0:
448,192,383106,128,0,383209:0:0:0:0:
320,192,383106,128,0,383157:0:0:0:0:
192,192,383157,128,0,383261:0:0:0:0:
64,192,383209,128,0,383261:0:0:0:0:
320,192,383209,128,0,383313:0:0:0:0:
448,192,383261,128,0,383364:0:0:0:0:
64,192,383313,128,0,383364:0:0:0:0:
192,192,383313,128,0,383416:0:0:0:0:
320,192,383364,128,0,383468:0:0:0:0:
448,192,383416,128,0,383468:0:0:0:0:
64,192,383416,128,0,383520:0:0:0:0:
192,192,383468,128,0,383571:0:0:0:0:
320,192,383520,128,0,383571:0:0:0:0:
448,192,383520,128,0,383623:0:0:0:0:
64,192,383571,128,0,383675:0:0:0:0:
192,192,383623,128,0,383675:0:0:0:0:
320,192,383623,128,0,383726:0:0:0:0:
448,192,383675,128,0,383726:0:0:0:0:
64,192,383726,128,0,383778:0:0:0:0:
192,192,383726,128,0,383778:0:0:0:0:
320,192,383778,128,0,383830:0:0:0:0:
448,192,383778,128,0,383830:0:0:0:0:
64,192,383830,128,0,383882:0:0:0:0:
192,192,383830,128,0,383882:0:0:0:0:
448,192,383882,128,0,383985:0:0:0:0:
320,192,383882,128,0,383985:0:0:0:0:
64,192,383933,128,0,384088:0:0:0:0:
192,192,383933,128,0,384088:0:0:0:0:
320,192,384037,128,0,384088:0:0:0:0:
448,192,384037,128,0,384088:0:0:0:0:
