osu file format v14

[General]
AudioFilename: audio.ogg
AudioLeadIn: 0
PreviewTime: 255478
Countdown: 0
SampleSet: None
StackLeniency: 0.7
Mode: 3
LetterboxInBreaks: 0
SpecialStyle: 0
WidescreenStoryboard: 1

[Editor]
DistanceSpacing: 1.5
BeatDivisor: 8
GridSize: 32
TimelineZoom: 3.799998

[Metadata]
Title:<> ~Truth in Uncertainty~ LN Training
TitleUnicode:《/nttld.:beings》 ~Truth in Uncertainty~ LN Training
Artist:GTS Sound Team
ArtistUnicode:GTS Sound Team
Creator:ytGrapeFrootZ34
Version:25+26+27+28
Source:Expert Global Taiko Showdown 2022
Tags:LN, ena, ezmmr, upan, castella, suddendeath, onta, Hylotl, SoraIro-' , Marathon, Cicada, Longnote, stream, jack, speed, tech, burst
BeatmapID:4556979
BeatmapSetID:2160950

[Difficulty]
HPDrainRate:6
CircleSize:4
OverallDifficulty:6.6
ApproachRate:5
SliderMultiplier:1.4
SliderTickRate:1

[Events]
//Background and Video events
0,0,"bgggg.jpg",0,0
//Break Periods
//Storyboard Layer 0 (Background)
//Storyboard Layer 1 (Fail)
//Storyboard Layer 2 (Pass)
//Storyboard Layer 3 (Foreground)
//Storyboard Layer 4 (Overlay)
//Storyboard Sound Samples

[TimingPoints]
1073,272.727272727273,5,1,0,50,1,8
1073,-84.7457627118644,5,1,0,50,0,8
2164,272.727272727273,4,1,0,50,1,0
2164,-84.7457627118644,4,1,0,50,0,0
63232,272.727272727273,4,1,0,50,1,0
63232,-84.7457627118644,4,1,0,50,0,0
78505,272.727272727273,4,1,0,50,1,0
78505,-84.7457627118644,4,1,0,50,0,0
98141,272.727272727273,4,1,0,50,1,0
98141,-84.7457627118644,4,1,0,50,0,0
124322,266.666666666667,4,1,0,50,1,0
124322,-86.2068965517241,4,1,0,50,0,0
125388,250,4,1,0,50,1,0
125388,-92.5925925925926,4,1,0,50,0,0
126388,235.294117647059,4,1,0,50,1,0
126388,-98.0392156862745,4,1,0,50,0,0
127329,222.222222222222,4,1,0,50,1,0
127329,-104.166666666667,4,1,0,50,0,0
128217,210.526315789474,4,1,0,50,1,0
128217,-109.89010989011,4,1,0,50,0,0
129059,200,4,1,0,50,1,0
129059,-114.942528735632,4,1,0,50,0,0
130659,230.769230769231,5,1,0,50,1,0
130659,-100,5,1,0,50,0,0
131725,526.315789473684,727,1,0,50,1,0
131725,-43.859649122807,727,1,0,50,0,0
140124,523.331879633668,8,1,0,50,1,0
140124,-44.0528634361233,8,1,0,50,0,0
148497,523.331879633668,8,1,0,50,1,8
148497,-44.0528634361233,8,1,0,50,0,8
149282,545.454545454546,4,1,0,50,1,0
149282,-42.3728813559322,4,1,0,50,0,0
156907,272.727272727273,4,1,0,50,1,0
156907,-84.7457627118644,4,1,0,50,0,0
157997,300,4,1,0,50,1,0
157997,-76.9230769230769,4,1,0,50,0,0
179597,300,4,1,0,50,1,0
179597,-76.9230769230769,4,1,0,50,0,0
196397,300,4,1,0,50,1,0
196397,-76.9230769230769,4,1,0,50,0,0
220397,400,4,1,0,50,1,8
220397,-57.8034682080925,4,1,0,50,0,8
220418,400,3,1,0,50,1,0
220418,-57.8034682080925,3,1,0,50,0,0
227318,400,6,1,0,50,1,0
227318,-57.8034682080925,6,1,0,50,0,0
229418,400,3,1,0,50,1,0
229418,-57.8034682080925,3,1,0,50,0,0
234218,400,6,1,0,50,1,0
234218,-57.8034682080925,6,1,0,50,0,0
236318,400,3,1,0,50,1,0
236318,-57.8034682080925,3,1,0,50,0,0
237218,400,3,1,0,50,1,8
237218,-57.8034682080925,3,1,0,50,0,8
238418,333.333333333334,4,1,0,50,1,0
238418,-69.4444444444444,4,1,0,50,0,0
238751,300,4,1,0,50,1,8
238751,-76.9230769230769,4,1,0,50,0,8
239051,272.727272727273,4,1,0,50,1,8
239051,-84.7457627118644,4,1,0,50,0,8
239596,260.869565217391,4,1,0,50,1,0
239596,-88.495575221239,4,1,0,50,0,0
239856,272.727272727273,4,1,0,50,1,8
239856,-84.7457627118644,4,1,0,50,0,8
240128,260.869565217391,4,1,0,50,1,8
240128,-88.495575221239,4,1,0,50,0,8
240649,260.869565217391,4,1,0,50,1,0
240649,-88.495575221239,4,1,0,50,0,0
240910,250,4,1,0,50,1,8
240910,-92.5925925925926,4,1,0,50,0,8
241160,244.897959183673,4,1,0,50,1,8
241160,-94.3396226415094,4,1,0,50,0,8
241404,240,4,1,0,50,1,8
241404,-96.1538461538461,4,1,0,50,0,8
241644,235.294117647059,4,1,0,50,1,0
241644,-98.0392156862745,4,1,0,50,0,0
242555,230.769230769231,4,1,0,50,1,0
242555,-100,4,1,0,50,0,0
255478,230.769230769231,5,1,0,50,1,0
255478,-100,5,1,0,50,0,0
256631,230.769230769231,4,1,0,50,1,0
256631,-100,4,1,0,50,0,0
281554,230.769230769231,5,1,0,50,1,0
281554,-100,5,1,0,50,0,0
282707,230.769230769231,4,1,0,50,1,0
282707,-100,4,1,0,50,0,0
283630,230.769230769231,5,1,0,50,1,0
283630,-100,5,1,0,50,0,0
284783,230.769230769231,4,1,0,50,1,0
284783,-100,4,1,0,50,0,0
288475,230.769230769231,6,1,0,50,1,0
288475,-100,6,1,0,50,0,0
291244,230.769230769231,6,1,0,50,1,0
291244,-100,6,1,0,50,0,0
324474,230.769230769231,8,1,0,50,1,0
324474,-100,8,1,0,50,0,0
326320,230.769230769231,4,1,0,50,1,0
326320,-100,4,1,0,50,0,0
370627,224.299065420561,4,1,0,50,1,0
370627,-103.092783505155,4,1,0,50,0,0
372421,218.181818181818,4,1,0,50,1,0
372421,-105.263157894737,4,1,0,50,0,0
374166,212.389380530973,4,1,0,50,1,0
374166,-108.695652173913,4,1,0,50,0,0
375865,206.896551724138,4,1,0,50,1,0
375865,-111.111111111111,4,1,0,50,0,0
377520,206.896551724138,4,1,0,50,1,0
377520,-111.111111111111,4,1,0,50,0,0
410623,413.793103448276,4,1,0,50,1,0
410623,-55.8659217877095,4,1,0,50,0,0

[Colours]
Combo1 : 255,121,124
Combo2 : 255,255,255
Combo3 : 170,170,170

[HitObjects]
64,192,376692,5,0,0:0:0:0:
448,192,376692,1,0,0:0:0:0:
320,192,376692,128,0,377313:0:0:0:0:
64,192,376899,128,0,377313:0:0:0:0:
448,192,377106,128,0,377313:0:0:0:0:
192,192,377313,128,0,377520:0:0:0:0:
64,192,377520,128,0,377623:0:0:0:0:
320,192,377520,128,0,377571:0:0:0:0:
448,192,377520,128,0,377571:0:0:0:0:
192,192,377571,128,0,377675:0:0:0:0:
320,192,377623,128,0,377675:0:0:0:0:
448,192,377623,128,0,377726:0:0:0:0:
64,192,377675,128,0,377778:0:0:0:0:
192,192,377726,128,0,377830:0:0:0:0:
320,192,377726,128,0,377778:0:0:0:0:
448,192,377778,128,0,377882:0:0:0:0:
320,192,377830,128,0,377933:0:0:0:0:
64,192,377830,128,0,377882:0:0:0:0:
192,192,377882,128,0,377985:0:0:0:0:
64,192,377933,128,0,378037:0:0:0:0:
448,192,377933,128,0,377985:0:0:0:0:
320,192,377985,128,0,378088:0:0:0:0:
192,192,378037,128,0,378088:0:0:0:0:
448,192,378037,128,0,378140:0:0:0:0:
64,192,378088,128,0,378192:0:0:0:0:
192,192,378140,128,0,378244:0:0:0:0:
320,192,378140,128,0,378192:0:0:0:0:
448,192,378192,128,0,378295:0:0:0:0:
320,192,378244,128,0,378295:0:0:0:0:
64,192,378244,128,0,378295:0:0:0:0:
192,192,378295,128,0,378347:0:0:0:0:
64,192,378347,128,0,378451:0:0:0:0:
320,192,378347,128,0,378399:0:0:0:0:
448,192,378347,128,0,378451:0:0:0:0:
192,192,378399,128,0,378554:0:0:0:0:
320,192,378451,128,0,378502:0:0:0:0:
64,192,378502,128,0,378606:0:0:0:0:
448,192,378502,128,0,378606:0:0:0:0:
320,192,378554,128,0,378709:0:0:0:0:
192,192,378606,128,0,378657:0:0:0:0:
448,192,378657,128,0,378709:0:0:0:0:
64,192,378657,128,0,378761:0:0:0:0:
192,192,378709,128,0,378761:0:0:0:0:
320,192,378761,128,0,378813:0:0:0:0:
448,192,378761,128,0,378813:0:0:0:0:
192,192,378813,128,0,378864:0:0:0:0:
64,192,378813,128,0,378916:0:0:0:0:
320,192,378864,128,0,378916:0:0:0:0:
448,192,378864,128,0,378916:0:0:0:0:
192,192,378916,128,0,378968:0:0:0:0:
64,192,378968,128,0,379020:0:0:0:0:
320,192,378968,128,0,379020:0:0:0:0:
448,192,378968,128,0,379020:0:0:0:0:
192,192,379020,128,0,379071:0:0:0:0:
64,192,379071,128,0,379123:0:0:0:0:
320,192,379071,128,0,379123:0:0:0:0:
448,192,379071,128,0,379123:0:0:0:0:
192,192,379123,128,0,379175:0:0:0:0:
320,192,379175,128,0,379226:0:0:0:0:
448,192,379175,128,0,379226:0:0:0:0:
64,192,379175,128,0,379330:0:0:0:0:
192,192,379226,128,0,379278:0:0:0:0:
448,192,379278,128,0,379330:0:0:0:0:
320,192,379278,128,0,379382:0:0:0:0:
192,192,379330,128,0,379433:0:0:0:0:
64,192,379382,128,0,379433:0:0:0:0:
448,192,379382,128,0,379537:0:0:0:0:
320,192,379433,128,0,379485:0:0:0:0:
64,192,379485,128,0,379537:0:0:0:0:
192,192,379485,128,0,379588:0:0:0:0:
320,192,379537,128,0,379640:0:0:0:0:
448,192,379588,128,0,379640:0:0:0:0:
64,192,379588,128,0,379744:0:0:0:0:
192,192,379640,128,0,379692:0:0:0:0:
448,192,379692,128,0,379744:0:0:0:0:
320,192,379692,128,0,379847:0:0:0:0:
192,192,379744,128,0,379795:0:0:0:0:
64,192,379795,128,0,379951:0:0:0:0:
448,192,379795,128,0,379899:0:0:0:0:
192,192,379847,128,0,379951:0:0:0:0:
320,192,379899,128,0,379951:0:0:0:0:
448,192,379951,128,0,380002:0:0:0:0:
320,192,380002,128,0,380054:0:0:0:0:
192,192,380002,128,0,380106:0:0:0:0:
64,192,380002,128,0,380054:0:0:0:0:
448,192,380054,128,0,380157:0:0:0:0:
320,192,380106,128,0,380209:0:0:0:0:
64,192,380106,128,0,380157:0:0:0:0:
192,192,380157,128,0,380261:0:0:0:0:
64,192,380209,128,0,380313:0:0:0:0:
448,192,380209,128,0,380261:0:0:0:0:
320,192,380261,128,0,380364:0:0:0:0:
192,192,380313,128,0,380364:0:0:0:0:
448,192,380313,128,0,380416:0:0:0:0:
64,192,380364,128,0,380468:0:0:0:0:
192,192,380416,128,0,380520:0:0:0:0:
320,192,380416,128,0,380468:0:0:0:0:
448,192,380468,128,0,380571:0:0:0:0:
320,192,380520,128,0,380623:0:0:0:0:
64,192,380520,128,0,380571:0:0:0:0:
192,192,380571,128,0,380675:0:0:0:0:
64,192,380623,128,0,380675:0:0:0:0:
448,192,380623,128,0,380726:0:0:0:0:
320,192,380675,128,0,380726:0:0:0:0:
64,192,380726,128,0,380778:0:0:0:0:
192,192,380726,128,0,380778:0:0:0:0:
320,192,380778,128,0,380830:0:0:0:0:
448,192,380778,128,0,380882:0:0:0:0:
64,192,380830,128,0,380882:0:0:0:0:
192,192,380830,128,0,380933:0:0:0:0:
320,192,380882,128,0,380985:0:0:0:0:
448,192,380933,128,0,380985:0:0:0:0:
64,192,380933,128,0,381037:0:0:0:0:
192,192,380985,128,0,381088:0:0:0:0:
320,192,381037,128,0,381088:0:0:0:0:
448,192,381037,128,0,381140:0:0:0:0:
64,192,381088,128,0,381192:0:0:0:0:
192,192,381140,128,0,381192:0:0:0:0:
320,192,381140,128,0,381244:0:0:0:0:
448,192,381192,128,0,381295:0:0:0:0:
64,192,381244,128,0,381295:0:0:0:0:
192,192,381244,128,0,381347:0:0:0:0:
320,192,381295,128,0,381399:0:0:0:0:
448,192,381347,128,0,381399:0:0:0:0:
64,192,381347,128,0,381502:0:0:0:0:
192,192,381399,128,0,381451:0:0:0:0:
448,192,381451,128,0,381502:0:0:0:0:
320,192,381451,128,0,381554:0:0:0:0:
192,192,381502,128,0,381606:0:0:0:0:
64,192,381554,128,0,381606:0:0:0:0:
448,192,381554,128,0,381709:0:0:0:0:
320,192,381606,128,0,381657:0:0:0:0:
64,192,381657,128,0,381709:0:0:0:0:
192,192,381657,128,0,381761:0:0:0:0:
320,192,381709,128,0,381813:0:0:0:0:
448,192,381761,128,0,381813:0:0:0:0:
64,192,381761,128,0,381864:0:0:0:0:
192,192,381813,128,0,381916:0:0:0:0:
320,192,381864,128,0,381916:0:0:0:0:
448,192,381864,128,0,381968:0:0:0:0:
64,192,381916,128,0,382020:0:0:0:0:
192,192,381968,128,0,382020:0:0:0:0:
320,192,381968,128,0,382071:0:0:0:0:
448,192,382020,128,0,382071:0:0:0:0:
64,192,382071,128,0,382123:0:0:0:0:
192,192,382071,128,0,382123:0:0:0:0:
320,192,382123,128,0,382175:0:0:0:0:
448,192,382123,128,0,382175:0:0:0:0:
64,192,382175,128,0,382226:0:0:0:0:
192,192,382175,128,0,382226:0:0:0:0:
320,192,382226,128,0,382278:0:0:0:0:
448,192,382226,128,0,382278:0:0:0:0:
64,192,382278,128,0,382330:0:0:0:0:
192,192,382278,128,0,382330:0:0:0:0:
320,192,382330,128,0,382382:0:0:0:0:
448,192,382330,128,0,382382:0:0:0:0:
64,192,382382,128,0,382433:0:0:0:0:
192,192,382382,128,0,382433:0:0:0:0:
448,192,382433,128,0,382485:0:0:0:0:
320,192,382433,128,0,382537:0:0:0:0:
64,192,382485,128,0,382537:0:0:0:0:
192,192,382485,128,0,382588:0:0:0:0:
448,192,382537,128,0,382640:0:0:0:0:
320,192,382588,128,0,382640:0:0:0:0:
64,192,382588,128,0,382744:0:0:0:0:
192,192,382640,128,0,382692:0:0:0:0:
320,192,382692,128,0,382744:0:0:0:0:
448,192,382692,128,0,382795:0:0:0:0:
192,192,382744,128,0,382847:0:0:0:0:
64,192,382795,128,0,382847:0:0:0:0:
320,192,382795,128,0,382951:0:0:0:0:
448,192,382847,128,0,382899:0:0:0:0:
192,192,382899,128,0,383002:0:0:0:0:
64,192,382899,128,0,382951:0:0:0:0:
448,192,382951,128,0,383054:0:0:0:0:
64,192,383002,128,0,383157:0:0:0:0:
320,192,383002,128,0,383054:0:0:0:0:
192,192,383054,128,0,383106:0:0:0:0:
448,192,383106,128,0,383209:0:0:0:0:
320,192,383106,128,0,383157:0:0:0:0:
192,192,383157,128,0,383261:0:0:0:0:
64,192,383209,128,0,383261:0:0:0:0:
320,192,383209,128,0,383313:0:0:0:0:
448,192,383261,128,0,383364:0:0:0:0:
64,192,383313,128,0,383364:0:0:0:0:
192,192,383313,128,0,383416:0:0:0:0:
320,192,383364,128,0,383468:0:0:0:0:
448,192,383416,128,0,383468:0:0:0:0:
64,192,383416,128,0,383520:0:0:0:0:
192,192,383468,128,0,383571:0:0:0:0:
320,192,383520,128,0,383571:0:0:0:0:
448,192,383520,128,0,383623:0:0:0:0:
64,192,383571,128,0,383675:0:0:0:0:
192,192,383623,128,0,383675:0:0:0:0:
320,192,383623,128,0,383726:0:0:0:0:
448,192,383675,128,0,383726:0:0:0:0:
64,192,383726,128,0,383778:0:0:0:0:
192,192,383726,128,0,383778:0:0:0:0:
320,192,383778,128,0,383830:0:0:0:0:
448,192,383778,128,0,383830:0:0:0:0:
64,192,383830,128,0,383882:0:0:0:0:
192,192,383830,128,0,383882:0:0:0:0:
448,192,383882,128,0,383985:0:0:0:0:
320,192,383882,128,0,383985:0:0:0:0:
64,192,383933,128,0,384088:0:0:0:0:
192,192,383933,128,0,384088:0:0:0:0:
320,192,384037,128,0,384088:0:0:0:0:
448,192,384037,128,0,384088:0:0:0:0:
448,192,384140,128,0,384244:0:0:0:0:
192,192,384140,128,0,384192:0:0:0:0:
64,192,384140,128,0,384192:0:0:0:0:
320,192,384192,128,0,384295:0:0:0:0:
192,192,384244,128,0,384295:0:0:0:0:
64,192,384244,128,0,384347:0:0:0:0:
448,192,384295,128,0,384399:0:0:0:0:
320,192,384347,128,0,384451:0:0:0:0:
192,192,384347,128,0,384399:0:0:0:0:
64,192,384399,128,0,384502:0:0:0:0:
192,192,384451,128,0,384554:0:0:0:0:
448,192,384451,128,0,384502:0:0:0:0:
320,192,384502,128,0,384606:0:0:0:0:
448,192,384554,128,0,384657:0:0:0:0:
64,192,384554,128,0,384606:0:0:0:0:
192,192,384606,128,0,384709:0:0:0:0:
320,192,384657,128,0,384709:0:0:0:0:
64,192,384657,128,0,384761:0:0:0:0:
448,192,384709,128,0,384813:0:0:0:0:
320,192,384761,128,0,384864:0:0:0:0:
192,192,384761,128,0,384813:0:0:0:0:
64,192,384813,128,0,384916:0:0:0:0:
192,192,384864,128,0,384916:0:0:0:0:
448,192,384864,128,0,384916:0:0:0:0:
320,192,384916,128,0,384968:0:0:0:0:
448,192,384968,128,0,385071:0:0:0:0:
192,192,384968,128,0,385020:0:0:0:0:
64,192,384968,128,0,385071:0:0:0:0:
320,192,385020,128,0,385175:0:0:0:0:
192,192,385071,128,0,385123:0:0:0:0:
448,192,385123,128,0,385226:0:0:0:0:
64,192,385123,128,0,385226:0:0:0:0:
192,192,385175,128,0,385330:0:0:0:0:
320,192,385226,128,0,385278:0:0:0:0:
64,192,385278,128,0,385330:0:0:0:0:
448,192,385278,128,0,385382:0:0:0:0:
320,192,385330,128,0,385382:0:0:0:0:
192,192,385382,128,0,385433:0:0:0:0:
64,192,385382,128,0,385433:0:0:0:0:
320,192,385433,128,0,385485:0:0:0:0:
448,192,385433,128,0,385537:0:0:0:0:
192,192,385485,128,0,385537:0:0:0:0:
64,192,385485,128,0,385537:0:0:0:0:
320,192,385537,128,0,385588:0:0:0:0:
448,192,385588,128,0,385640:0:0:0:0:
192,192,385588,128,0,385640:0:0:0:0:
64,192,385588,128,0,385640:0:0:0:0:
320,192,385640,128,0,385692:0:0:0:0:
448,192,385692,128,0,385744:0:0:0:0:
192,192,385692,128,0,385744:0:0:0:0:
64,192,385692,128,0,385744:0:0:0:0:
320,192,385744,128,0,385795:0:0:0:0:
192,192,385795,128,0,385847:0:0:0:0:
64,192,385795,128,0,385847:0:0:0:0:
448,192,385795,128,0,385951:0:0:0:0:
320,192,385847,128,0,385899:0:0:0:0:
64,192,385899,128,0,385951:0:0:0:0:
192,192,385899,128,0,386002:0:0:0:0:
320,192,385951,128,0,386054:0:0:0:0:
448,192,386002,128,0,386054:0:0:0:0:
64,192,386002,128,0,386157:0:0:0:0:
192,192,386054,128,0,386106:0:0:0:0:
448,192,386106,128,0,386157:0:0:0:0:
320,192,386106,128,0,386209:0:0:0:0:
192,192,386157,128,0,386261:0:0:0:0:
64,192,386209,128,0,386261:0:0:0:0:
448,192,386209,128,0,386364:0:0:0:0:
320,192,386261,128,0,386313:0:0:0:0:
64,192,386313,128,0,386364:0:0:0:0:
192,192,386313,128,0,386468:0:0:0:0:
320,192,386364,128,0,386416:0:0:0:0:
448,192,386416,128,0,386571:0:0:0:0:
64,192,386416,128,0,386520:0:0:0:0:
320,192,386468,128,0,386571:0:0:0:0:
192,192,386520,128,0,386571:0:0:0:0:
64,192,386571,128,0,386623:0:0:0:0:
192,192,386623,128,0,386675:0:0:0:0:
320,192,386623,128,0,386726:0:0:0:0:
448,192,386623,128,0,386675:0:0:0:0:
64,192,386675,128,0,386778:0:0:0:0:
192,192,386726,128,0,386830:0:0:0:0:
448,192,386726,128,0,386778:0:0:0:0:
320,192,386778,128,0,386882:0:0:0:0:
448,192,386830,128,0,386933:0:0:0:0:
64,192,386830,128,0,386882:0:0:0:0:
192,192,386882,128,0,386985:0:0:0:0:
320,192,386933,128,0,386985:0:0:0:0:
64,192,386933,128,0,387037:0:0:0:0:
448,192,386985,128,0,387088:0:0:0:0:
320,192,387037,128,0,387140:0:0:0:0:
192,192,387037,128,0,387088:0:0:0:0:
64,192,387088,128,0,387192:0:0:0:0:
192,192,387140,128,0,387244:0:0:0:0:
448,192,387140,128,0,387192:0:0:0:0:
320,192,387192,128,0,387295:0:0:0:0:
448,192,387244,128,0,387295:0:0:0:0:
64,192,387244,128,0,387347:0:0:0:0:
192,192,387295,128,0,387347:0:0:0:0:
448,192,387347,128,0,387399:0:0:0:0:
320,192,387347,128,0,387399:0:0:0:0:
192,192,387399,128,0,387451:0:0:0:0:
64,192,387399,128,0,387502:0:0:0:0:
448,192,387451,128,0,387502:0:0:0:0:
320,192,387451,128,0,387554:0:0:0:0:
192,192,387502,128,0,387606:0:0:0:0:
64,192,387554,128,0,387606:0:0:0:0:
448,192,387554,128,0,387657:0:0:0:0:
320,192,387606,128,0,387709:0:0:0:0:
192,192,387657,128,0,387709:0:0:0:0:
64,192,387657,128,0,387761:0:0:0:0:
448,192,387709,128,0,387813:0:0:0:0:
320,192,387761,128,0,387813:0:0:0:0:
192,192,387761,128,0,387864:0:0:0:0:
64,192,387813,128,0,387916:0:0:0:0:
448,192,387864,128,0,387916:0:0:0:0:
320,192,387864,128,0,387968:0:0:0:0:
192,192,387916,128,0,388020:0:0:0:0:
64,192,387968,128,0,388020:0:0:0:0:
448,192,387968,128,0,388123:0:0:0:0:
320,192,388020,128,0,388071:0:0:0:0:
64,192,388071,128,0,388123:0:0:0:0:
192,192,388071,128,0,388175:0:0:0:0:
320,192,388123,128,0,388226:0:0:0:0:
448,192,388175,128,0,388226:0:0:0:0:
64,192,388175,128,0,388330:0:0:0:0:
192,192,388226,128,0,388278:0:0:0:0:
448,192,388278,128,0,388330:0:0:0:0:
320,192,388278,128,0,388382:0:0:0:0:
192,192,388330,128,0,388433:0:0:0:0:
64,192,388382,128,0,388433:0:0:0:0:
448,192,388382,128,0,388485:0:0:0:0:
320,192,388433,128,0,388537:0:0:0:0:
192,192,388485,128,0,388537:0:0:0:0:
64,192,388485,128,0,388588:0:0:0:0:
448,192,388537,128,0,388640:0:0:0:0:
320,192,388588,128,0,388640:0:0:0:0:
192,192,388588,128,0,388692:0:0:0:0:
64,192,388640,128,0,388692:0:0:0:0:
448,192,388692,128,0,388744:0:0:0:0:
320,192,388692,128,0,388744:0:0:0:0:
192,192,388744,128,0,388795:0:0:0:0:
64,192,388744,128,0,388795:0:0:0:0:
448,192,388795,128,0,388847:0:0:0:0:
320,192,388795,128,0,388847:0:0:0:0:
192,192,388847,128,0,388899:0:0:0:0:
64,192,388847,128,0,388899:0:0:0:0:
448,192,388899,128,0,388951:0:0:0:0:
320,192,388899,128,0,388951:0:0:0:0:
192,192,388951,128,0,389002:0:0:0:0:
64,192,388951,128,0,389054:0:0:0:0:
448,192,389002,128,0,389054:0:0:0:0:
320,192,389002,128,0,389106:0:0:0:0:
192,192,389054,128,0,389106:0:0:0:0:
64,192,389106,128,0,389157:0:0:0:0:
448,192,389106,128,0,389157:0:0:0:0:
192,192,389157,128,0,389209:0:0:0:0:
320,192,389157,128,0,389209:0:0:0:0:
64,192,389209,128,0,389261:0:0:0:0:
448,192,389209,128,0,389261:0:0:0:0:
192,192,389261,128,0,389313:0:0:0:0:
320,192,389261,128,0,389313:0:0:0:0:
448,192,389313,128,0,389364:0:0:0:0:
64,192,389313,128,0,389364:0:0:0:0:
320,192,389364,128,0,389416:0:0:0:0:
192,192,389364,128,0,389468:0:0:0:0:
64,192,389416,128,0,389468:0:0:0:0:
448,192,389416,128,0,389520:0:0:0:0:
320,192,389468,128,0,389520:0:0:0:0:
64,192,389520,128,0,389571:0:0:0:0:
192,192,389520,128,0,389571:0:0:0:0:
320,192,389571,128,0,389623:0:0:0:0:
448,192,389571,128,0,389623:0:0:0:0:
64,192,389623,128,0,389675:0:0:0:0:
192,192,389623,128,0,389675:0:0:0:0:
320,192,389675,128,0,389778:0:0:0:0:
448,192,389675,128,0,389778:0:0:0:0:
64,192,389726,128,0,389882:0:0:0:0:
192,192,389726,128,0,389882:0:0:0:0:
320,192,389830,128,0,389882:0:0:0:0:
448,192,389830,128,0,389882:0:0:0:0:
448,192,389933,128,0,390295:0:0:0:0:
64,192,389933,128,0,390088:0:0:0:0:
320,192,389933,128,0,390088:0:0:0:0:
192,192,389933,128,0,390088:0:0:0:0:
192,192,390140,1,0,0:0:0:0:
320,192,390140,1,0,0:0:0:0:
64,192,390140,1,0,0:0:0:0:
320,192,390244,1,0,0:0:0:0:
192,192,390244,1,0,0:0:0:0:
64,192,390244,1,0,0:0:0:0:
64,192,390347,1,0,0:0:0:0:
192,192,390347,1,0,0:0:0:0:
320,192,390347,1,0,0:0:0:0:
448,192,390399,1,0,0:0:0:0:
320,192,390451,1,0,0:0:0:0:
192,192,390451,1,0,0:0:0:0:
64,192,390451,1,0,0:0:0:0:
64,192,390554,1,0,0:0:0:0:
192,192,390554,1,0,0:0:0:0:
448,192,390554,1,0,0:0:0:0:
64,192,390657,1,0,0:0:0:0:
320,192,390657,1,0,0:0:0:0:
448,192,390657,1,0,0:0:0:0:
320,192,390761,128,0,390864:0:0:0:0:
448,192,390761,128,0,390813:0:0:0:0:
192,192,390761,1,0,0:0:0:0:
64,192,390813,128,0,390916:0:0:0:0:
192,192,390864,128,0,390968:0:0:0:0:
448,192,390864,128,0,390916:0:0:0:0:
320,192,390916,128,0,391020:0:0:0:0:
448,192,390968,128,0,391020:0:0:0:0:
64,192,390968,128,0,391071:0:0:0:0:
192,192,391020,128,0,391123:0:0:0:0:
320,192,391071,128,0,391175:0:0:0:0:
448,192,391071,128,0,391123:0:0:0:0:
64,192,391123,128,0,391226:0:0:0:0:
192,192,391175,128,0,391278:0:0:0:0:
448,192,391175,128,0,391226:0:0:0:0:
320,192,391226,128,0,391330:0:0:0:0:
448,192,391278,128,0,391382:0:0:0:0:
64,192,391278,128,0,391330:0:0:0:0:
192,192,391330,128,0,391433:0:0:0:0:
64,192,391382,128,0,391433:0:0:0:0:
320,192,391382,128,0,391485:0:0:0:0:
448,192,391433,128,0,391588:0:0:0:0:
192,192,391485,128,0,391537:0:0:0:0:
64,192,391485,128,0,391537:0:0:0:0:
320,192,391537,128,0,391640:0:0:0:0:
64,192,391588,128,0,391640:0:0:0:0:
192,192,391588,128,0,391692:0:0:0:0:
448,192,391640,128,0,391744:0:0:0:0:
64,192,391692,128,0,391744:0:0:0:0:
320,192,391692,128,0,391795:0:0:0:0:
192,192,391744,128,0,391847:0:0:0:0:
448,192,391795,128,0,391899:0:0:0:0:
64,192,391795,128,0,391847:0:0:0:0:
320,192,391847,128,0,391951:0:0:0:0:
64,192,391899,128,0,391951:0:0:0:0:
192,192,391899,128,0,392002:0:0:0:0:
448,192,391951,128,0,392054:0:0:0:0:
64,192,392002,128,0,392054:0:0:0:0:
320,192,392002,128,0,392106:0:0:0:0:
192,192,392054,128,0,392157:0:0:0:0:
448,192,392106,128,0,392157:0:0:0:0:
64,192,392106,128,0,392209:0:0:0:0:
320,192,392157,128,0,392261:0:0:0:0:
192,192,392209,128,0,392313:0:0:0:0:
448,192,392209,128,0,392261:0:0:0:0:
64,192,392261,128,0,392364:0:0:0:0:
448,192,392313,128,0,392364:0:0:0:0:
320,192,392313,128,0,392364:0:0:0:0:
192,192,392364,128,0,392416:0:0:0:0:
320,192,392416,128,0,392468:0:0:0:0:
448,192,392416,128,0,392468:0:0:0:0:
64,192,392416,128,0,392675:0:0:0:0:
192,192,392468,128,0,392520:0:0:0:0:
448,192,392520,128,0,392571:0:0:0:0:
320,192,392520,128,0,392623:0:0:0:0:
192,192,392571,128,0,392675:0:0:0:0:
448,192,392623,128,0,392726:0:0:0:0:
320,192,392675,128,0,392778:0:0:0:0:
192,192,392726,128,0,392778:0:0:0:0:
64,192,392726,128,0,392830:0:0:0:0:
448,192,392778,128,0,392882:0:0:0:0:
320,192,392830,128,0,392882:0:0:0:0:
192,192,392830,128,0,392933:0:0:0:0:
64,192,392882,128,0,392985:0:0:0:0:
448,192,392933,128,0,392985:0:0:0:0:
320,192,392933,128,0,393037:0:0:0:0:
192,192,392985,128,0,393088:0:0:0:0:
64,192,393037,128,0,393088:0:0:0:0:
448,192,393037,128,0,393295:0:0:0:0:
320,192,393088,128,0,393140:0:0:0:0:
192,192,393140,128,0,393192:0:0:0:0:
64,192,393140,128,0,393192:0:0:0:0:
320,192,393192,128,0,393244:0:0:0:0:
64,192,393244,128,0,393295:0:0:0:0:
192,192,393244,128,0,393347:0:0:0:0:
320,192,393295,128,0,393399:0:0:0:0:
448,192,393347,128,0,393399:0:0:0:0:
64,192,393347,128,0,393451:0:0:0:0:
192,192,393399,128,0,393502:0:0:0:0:
320,192,393451,128,0,393502:0:0:0:0:
448,192,393451,128,0,393554:0:0:0:0:
64,192,393502,128,0,393606:0:0:0:0:
192,192,393554,128,0,393606:0:0:0:0:
320,192,393554,128,0,393657:0:0:0:0:
448,192,393606,128,0,393709:0:0:0:0:
64,192,393657,128,0,393709:0:0:0:0:
192,192,393657,128,0,393761:0:0:0:0:
320,192,393709,128,0,393813:0:0:0:0:
448,192,393761,128,0,393813:0:0:0:0:
64,192,393761,128,0,393864:0:0:0:0:
192,192,393813,128,0,393916:0:0:0:0:
320,192,393864,128,0,393916:0:0:0:0:
448,192,393864,128,0,393968:0:0:0:0:
64,192,393916,128,0,394020:0:0:0:0:
192,192,393968,128,0,394020:0:0:0:0:
320,192,393968,128,0,394123:0:0:0:0:
448,192,394020,128,0,394071:0:0:0:0:
192,192,394071,128,0,394175:0:0:0:0:
64,192,394071,128,0,394123:0:0:0:0:
448,192,394123,128,0,394226:0:0:0:0:
320,192,394175,128,0,394278:0:0:0:0:
64,192,394175,128,0,394226:0:0:0:0:
192,192,394226,128,0,394330:0:0:0:0:
64,192,394278,128,0,394330:0:0:0:0:
448,192,394278,128,0,394382:0:0:0:0:
320,192,394330,128,0,394433:0:0:0:0:
192,192,394382,128,0,394485:0:0:0:0:
64,192,394382,128,0,394433:0:0:0:0:
448,192,394433,128,0,394537:0:0:0:0:
320,192,394485,128,0,394588:0:0:0:0:
64,192,394485,128,0,394537:0:0:0:0:
192,192,394537,128,0,394640:0:0:0:0:
64,192,394588,128,0,394692:0:0:0:0:
448,192,394588,128,0,394640:0:0:0:0:
320,192,394640,128,0,394744:0:0:0:0:
448,192,394692,128,0,394744:0:0:0:0:
192,192,394692,128,0,394795:0:0:0:0:
64,192,394744,128,0,394899:0:0:0:0:
320,192,394795,128,0,394847:0:0:0:0:
448,192,394795,128,0,394847:0:0:0:0:
192,192,394847,128,0,394951:0:0:0:0:
448,192,394899,128,0,394951:0:0:0:0:
320,192,394899,128,0,395002:0:0:0:0:
64,192,394951,128,0,395054:0:0:0:0:
448,192,395002,128,0,395054:0:0:0:0:
192,192,395002,128,0,395106:0:0:0:0:
320,192,395054,128,0,395157:0:0:0:0:
64,192,395106,128,0,395209:0:0:0:0:
448,192,395106,128,0,395157:0:0:0:0:
192,192,395157,128,0,395261:0:0:0:0:
448,192,395209,128,0,395261:0:0:0:0:
320,192,395209,128,0,395313:0:0:0:0:
64,192,395261,128,0,395364:0:0:0:0:
448,192,395313,128,0,395364:0:0:0:0:
192,192,395313,128,0,395416:0:0:0:0:
320,192,395364,128,0,395468:0:0:0:0:
64,192,395416,128,0,395468:0:0:0:0:
448,192,395416,128,0,395520:0:0:0:0:
192,192,395468,128,0,395571:0:0:0:0:
320,192,395520,128,0,395623:0:0:0:0:
64,192,395520,128,0,395571:0:0:0:0:
448,192,395571,128,0,395726:0:0:0:0:
64,192,395623,128,0,395675:0:0:0:0:
192,192,395623,128,0,395675:0:0:0:0:
320,192,395675,128,0,395778:0:0:0:0:
64,192,395726,128,0,395778:0:0:0:0:
192,192,395726,128,0,395830:0:0:0:0:
448,192,395778,128,0,395882:0:0:0:0:
320,192,395830,128,0,395882:0:0:0:0:
64,192,395830,128,0,395933:0:0:0:0:
192,192,395882,128,0,395985:0:0:0:0:
320,192,395933,128,0,396037:0:0:0:0:
448,192,395933,128,0,395985:0:0:0:0:
64,192,395985,128,0,396088:0:0:0:0:
192,192,396037,128,0,396088:0:0:0:0:
448,192,396037,128,0,396140:0:0:0:0:
320,192,396088,128,0,396192:0:0:0:0:
192,192,396140,128,0,396244:0:0:0:0:
64,192,396140,128,0,396192:0:0:0:0:
448,192,396192,128,0,396295:0:0:0:0:
64,192,396244,128,0,396347:0:0:0:0:
320,192,396244,128,0,396295:0:0:0:0:
192,192,396295,128,0,396347:0:0:0:0:
448,192,396347,128,0,396399:0:0:0:0:
320,192,396347,128,0,396399:0:0:0:0:
192,192,396399,128,0,396451:0:0:0:0:
64,192,396399,128,0,396451:0:0:0:0:
320,192,396451,128,0,396502:0:0:0:0:
448,192,396451,128,0,396502:0:0:0:0:
192,192,396502,128,0,396554:0:0:0:0:
64,192,396502,128,0,396606:0:0:0:0:
448,192,396554,128,0,396606:0:0:0:0:
320,192,396554,128,0,396657:0:0:0:0:
192,192,396606,128,0,396709:0:0:0:0:
64,192,396657,128,0,396709:0:0:0:0:
448,192,396657,128,0,396813:0:0:0:0:
320,192,396709,128,0,396761:0:0:0:0:
192,192,396761,128,0,396864:0:0:0:0:
64,192,396761,128,0,396813:0:0:0:0:
320,192,396813,128,0,396916:0:0:0:0:
448,192,396864,128,0,396916:0:0:0:0:
64,192,396864,128,0,396968:0:0:0:0:
192,192,396916,128,0,396968:0:0:0:0:
448,192,396968,128,0,397020:0:0:0:0:
320,192,396994,128,0,397045:0:0:0:0:
192,192,397020,128,0,397071:0:0:0:0:
64,192,397045,128,0,397097:0:0:0:0:
448,192,397071,128,0,397123:0:0:0:0:
320,192,397097,128,0,397149:0:0:0:0:
192,192,397123,128,0,397175:0:0:0:0:
64,192,397149,128,0,397201:0:0:0:0:
448,192,397175,128,0,397226:0:0:0:0:
320,192,397201,128,0,397252:0:0:0:0:
192,192,397226,128,0,397278:0:0:0:0:
64,192,397252,128,0,397304:0:0:0:0:
448,192,397278,128,0,397330:0:0:0:0:
320,192,397304,128,0,397356:0:0:0:0:
192,192,397330,128,0,397382:0:0:0:0:
64,192,397356,128,0,397407:0:0:0:0:
448,192,397382,128,0,397744:0:0:0:0:
320,192,397382,128,0,397485:0:0:0:0:
320,192,397537,128,0,397744:0:0:0:0:
192,192,397537,128,0,397640:0:0:0:0:
192,192,397692,128,0,397744:0:0:0:0:
64,192,397692,128,0,397744:0:0:0:0:
64,192,397795,1,0,0:0:0:0:
448,192,397795,1,0,0:0:0:0:
192,192,397795,128,0,397847:0:0:0:0:
320,192,397847,128,0,397899:0:0:0:0:
448,192,397899,128,0,397951:0:0:0:0:
64,192,397899,128,0,397951:0:0:0:0:
192,192,397951,128,0,398002:0:0:0:0:
320,192,398002,128,0,398054:0:0:0:0:
448,192,398002,1,0,0:0:0:0:
192,192,398054,128,0,398106:0:0:0:0:
64,192,398106,128,0,398157:0:0:0:0:
448,192,398106,128,0,398209:0:0:0:0:
320,192,398157,128,0,398209:0:0:0:0:
64,192,398209,1,0,0:0:0:0:
192,192,398209,128,0,398313:0:0:0:0:
64,192,398313,128,0,398468:0:0:0:0:
320,192,398313,128,0,398468:0:0:0:0:
448,192,398313,128,0,398468:0:0:0:0:
64,192,398520,1,0,0:0:0:0:
320,192,398520,1,0,0:0:0:0:
448,192,398520,1,0,0:0:0:0:
64,192,398623,1,0,0:0:0:0:
192,192,398623,1,0,0:0:0:0:
320,192,398675,1,0,0:0:0:0:
448,192,398675,1,0,0:0:0:0:
192,192,398726,1,0,0:0:0:0:
64,192,398726,1,0,0:0:0:0:
320,192,398778,1,0,0:0:0:0:
448,192,398778,1,0,0:0:0:0:
192,192,398830,128,0,398933:0:0:0:0:
64,192,398830,1,0,0:0:0:0:
64,192,398933,1,0,0:0:0:0:
320,192,398933,1,0,0:0:0:0:
448,192,398933,1,0,0:0:0:0:
64,192,399037,128,0,399244:0:0:0:0:
320,192,399037,128,0,399244:0:0:0:0:
448,192,399037,128,0,399244:0:0:0:0:
192,192,399244,1,0,0:0:0:0:
320,192,399295,1,0,0:0:0:0:
192,192,399347,1,0,0:0:0:0:
320,192,399399,1,0,0:0:0:0:
192,192,399451,1,0,0:0:0:0:
64,192,399451,1,0,0:0:0:0:
448,192,399451,1,0,0:0:0:0:
320,192,399502,1,0,0:0:0:0:
192,192,399554,1,0,0:0:0:0:
64,192,399606,1,0,0:0:0:0:
320,192,399657,1,0,0:0:0:0:
448,192,399657,1,0,0:0:0:0:
192,192,399709,1,0,0:0:0:0:
448,192,399761,1,0,0:0:0:0:
192,192,399813,1,0,0:0:0:0:
448,192,399864,1,0,0:0:0:0:
192,192,399916,1,0,0:0:0:0:
320,192,399968,1,0,0:0:0:0:
448,192,399968,1,0,0:0:0:0:
64,192,400020,1,0,0:0:0:0:
192,192,400071,1,0,0:0:0:0:
320,192,400123,1,0,0:0:0:0:
64,192,400175,1,0,0:0:0:0:
448,192,400175,1,0,0:0:0:0:
192,192,400226,1,0,0:0:0:0:
64,192,400278,1,0,0:0:0:0:
448,192,400278,1,0,0:0:0:0:
320,192,400330,1,0,0:0:0:0:
192,192,400382,1,0,0:0:0:0:
64,192,400433,1,0,0:0:0:0:
320,192,400485,1,0,0:0:0:0:
448,192,400485,1,0,0:0:0:0:
192,192,400485,1,0,0:0:0:0:
192,192,400588,1,0,0:0:0:0:
64,192,400692,128,0,400744:0:0:0:0:
320,192,400692,128,0,400744:0:0:0:0:
448,192,400692,128,0,400744:0:0:0:0:
64,192,400795,128,0,400847:0:0:0:0:
320,192,400795,128,0,400847:0:0:0:0:
448,192,400795,128,0,400847:0:0:0:0:
64,192,400899,128,0,400951:0:0:0:0:
448,192,400899,128,0,400951:0:0:0:0:
320,192,400899,128,0,400951:0:0:0:0:
192,192,401002,128,0,401054:0:0:0:0:
320,192,401002,128,0,401054:0:0:0:0:
64,192,401106,128,0,401157:0:0:0:0:
192,192,401106,128,0,401157:0:0:0:0:
448,192,401106,128,0,401157:0:0:0:0:
64,192,401209,128,0,401261:0:0:0:0:
320,192,401209,128,0,401261:0:0:0:0:
192,192,401313,128,0,401364:0:0:0:0:
320,192,401313,128,0,401364:0:0:0:0:
448,192,401313,128,0,401364:0:0:0:0:
64,192,401416,128,0,401468:0:0:0:0:
448,192,401416,128,0,401468:0:0:0:0:
64,192,401520,128,0,401571:0:0:0:0:
192,192,401520,128,0,401571:0:0:0:0:
320,192,401520,128,0,401571:0:0:0:0:
192,192,401623,128,0,401675:0:0:0:0:
448,192,401623,128,0,401675:0:0:0:0:
64,192,401726,128,0,401778:0:0:0:0:
320,192,401726,128,0,401778:0:0:0:0:
448,192,401726,128,0,401778:0:0:0:0:
192,192,401830,128,0,401882:0:0:0:0:
320,192,401830,128,0,401882:0:0:0:0:
64,192,401933,128,0,401985:0:0:0:0:
192,192,401933,128,0,401985:0:0:0:0:
448,192,401933,128,0,401985:0:0:0:0:
64,192,402037,128,0,402088:0:0:0:0:
192,192,402037,128,0,402088:0:0:0:0:
320,192,402140,1,0,0:0:0:0:
448,192,402140,1,0,0:0:0:0:
192,192,402192,1,0,0:0:0:0:
64,192,402192,1,0,0:0:0:0:
320,192,402244,1,0,0:0:0:0:
448,192,402244,1,0,0:0:0:0:
192,192,402295,1,0,0:0:0:0:
64,192,402295,1,0,0:0:0:0:
320,192,402347,128,0,402606:0:0:0:0:
448,192,402347,128,0,402606:0:0:0:0:
64,192,402347,128,0,402606:0:0:0:0:
64,192,402657,128,0,402813:0:0:0:0:
320,192,402657,128,0,402813:0:0:0:0:
448,192,402657,128,0,402813:0:0:0:0:
64,192,402864,1,0,0:0:0:0:
320,192,402864,1,0,0:0:0:0:
448,192,402864,1,0,0:0:0:0:
320,192,402968,1,0,0:0:0:0:
192,192,402968,1,0,0:0:0:0:
192,192,403071,1,0,0:0:0:0:
64,192,403071,1,0,0:0:0:0:
448,192,403071,1,0,0:0:0:0:
64,192,403175,128,0,403226:0:0:0:0:
192,192,403175,128,0,403226:0:0:0:0:
320,192,403175,128,0,403226:0:0:0:0:
448,192,403175,128,0,403226:0:0:0:0:
64,192,403278,128,0,403330:0:0:0:0:
192,192,403278,128,0,403330:0:0:0:0:
320,192,403278,128,0,403330:0:0:0:0:
448,192,403278,128,0,403330:0:0:0:0:
64,192,403382,128,0,403433:0:0:0:0:
192,192,403382,128,0,403433:0:0:0:0:
320,192,403382,128,0,403433:0:0:0:0:
448,192,403382,128,0,403433:0:0:0:0:
320,192,403485,128,0,403537:0:0:0:0:
64,192,403588,128,0,403640:0:0:0:0:
192,192,403588,128,0,403640:0:0:0:0:
320,192,403588,128,0,403640:0:0:0:0:
448,192,403588,128,0,403640:0:0:0:0:
192,192,403692,128,0,403744:0:0:0:0:
64,192,403795,1,0,0:0:0:0:
320,192,403795,1,0,0:0:0:0:
448,192,403795,1,0,0:0:0:0:
320,192,403899,1,0,0:0:0:0:
448,192,403899,1,0,0:0:0:0:
192,192,403951,1,0,0:0:0:0:
64,192,403951,1,0,0:0:0:0:
320,192,404002,1,0,0:0:0:0:
448,192,404002,128,0,404261:0:0:0:0:
64,192,404054,1,0,0:0:0:0:
192,192,404106,1,0,0:0:0:0:
64,192,404157,1,0,0:0:0:0:
192,192,404209,1,0,0:0:0:0:
64,192,404261,1,0,0:0:0:0:
320,192,404313,1,0,0:0:0:0:
448,192,404313,128,0,404571:0:0:0:0:
192,192,404364,1,0,0:0:0:0:
320,192,404416,1,0,0:0:0:0:
192,192,404468,1,0,0:0:0:0:
320,192,404520,1,0,0:0:0:0:
192,192,404571,1,0,0:0:0:0:
64,192,404623,128,0,404675:0:0:0:0:
320,192,404623,128,0,404675:0:0:0:0:
448,192,404623,128,0,404675:0:0:0:0:
192,192,404726,128,0,404778:0:0:0:0:
320,192,404726,128,0,404778:0:0:0:0:
192,192,404830,1,0,0:0:0:0:
64,192,404830,128,0,404985:0:0:0:0:
448,192,404882,1,0,0:0:0:0:
320,192,404933,1,0,0:0:0:0:
448,192,404985,1,0,0:0:0:0:
64,192,405037,128,0,405088:0:0:0:0:
320,192,405037,1,0,0:0:0:0:
448,192,405088,1,0,0:0:0:0:
64,192,405140,128,0,405295:0:0:0:0:
192,192,405140,1,0,0:0:0:0:
320,192,405192,1,0,0:0:0:0:
192,192,405244,1,0,0:0:0:0:
320,192,405295,1,0,0:0:0:0:
64,192,405347,128,0,405399:0:0:0:0:
192,192,405347,1,0,0:0:0:0:
320,192,405399,1,0,0:0:0:0:
64,192,405451,128,0,405502:0:0:0:0:
192,192,405451,128,0,405502:0:0:0:0:
448,192,405451,128,0,405502:0:0:0:0:
192,192,405554,128,0,405606:0:0:0:0:
320,192,405554,128,0,405606:0:0:0:0:
64,192,405657,128,0,405813:0:0:0:0:
320,192,405657,128,0,405813:0:0:0:0:
448,192,405657,128,0,405813:0:0:0:0:
64,192,405864,128,0,405916:0:0:0:0:
192,192,405864,128,0,405916:0:0:0:0:
320,192,405864,128,0,405916:0:0:0:0:
64,192,405968,128,0,406123:0:0:0:0:
320,192,405968,128,0,406123:0:0:0:0:
448,192,405968,128,0,406123:0:0:0:0:
64,192,406175,128,0,406226:0:0:0:0:
192,192,406175,128,0,406226:0:0:0:0:
320,192,406175,128,0,406226:0:0:0:0:
64,192,406278,128,0,406433:0:0:0:0:
320,192,406278,128,0,406433:0:0:0:0:
448,192,406278,128,0,406433:0:0:0:0:
192,192,406485,128,0,406588:0:0:0:0:
320,192,406485,128,0,406588:0:0:0:0:
448,192,406485,128,0,406588:0:0:0:0:
64,192,406640,128,0,406744:0:0:0:0:
192,192,406640,128,0,406744:0:0:0:0:
448,192,406640,128,0,406744:0:0:0:0:
64,192,406795,1,0,0:0:0:0:
192,192,406795,1,0,0:0:0:0:
448,192,406795,1,0,0:0:0:0:
64,192,406899,128,0,407054:0:0:0:0:
192,192,406899,128,0,407054:0:0:0:0:
320,192,406899,128,0,407054:0:0:0:0:
64,192,407106,1,0,0:0:0:0:
192,192,407106,1,0,0:0:0:0:
320,192,407106,1,0,0:0:0:0:
64,192,407209,1,0,0:0:0:0:
448,192,407209,1,0,0:0:0:0:
192,192,407313,1,0,0:0:0:0:
320,192,407313,1,0,0:0:0:0:
448,192,407313,1,0,0:0:0:0:
64,192,407416,1,0,0:0:0:0:
64,192,407520,1,0,0:0:0:0:
320,192,407520,1,0,0:0:0:0:
448,192,407520,1,0,0:0:0:0:
64,192,407623,1,0,0:0:0:0:
64,192,407726,1,0,0:0:0:0:
192,192,407778,1,0,0:0:0:0:
320,192,407778,1,0,0:0:0:0:
448,192,407778,1,0,0:0:0:0:
64,192,407830,1,0,0:0:0:0:
192,192,407933,1,0,0:0:0:0:
320,192,407933,1,0,0:0:0:0:
448,192,407933,1,0,0:0:0:0:
64,192,408037,1,0,0:0:0:0:
448,192,408037,1,0,0:0:0:0:
64,192,408140,1,0,0:0:0:0:
320,192,408140,1,0,0:0:0:0:
64,192,408244,1,0,0:0:0:0:
192,192,408244,1,0,0:0:0:0:
320,192,408347,1,0,0:0:0:0:
448,192,408347,1,0,0:0:0:0:
448,192,408451,1,0,0:0:0:0:
192,192,408451,1,0,0:0:0:0:
64,192,408554,128,0,408657:0:0:0:0:
448,192,408554,128,0,408657:0:0:0:0:
64,192,408709,128,0,408813:0:0:0:0:
448,192,408709,128,0,408813:0:0:0:0:
64,192,408864,128,0,408916:0:0:0:0:
448,192,408864,128,0,408916:0:0:0:0:
64,192,408968,1,0,0:0:0:0:
192,192,408968,1,0,0:0:0:0:
448,192,408968,1,0,0:0:0:0:
448,192,409071,1,0,0:0:0:0:
320,192,409071,1,0,0:0:0:0:
192,192,409071,1,0,0:0:0:0:
64,192,409175,1,0,0:0:0:0:
320,192,409175,1,0,0:0:0:0:
448,192,409175,1,0,0:0:0:0:
320,192,409278,1,0,0:0:0:0:
192,192,409278,1,0,0:0:0:0:
64,192,409278,1,0,0:0:0:0:
320,192,409382,1,0,0:0:0:0:
448,192,409382,1,0,0:0:0:0:
192,192,409433,1,0,0:0:0:0:
64,192,409433,1,0,0:0:0:0:
320,192,409485,1,0,0:0:0:0:
448,192,409485,1,0,0:0:0:0:
64,192,409537,1,0,0:0:0:0:
192,192,409537,1,0,0:0:0:0:
320,192,409588,1,0,0:0:0:0:
448,192,409588,1,0,0:0:0:0:
64,192,409640,1,0,0:0:0:0:
192,192,409640,1,0,0:0:0:0:
320,192,409692,1,0,0:0:0:0:
448,192,409692,1,0,0:0:0:0:
192,192,409744,1,0,0:0:0:0:
64,192,409744,1,0,0:0:0:0:
448,192,409795,1,0,0:0:0:0:
320,192,409795,1,0,0:0:0:0:
64,192,409795,128,0,410002:0:0:0:0:
448,192,410002,1,0,0:0:0:0:
320,192,410209,1,0,0:0:0:0:
192,192,410416,1,0,0:0:0:0:
448,192,410623,1,0,0:0:0:0:
320,192,410623,1,0,0:0:0:0:
64,192,410623,1,0,0:0:0:0:
