osu file format v14

[General]
AudioFilename: audio.ogg
AudioLeadIn: 0
PreviewTime: 255478
Countdown: 0
SampleSet: None
StackLeniency: 0.7
Mode: 3
LetterboxInBreaks: 0
SpecialStyle: 0
WidescreenStoryboard: 1

[Editor]
DistanceSpacing: 1.5
BeatDivisor: 8
GridSize: 32
TimelineZoom: 3.799998

[Metadata]
Title:<> ~Truth in Uncertainty~ LN Training
TitleUnicode:《/nttld.:beings》 ~Truth in Uncertainty~ LN Training
Artist:GTS Sound Team
ArtistUnicode:GTS Sound Team
Creator:ytGrapeFrootZ34
Version:23
Source:Expert Global Taiko Showdown 2022
Tags:LN, ena, ezmmr, upan, castella, suddendeath, onta, Hylotl, SoraIro-' , Marathon, Cicada, Longnote, stream, jack, speed, tech, burst
BeatmapID:4556976
BeatmapSetID:2160950

[Difficulty]
HPDrainRate:6
CircleSize:4
OverallDifficulty:6.6
ApproachRate:5
SliderMultiplier:1.4
SliderTickRate:1

[Events]
//Background and Video events
0,0,"bgggg.jpg",0,0
//Break Periods
//Storyboard Layer 0 (Background)
//Storyboard Layer 1 (Fail)
//Storyboard Layer 2 (Pass)
//Storyboard Layer 3 (Foreground)
//Storyboard Layer 4 (Overlay)
//Storyboard Sound Samples

[TimingPoints]
1073,272.727272727273,5,1,0,50,1,8
1073,-84.7457627118644,5,1,0,50,0,8
2164,272.727272727273,4,1,0,50,1,0
2164,-84.7457627118644,4,1,0,50,0,0
63232,272.727272727273,4,1,0,50,1,0
63232,-84.7457627118644,4,1,0,50,0,0
78505,272.727272727273,4,1,0,50,1,0
78505,-84.7457627118644,4,1,0,50,0,0
98141,272.727272727273,4,1,0,50,1,0
98141,-84.7457627118644,4,1,0,50,0,0
124322,266.666666666667,4,1,0,50,1,0
124322,-86.2068965517241,4,1,0,50,0,0
125388,250,4,1,0,50,1,0
125388,-92.5925925925926,4,1,0,50,0,0
126388,235.294117647059,4,1,0,50,1,0
126388,-98.0392156862745,4,1,0,50,0,0
127329,222.222222222222,4,1,0,50,1,0
127329,-104.166666666667,4,1,0,50,0,0
128217,210.526315789474,4,1,0,50,1,0
128217,-109.89010989011,4,1,0,50,0,0
129059,200,4,1,0,50,1,0
129059,-114.942528735632,4,1,0,50,0,0
130659,230.769230769231,5,1,0,50,1,0
130659,-100,5,1,0,50,0,0
131725,526.315789473684,727,1,0,50,1,0
131725,-43.859649122807,727,1,0,50,0,0
140124,523.331879633668,8,1,0,50,1,0
140124,-44.0528634361233,8,1,0,50,0,0
148497,523.331879633668,8,1,0,50,1,8
148497,-44.0528634361233,8,1,0,50,0,8
149282,545.454545454546,4,1,0,50,1,0
149282,-42.3728813559322,4,1,0,50,0,0
156907,272.727272727273,4,1,0,50,1,0
156907,-84.7457627118644,4,1,0,50,0,0
157997,300,4,1,0,50,1,0
157997,-76.9230769230769,4,1,0,50,0,0
179597,300,4,1,0,50,1,0
179597,-76.9230769230769,4,1,0,50,0,0
196397,300,4,1,0,50,1,0
196397,-76.9230769230769,4,1,0,50,0,0
220397,400,4,1,0,50,1,8
220397,-57.8034682080925,4,1,0,50,0,8
220418,400,3,1,0,50,1,0
220418,-57.8034682080925,3,1,0,50,0,0
227318,400,6,1,0,50,1,0
227318,-57.8034682080925,6,1,0,50,0,0
229418,400,3,1,0,50,1,0
229418,-57.8034682080925,3,1,0,50,0,0
234218,400,6,1,0,50,1,0
234218,-57.8034682080925,6,1,0,50,0,0
236318,400,3,1,0,50,1,0
236318,-57.8034682080925,3,1,0,50,0,0
237218,400,3,1,0,50,1,8
237218,-57.8034682080925,3,1,0,50,0,8
238418,333.333333333334,4,1,0,50,1,0
238418,-69.4444444444444,4,1,0,50,0,0
238751,300,4,1,0,50,1,8
238751,-76.9230769230769,4,1,0,50,0,8
239051,272.727272727273,4,1,0,50,1,8
239051,-84.7457627118644,4,1,0,50,0,8
239596,260.869565217391,4,1,0,50,1,0
239596,-88.495575221239,4,1,0,50,0,0
239856,272.727272727273,4,1,0,50,1,8
239856,-84.7457627118644,4,1,0,50,0,8
240128,260.869565217391,4,1,0,50,1,8
240128,-88.495575221239,4,1,0,50,0,8
240649,260.869565217391,4,1,0,50,1,0
240649,-88.495575221239,4,1,0,50,0,0
240910,250,4,1,0,50,1,8
240910,-92.5925925925926,4,1,0,50,0,8
241160,244.897959183673,4,1,0,50,1,8
241160,-94.3396226415094,4,1,0,50,0,8
241404,240,4,1,0,50,1,8
241404,-96.1538461538461,4,1,0,50,0,8
241644,235.294117647059,4,1,0,50,1,0
241644,-98.0392156862745,4,1,0,50,0,0
242555,230.769230769231,4,1,0,50,1,0
242555,-100,4,1,0,50,0,0
255478,230.769230769231,5,1,0,50,1,0
255478,-100,5,1,0,50,0,0
256631,230.769230769231,4,1,0,50,1,0
256631,-100,4,1,0,50,0,0
281554,230.769230769231,5,1,0,50,1,0
281554,-100,5,1,0,50,0,0
282707,230.769230769231,4,1,0,50,1,0
282707,-100,4,1,0,50,0,0
283630,230.769230769231,5,1,0,50,1,0
283630,-100,5,1,0,50,0,0
284783,230.769230769231,4,1,0,50,1,0
284783,-100,4,1,0,50,0,0
288475,230.769230769231,6,1,0,50,1,0
288475,-100,6,1,0,50,0,0
291244,230.769230769231,6,1,0,50,1,0
291244,-100,6,1,0,50,0,0
324474,230.769230769231,8,1,0,50,1,0
324474,-100,8,1,0,50,0,0
326320,230.769230769231,4,1,0,50,1,0
326320,-100,4,1,0,50,0,0
370627,224.299065420561,4,1,0,50,1,0
370627,-103.092783505155,4,1,0,50,0,0
372421,218.181818181818,4,1,0,50,1,0
372421,-105.263157894737,4,1,0,50,0,0
374166,212.389380530973,4,1,0,50,1,0
374166,-108.695652173913,4,1,0,50,0,0
375865,206.896551724138,4,1,0,50,1,0
375865,-111.111111111111,4,1,0,50,0,0
377520,206.896551724138,4,1,0,50,1,0
377520,-111.111111111111,4,1,0,50,0,0
410623,413.793103448276,4,1,0,50,1,0
410623,-55.8659217877095,4,1,0,50,0,0

[Colours]
Combo1 : 255,121,124
Combo2 : 255,255,255
Combo3 : 170,170,170

[HitObjects]
448,192,348473,128,0,348531:0:0:0:0:
64,192,348473,128,0,348531:0:0:0:0:
320,192,348531,128,0,348646:0:0:0:0:
192,192,348531,128,0,348646:0:0:0:0:
64,192,348589,128,0,348646:0:0:0:0:
448,192,348589,128,0,348646:0:0:0:0:
320,192,348704,1,0,0:0:0:0:
192,192,348704,128,0,348896:0:0:0:0:
448,192,348704,128,0,348820:0:0:0:0:
64,192,348704,1,0,0:0:0:0:
320,192,348820,128,0,348896:0:0:0:0:
64,192,348820,128,0,348896:0:0:0:0:
448,192,348935,1,0,0:0:0:0:
64,192,348935,128,0,349127:0:0:0:0:
320,192,348935,128,0,349050:0:0:0:0:
192,192,348935,1,0,0:0:0:0:
448,192,349050,128,0,349127:0:0:0:0:
192,192,349050,128,0,349127:0:0:0:0:
64,192,349166,1,0,0:0:0:0:
448,192,349166,128,0,349358:0:0:0:0:
192,192,349166,128,0,349281:0:0:0:0:
320,192,349166,1,0,0:0:0:0:
64,192,349281,128,0,349358:0:0:0:0:
320,192,349281,128,0,349358:0:0:0:0:
192,192,349396,128,0,349589:0:0:0:0:
320,192,349396,128,0,349512:0:0:0:0:
64,192,349396,1,0,0:0:0:0:
448,192,349396,1,0,0:0:0:0:
448,192,349512,128,0,349589:0:0:0:0:
64,192,349512,128,0,349589:0:0:0:0:
320,192,349627,1,0,0:0:0:0:
448,192,349627,128,0,349820:0:0:0:0:
64,192,349627,128,0,349743:0:0:0:0:
192,192,349627,1,0,0:0:0:0:
320,192,349743,128,0,349858:0:0:0:0:
192,192,349743,128,0,349820:0:0:0:0:
448,192,349858,128,0,350031:0:0:0:0:
64,192,349858,128,0,349973:0:0:0:0:
192,192,349858,1,0,0:0:0:0:
320,192,349916,128,0,350031:0:0:0:0:
192,192,349973,128,0,350031:0:0:0:0:
64,192,350031,128,0,350089:0:0:0:0:
448,192,350089,1,0,0:0:0:0:
192,192,350089,128,0,350204:0:0:0:0:
320,192,350089,128,0,350146:0:0:0:0:
64,192,350146,128,0,350262:0:0:0:0:
448,192,350204,1,0,0:0:0:0:
320,192,350204,128,0,350262:0:0:0:0:
192,192,350262,128,0,350377:0:0:0:0:
320,192,350320,128,0,350377:0:0:0:0:
448,192,350320,128,0,350377:0:0:0:0:
64,192,350320,1,0,0:0:0:0:
448,192,350435,128,0,350493:0:0:0:0:
320,192,350435,128,0,350493:0:0:0:0:
192,192,350435,1,0,0:0:0:0:
64,192,350435,1,0,0:0:0:0:
320,192,350550,128,0,350743:0:0:0:0:
448,192,350550,128,0,350743:0:0:0:0:
192,192,350550,128,0,350608:0:0:0:0:
64,192,350550,128,0,350608:0:0:0:0:
64,192,350666,128,0,350743:0:0:0:0:
192,192,350666,128,0,350743:0:0:0:0:
192,192,350781,128,0,350973:0:0:0:0:
448,192,350781,128,0,350973:0:0:0:0:
320,192,350781,128,0,350858:0:0:0:0:
64,192,350781,128,0,350839:0:0:0:0:
64,192,350896,128,0,350973:0:0:0:0:
320,192,350916,128,0,350973:0:0:0:0:
64,192,351012,128,0,351204:0:0:0:0:
320,192,351012,128,0,351204:0:0:0:0:
448,192,351012,128,0,351070:0:0:0:0:
192,192,351012,128,0,351070:0:0:0:0:
192,192,351127,128,0,351243:0:0:0:0:
448,192,351127,128,0,351204:0:0:0:0:
448,192,351243,128,0,351416:0:0:0:0:
320,192,351243,128,0,351300:0:0:0:0:
64,192,351243,128,0,351416:0:0:0:0:
192,192,351300,128,0,351358:0:0:0:0:
320,192,351358,128,0,351473:0:0:0:0:
192,192,351416,128,0,351473:0:0:0:0:
64,192,351473,128,0,351531:0:0:0:0:
448,192,351473,128,0,351531:0:0:0:0:
192,192,351531,128,0,351589:0:0:0:0:
320,192,351531,128,0,351589:0:0:0:0:
64,192,351589,128,0,351646:0:0:0:0:
448,192,351589,128,0,351646:0:0:0:0:
320,192,351646,128,0,351704:0:0:0:0:
192,192,351646,128,0,351762:0:0:0:0:
448,192,351704,128,0,351877:0:0:0:0:
64,192,351704,128,0,351820:0:0:0:0:
320,192,351762,128,0,351877:0:0:0:0:
192,192,351820,128,0,351877:0:0:0:0:
64,192,351877,128,0,351935:0:0:0:0:
192,192,351935,128,0,352050:0:0:0:0:
320,192,351935,128,0,351993:0:0:0:0:
448,192,351935,128,0,351993:0:0:0:0:
64,192,351993,128,0,352050:0:0:0:0:
320,192,352050,128,0,352108:0:0:0:0:
448,192,352050,128,0,352166:0:0:0:0:
192,192,352108,128,0,352166:0:0:0:0:
64,192,352166,128,0,352243:0:0:0:0:
320,192,352166,128,0,352243:0:0:0:0:
192,192,352204,128,0,352358:0:0:0:0:
448,192,352243,128,0,352320:0:0:0:0:
320,192,352281,128,0,352358:0:0:0:0:
64,192,352320,128,0,352358:0:0:0:0:
448,192,352358,128,0,352396:0:0:0:0:
192,192,352396,128,0,352454:0:0:0:0:
320,192,352396,128,0,352512:0:0:0:0:
64,192,352396,1,0,0:0:0:0:
448,192,352454,128,0,352570:0:0:0:0:
192,192,352512,128,0,352570:0:0:0:0:
64,192,352512,1,0,0:0:0:0:
320,192,352570,128,0,352627:0:0:0:0:
448,192,352627,128,0,352800:0:0:0:0:
64,192,352627,128,0,352743:0:0:0:0:
192,192,352627,1,0,0:0:0:0:
320,192,352685,128,0,352800:0:0:0:0:
192,192,352743,128,0,352800:0:0:0:0:
64,192,352800,128,0,352858:0:0:0:0:
192,192,352858,128,0,353031:0:0:0:0:
448,192,352858,128,0,352973:0:0:0:0:
320,192,352858,1,0,0:0:0:0:
64,192,352916,128,0,353031:0:0:0:0:
320,192,352973,128,0,353089:0:0:0:0:
448,192,353031,128,0,353089:0:0:0:0:
192,192,353089,128,0,353166:0:0:0:0:
64,192,353089,128,0,353243:0:0:0:0:
320,192,353127,128,0,353204:0:0:0:0:
448,192,353166,128,0,353243:0:0:0:0:
192,192,353204,128,0,353281:0:0:0:0:
320,192,353243,128,0,353320:0:0:0:0:
64,192,353281,128,0,353320:0:0:0:0:
448,192,353320,128,0,353377:0:0:0:0:
192,192,353320,128,0,353435:0:0:0:0:
64,192,353377,128,0,353493:0:0:0:0:
320,192,353435,128,0,353493:0:0:0:0:
448,192,353435,128,0,353493:0:0:0:0:
192,192,353493,128,0,353627:0:0:0:0:
448,192,353550,1,0,0:0:0:0:
64,192,353550,128,0,353627:0:0:0:0:
320,192,353550,1,0,0:0:0:0:
320,192,353627,128,0,353704:0:0:0:0:
448,192,353627,128,0,353704:0:0:0:0:
64,192,353704,1,0,0:0:0:0:
192,192,353704,128,0,353781:0:0:0:0:
64,192,353781,128,0,353954:0:0:0:0:
320,192,353781,128,0,353954:0:0:0:0:
448,192,353781,128,0,353896:0:0:0:0:
192,192,353896,128,0,353954:0:0:0:0:
64,192,354012,128,0,354108:0:0:0:0:
448,192,354012,128,0,354050:0:0:0:0:
320,192,354012,128,0,354089:0:0:0:0:
192,192,354050,128,0,354127:0:0:0:0:
448,192,354089,128,0,354166:0:0:0:0:
320,192,354127,128,0,354204:0:0:0:0:
64,192,354166,128,0,354204:0:0:0:0:
192,192,354185,128,0,354243:0:0:0:0:
64,192,354243,128,0,354473:0:0:0:0:
320,192,354243,128,0,354300:0:0:0:0:
448,192,354243,128,0,354300:0:0:0:0:
448,192,354358,128,0,354473:0:0:0:0:
192,192,354358,128,0,354416:0:0:0:0:
320,192,354358,128,0,354416:0:0:0:0:
320,192,354473,128,0,354550:0:0:0:0:
192,192,354473,128,0,354608:0:0:0:0:
64,192,354512,128,0,354589:0:0:0:0:
448,192,354550,128,0,354646:0:0:0:0:
320,192,354589,128,0,354646:0:0:0:0:
64,192,354627,128,0,354666:0:0:0:0:
192,192,354646,128,0,354704:0:0:0:0:
64,192,354704,1,0,0:0:0:0:
320,192,354704,128,0,354820:0:0:0:0:
448,192,354704,128,0,354762:0:0:0:0:
64,192,354820,1,0,0:0:0:0:
192,192,354820,128,0,354877:0:0:0:0:
448,192,354820,128,0,354877:0:0:0:0:
64,192,354935,128,0,355108:0:0:0:0:
448,192,354935,128,0,355800:0:0:0:0:
320,192,354935,128,0,354973:0:0:0:0:
192,192,354973,128,0,355339:0:0:0:0:
320,192,355012,128,0,355570:0:0:0:0:
64,192,355166,128,0,355223:0:0:0:0:
64,192,355281,128,0,355339:0:0:0:0:
192,192,355396,128,0,355454:0:0:0:0:
192,192,355512,128,0,355570:0:0:0:0:
320,192,355627,128,0,355685:0:0:0:0:
320,192,355743,128,0,355800:0:0:0:0:
448,192,355858,128,0,355916:0:0:0:0:
192,192,355858,128,0,355896:0:0:0:0:
64,192,355858,128,0,355896:0:0:0:0:
448,192,355973,128,0,356031:0:0:0:0:
192,192,355973,128,0,356012:0:0:0:0:
64,192,355973,128,0,356012:0:0:0:0:
448,192,356089,128,0,356281:0:0:0:0:
64,192,356089,128,0,356281:0:0:0:0:
320,192,356089,128,0,356146:0:0:0:0:
192,192,356089,1,0,0:0:0:0:
320,192,356204,128,0,356281:0:0:0:0:
192,192,356204,128,0,356281:0:0:0:0:
192,192,356320,128,0,356512:0:0:0:0:
64,192,356320,128,0,356377:0:0:0:0:
448,192,356320,128,0,356512:0:0:0:0:
320,192,356320,1,0,0:0:0:0:
320,192,356435,128,0,356512:0:0:0:0:
64,192,356435,128,0,356512:0:0:0:0:
64,192,356550,128,0,356743:0:0:0:0:
448,192,356550,128,0,356743:0:0:0:0:
320,192,356550,128,0,356608:0:0:0:0:
192,192,356550,1,0,0:0:0:0:
192,192,356666,128,0,356743:0:0:0:0:
320,192,356666,128,0,356743:0:0:0:0:
448,192,356781,1,0,0:0:0:0:
64,192,356781,128,0,356839:0:0:0:0:
320,192,356781,128,0,356954:0:0:0:0:
192,192,356781,128,0,356839:0:0:0:0:
192,192,356896,128,0,356954:0:0:0:0:
448,192,356896,128,0,356954:0:0:0:0:
64,192,356896,1,0,0:0:0:0:
64,192,356954,128,0,357012:0:0:0:0:
320,192,357012,128,0,357070:0:0:0:0:
192,192,357012,1,0,0:0:0:0:
448,192,357012,128,0,357070:0:0:0:0:
64,192,357070,128,0,357185:0:0:0:0:
320,192,357127,1,0,0:0:0:0:
448,192,357127,128,0,357185:0:0:0:0:
192,192,357127,128,0,357185:0:0:0:0:
320,192,357243,128,0,357358:0:0:0:0:
64,192,357243,128,0,357435:0:0:0:0:
448,192,357243,128,0,357358:0:0:0:0:
192,192,357243,128,0,357300:0:0:0:0:
192,192,357358,128,0,357435:0:0:0:0:
448,192,357473,1,0,0:0:0:0:
320,192,357473,128,0,357666:0:0:0:0:
192,192,357473,1,0,0:0:0:0:
64,192,357473,128,0,357531:0:0:0:0:
192,192,357589,1,0,0:0:0:0:
64,192,357589,128,0,357666:0:0:0:0:
448,192,357589,128,0,357666:0:0:0:0:
320,192,357704,1,0,0:0:0:0:
192,192,357704,128,0,357896:0:0:0:0:
448,192,357704,128,0,357896:0:0:0:0:
64,192,357704,128,0,357896:0:0:0:0:
320,192,357820,1,0,0:0:0:0:
192,192,357935,1,0,0:0:0:0:
320,192,357935,128,0,358127:0:0:0:0:
448,192,357935,128,0,358127:0:0:0:0:
64,192,357935,128,0,358127:0:0:0:0:
192,192,358050,1,0,0:0:0:0:
448,192,358166,128,0,358358:0:0:0:0:
320,192,358166,128,0,358358:0:0:0:0:
192,192,358166,128,0,358358:0:0:0:0:
64,192,358166,1,0,0:0:0:0:
64,192,358281,1,0,0:0:0:0:
64,192,358396,128,0,358589:0:0:0:0:
448,192,358396,1,0,0:0:0:0:
320,192,358396,128,0,358589:0:0:0:0:
192,192,358396,128,0,358589:0:0:0:0:
448,192,358512,1,0,0:0:0:0:
64,192,358627,128,0,358800:0:0:0:0:
192,192,358627,128,0,358743:0:0:0:0:
448,192,358627,128,0,358685:0:0:0:0:
320,192,358685,128,0,358800:0:0:0:0:
448,192,358743,128,0,358800:0:0:0:0:
192,192,358800,128,0,358858:0:0:0:0:
448,192,358858,128,0,359031:0:0:0:0:
320,192,358858,128,0,358916:0:0:0:0:
64,192,358858,128,0,358973:0:0:0:0:
192,192,358916,128,0,359031:0:0:0:0:
320,192,358973,128,0,359031:0:0:0:0:
64,192,359031,128,0,359146:0:0:0:0:
192,192,359089,128,0,359146:0:0:0:0:
320,192,359089,128,0,359146:0:0:0:0:
448,192,359089,128,0,359146:0:0:0:0:
448,192,359204,128,0,359262:0:0:0:0:
192,192,359204,128,0,359262:0:0:0:0:
64,192,359204,128,0,359262:0:0:0:0:
320,192,359262,128,0,359320:0:0:0:0:
448,192,359320,128,0,359377:0:0:0:0:
192,192,359320,128,0,359377:0:0:0:0:
64,192,359320,128,0,359377:0:0:0:0:
448,192,359435,128,0,359550:0:0:0:0:
320,192,359435,128,0,359493:0:0:0:0:
192,192,359435,1,0,0:0:0:0:
64,192,359435,128,0,359493:0:0:0:0:
64,192,359550,128,0,359666:0:0:0:0:
320,192,359550,128,0,359608:0:0:0:0:
192,192,359550,1,0,0:0:0:0:
192,192,359666,128,0,359723:0:0:0:0:
448,192,359666,128,0,359723:0:0:0:0:
320,192,359723,128,0,359781:0:0:0:0:
64,192,359781,1,0,0:0:0:0:
448,192,359781,128,0,359973:0:0:0:0:
192,192,359781,128,0,359896:0:0:0:0:
320,192,359896,128,0,359973:0:0:0:0:
64,192,359896,128,0,359973:0:0:0:0:
448,192,360012,1,0,0:0:0:0:
320,192,360012,128,0,360204:0:0:0:0:
192,192,360012,128,0,360204:0:0:0:0:
64,192,360012,128,0,360070:0:0:0:0:
448,192,360127,128,0,360204:0:0:0:0:
64,192,360127,128,0,360204:0:0:0:0:
64,192,360243,128,0,360435:0:0:0:0:
320,192,360243,128,0,360300:0:0:0:0:
192,192,360243,1,0,0:0:0:0:
448,192,360243,128,0,360435:0:0:0:0:
320,192,360358,128,0,360473:0:0:0:0:
192,192,360358,128,0,360435:0:0:0:0:
192,192,360473,128,0,360646:0:0:0:0:
448,192,360473,128,0,360646:0:0:0:0:
64,192,360473,1,0,0:0:0:0:
320,192,360531,128,0,360589:0:0:0:0:
64,192,360589,128,0,360646:0:0:0:0:
320,192,360646,128,0,360704:0:0:0:0:
448,192,360704,128,0,360877:0:0:0:0:
64,192,360704,128,0,360762:0:0:0:0:
192,192,360704,1,0,0:0:0:0:
320,192,360762,128,0,360820:0:0:0:0:
64,192,360820,128,0,360935:0:0:0:0:
192,192,360820,1,0,0:0:0:0:
320,192,360877,128,0,361108:0:0:0:0:
192,192,360935,128,0,361108:0:0:0:0:
448,192,360935,1,0,0:0:0:0:
64,192,360993,128,0,361050:0:0:0:0:
448,192,361050,128,0,361108:0:0:0:0:
64,192,361108,128,0,361166:0:0:0:0:
192,192,361166,128,0,361281:0:0:0:0:
320,192,361166,128,0,361223:0:0:0:0:
448,192,361166,128,0,361281:0:0:0:0:
64,192,361223,128,0,361320:0:0:0:0:
320,192,361281,128,0,361339:0:0:0:0:
192,192,361320,128,0,361396:0:0:0:0:
448,192,361339,128,0,361396:0:0:0:0:
320,192,361396,128,0,361570:0:0:0:0:
64,192,361396,128,0,361512:0:0:0:0:
448,192,361512,1,0,0:0:0:0:
192,192,361512,128,0,361570:0:0:0:0:
320,192,361627,1,0,0:0:0:0:
64,192,361627,128,0,361800:0:0:0:0:
448,192,361627,128,0,361685:0:0:0:0:
192,192,361627,128,0,361685:0:0:0:0:
192,192,361743,1,0,0:0:0:0:
320,192,361743,128,0,361800:0:0:0:0:
448,192,361743,128,0,361800:0:0:0:0:
192,192,361858,128,0,362050:0:0:0:0:
320,192,361858,128,0,361973:0:0:0:0:
448,192,361858,1,0,0:0:0:0:
64,192,361858,128,0,361916:0:0:0:0:
448,192,361973,128,0,362050:0:0:0:0:
64,192,361973,128,0,362050:0:0:0:0:
448,192,362089,1,0,0:0:0:0:
320,192,362089,128,0,362281:0:0:0:0:
192,192,362089,128,0,362146:0:0:0:0:
64,192,362089,128,0,362281:0:0:0:0:
448,192,362204,128,0,362281:0:0:0:0:
192,192,362204,128,0,362281:0:0:0:0:
192,192,362320,128,0,362550:0:0:0:0:
64,192,362320,128,0,362435:0:0:0:0:
448,192,362320,128,0,362377:0:0:0:0:
320,192,362377,128,0,362435:0:0:0:0:
448,192,362435,128,0,362493:0:0:0:0:
320,192,362493,128,0,362550:0:0:0:0:
448,192,362550,128,0,362666:0:0:0:0:
64,192,362550,128,0,362781:0:0:0:0:
192,192,362608,128,0,362666:0:0:0:0:
320,192,362666,128,0,362723:0:0:0:0:
192,192,362723,128,0,362781:0:0:0:0:
320,192,362781,128,0,362954:0:0:0:0:
448,192,362781,128,0,362839:0:0:0:0:
64,192,362839,128,0,362954:0:0:0:0:
448,192,362896,128,0,363070:0:0:0:0:
192,192,362896,128,0,362954:0:0:0:0:
192,192,363012,128,0,363185:0:0:0:0:
320,192,363012,128,0,363070:0:0:0:0:
64,192,363127,128,0,363185:0:0:0:0:
320,192,363127,128,0,363185:0:0:0:0:
64,192,363243,128,0,363300:0:0:0:0:
192,192,363243,128,0,363300:0:0:0:0:
320,192,363300,128,0,363416:0:0:0:0:
448,192,363300,128,0,363416:0:0:0:0:
64,192,363358,128,0,363416:0:0:0:0:
192,192,363358,128,0,363416:0:0:0:0:
192,192,363473,128,0,363589:0:0:0:0:
448,192,363473,128,0,363646:0:0:0:0:
320,192,363473,128,0,363531:0:0:0:0:
64,192,363473,128,0,363531:0:0:0:0:
320,192,363589,128,0,363646:0:0:0:0:
64,192,363589,128,0,363646:0:0:0:0:
448,192,363704,128,0,363877:0:0:0:0:
192,192,363704,128,0,363762:0:0:0:0:
64,192,363704,128,0,363877:0:0:0:0:
320,192,363762,128,0,363820:0:0:0:0:
192,192,363820,128,0,363935:0:0:0:0:
320,192,363877,128,0,363993:0:0:0:0:
448,192,363935,128,0,364050:0:0:0:0:
64,192,363935,128,0,364108:0:0:0:0:
192,192,363993,128,0,364108:0:0:0:0:
320,192,364050,128,0,364166:0:0:0:0:
448,192,364108,128,0,364223:0:0:0:0:
192,192,364166,128,0,364339:0:0:0:0:
64,192,364166,128,0,364223:0:0:0:0:
320,192,364223,128,0,364252:0:0:0:0:
64,192,364281,128,0,364339:0:0:0:0:
448,192,364281,128,0,364339:0:0:0:0:
320,192,364339,128,0,364368:0:0:0:0:
192,192,364396,128,0,364570:0:0:0:0:
64,192,364396,128,0,364454:0:0:0:0:
448,192,364396,128,0,364454:0:0:0:0:
320,192,364454,128,0,364483:0:0:0:0:
64,192,364512,128,0,364570:0:0:0:0:
448,192,364512,128,0,364570:0:0:0:0:
320,192,364570,128,0,364598:0:0:0:0:
64,192,364627,128,0,364800:0:0:0:0:
192,192,364627,128,0,364685:0:0:0:0:
448,192,364627,128,0,364685:0:0:0:0:
320,192,364685,128,0,364743:0:0:0:0:
448,192,364743,128,0,364800:0:0:0:0:
192,192,364743,128,0,364858:0:0:0:0:
320,192,364800,128,0,364916:0:0:0:0:
448,192,364858,128,0,364973:0:0:0:0:
64,192,364858,128,0,364916:0:0:0:0:
192,192,364916,128,0,365031:0:0:0:0:
320,192,364973,128,0,365031:0:0:0:0:
64,192,364973,128,0,365031:0:0:0:0:
448,192,365031,128,0,365089:0:0:0:0:
64,192,365089,128,0,365204:0:0:0:0:
192,192,365089,128,0,365146:0:0:0:0:
320,192,365089,1,0,0:0:0:0:
192,192,365204,128,0,365320:0:0:0:0:
448,192,365204,1,0,0:0:0:0:
320,192,365204,128,0,365262:0:0:0:0:
64,192,365320,128,0,365493:0:0:0:0:
320,192,365320,128,0,365435:0:0:0:0:
448,192,365320,128,0,365377:0:0:0:0:
448,192,365435,1,0,0:0:0:0:
192,192,365435,128,0,365493:0:0:0:0:
64,192,365550,1,0,0:0:0:0:
448,192,365550,128,0,365743:0:0:0:0:
320,192,365550,128,0,365608:0:0:0:0:
192,192,365550,128,0,365743:0:0:0:0:
320,192,365666,128,0,365743:0:0:0:0:
64,192,365666,128,0,365743:0:0:0:0:
192,192,365781,1,0,0:0:0:0:
64,192,365781,128,0,365973:0:0:0:0:
320,192,365781,128,0,365973:0:0:0:0:
448,192,365781,128,0,365839:0:0:0:0:
448,192,365896,128,0,365973:0:0:0:0:
192,192,365896,128,0,366012:0:0:0:0:
320,192,366012,1,0,0:0:0:0:
64,192,366012,128,0,366204:0:0:0:0:
448,192,366012,128,0,366089:0:0:0:0:
192,192,366108,128,0,366204:0:0:0:0:
320,192,366127,128,0,366204:0:0:0:0:
448,192,366146,128,0,366204:0:0:0:0:
192,192,366243,128,0,366358:0:0:0:0:
64,192,366243,128,0,366300:0:0:0:0:
448,192,366243,128,0,366300:0:0:0:0:
320,192,366300,128,0,366416:0:0:0:0:
64,192,366358,1,0,0:0:0:0:
448,192,366358,128,0,366416:0:0:0:0:
192,192,366416,128,0,366531:0:0:0:0:
448,192,366473,1,0,0:0:0:0:
64,192,366473,128,0,366646:0:0:0:0:
320,192,366473,128,0,366646:0:0:0:0:
448,192,366589,128,0,366877:0:0:0:0:
192,192,366589,128,0,366646:0:0:0:0:
320,192,366704,128,0,366762:0:0:0:0:
192,192,366704,128,0,366762:0:0:0:0:
64,192,366704,128,0,366762:0:0:0:0:
320,192,366820,128,0,366877:0:0:0:0:
192,192,366820,128,0,366877:0:0:0:0:
64,192,366820,128,0,366935:0:0:0:0:
320,192,366935,128,0,366973:0:0:0:0:
448,192,366935,128,0,367050:0:0:0:0:
192,192,366973,128,0,367050:0:0:0:0:
320,192,367012,128,0,367127:0:0:0:0:
64,192,367050,128,0,367127:0:0:0:0:
192,192,367089,128,0,367127:0:0:0:0:
448,192,367127,128,0,367166:0:0:0:0:
192,192,367166,128,0,367339:0:0:0:0:
320,192,367166,128,0,367223:0:0:0:0:
64,192,367166,128,0,367223:0:0:0:0:
320,192,367281,128,0,367339:0:0:0:0:
448,192,367281,128,0,367339:0:0:0:0:
64,192,367281,128,0,367339:0:0:0:0:
320,192,367396,128,0,367589:0:0:0:0:
448,192,367396,128,0,367589:0:0:0:0:
192,192,367396,1,0,0:0:0:0:
64,192,367396,128,0,367589:0:0:0:0:
192,192,367512,1,0,0:0:0:0:
192,192,367627,128,0,367858:0:0:0:0:
448,192,367627,1,0,0:0:0:0:
64,192,367627,128,0,367820:0:0:0:0:
320,192,367627,128,0,367858:0:0:0:0:
448,192,367743,1,0,0:0:0:0:
448,192,367858,128,0,367973:0:0:0:0:
64,192,367858,128,0,367935:0:0:0:0:
192,192,367896,128,0,368012:0:0:0:0:
320,192,367935,128,0,368050:0:0:0:0:
64,192,367973,128,0,368050:0:0:0:0:
448,192,368012,128,0,368050:0:0:0:0:
192,192,368050,128,0,368089:0:0:0:0:
448,192,368089,1,0,0:0:0:0:
320,192,368089,128,0,368262:0:0:0:0:
64,192,368089,128,0,368146:0:0:0:0:
64,192,368204,1,0,0:0:0:0:
192,192,368204,128,0,368320:0:0:0:0:
448,192,368204,128,0,368262:0:0:0:0:
320,192,368320,1,0,0:0:0:0:
64,192,368320,128,0,368473:0:0:0:0:
448,192,368320,128,0,368473:0:0:0:0:
320,192,368396,1,0,0:0:0:0:
192,192,368396,1,0,0:0:0:0:
192,192,368473,1,0,0:0:0:0:
320,192,368473,128,0,368550:0:0:0:0:
192,192,368550,128,0,368666:0:0:0:0:
64,192,368550,128,0,368666:0:0:0:0:
448,192,368550,1,0,0:0:0:0:
320,192,368666,128,0,368781:0:0:0:0:
448,192,368666,128,0,368781:0:0:0:0:
192,192,368781,128,0,368896:0:0:0:0:
64,192,368781,128,0,368820:0:0:0:0:
320,192,368820,128,0,368896:0:0:0:0:
64,192,368858,128,0,368973:0:0:0:0:
448,192,368896,128,0,368973:0:0:0:0:
320,192,368935,128,0,368973:0:0:0:0:
192,192,368973,128,0,369012:0:0:0:0:
320,192,369012,128,0,369127:0:0:0:0:
448,192,369012,128,0,369070:0:0:0:0:
64,192,369012,128,0,369070:0:0:0:0:
64,192,369127,128,0,369243:0:0:0:0:
192,192,369127,128,0,369243:0:0:0:0:
448,192,369127,128,0,369185:0:0:0:0:
320,192,369243,128,0,369320:0:0:0:0:
448,192,369243,128,0,369358:0:0:0:0:
192,192,369281,128,0,369358:0:0:0:0:
64,192,369320,128,0,369435:0:0:0:0:
320,192,369358,128,0,369435:0:0:0:0:
192,192,369396,128,0,369435:0:0:0:0:
448,192,369435,128,0,369473:0:0:0:0:
192,192,369473,128,0,369589:0:0:0:0:
320,192,369473,128,0,369531:0:0:0:0:
64,192,369473,128,0,369531:0:0:0:0:
64,192,369589,128,0,369704:0:0:0:0:
320,192,369589,128,0,369685:0:0:0:0:
448,192,369589,128,0,369646:0:0:0:0:
192,192,369704,128,0,369733:0:0:0:0:
448,192,369704,128,0,369762:0:0:0:0:
320,192,369733,128,0,369762:0:0:0:0:
64,192,369762,128,0,369820:0:0:0:0:
192,192,369791,128,0,369848:0:0:0:0:
320,192,369820,128,0,369935:0:0:0:0:
448,192,369820,128,0,369877:0:0:0:0:
