osu file format v14

[General]
AudioFilename: audio.ogg
AudioLeadIn: 0
PreviewTime: 255478
Countdown: 0
SampleSet: None
StackLeniency: 0.7
Mode: 3
LetterboxInBreaks: 0
SpecialStyle: 0
WidescreenStoryboard: 1

[Editor]
DistanceSpacing: 1.5
BeatDivisor: 8
GridSize: 32
TimelineZoom: 3.799998

[Metadata]
Title:<> ~Truth in Uncertainty~ LN Training
TitleUnicode:《/nttld.:beings》 ~Truth in Uncertainty~ LN Training
Artist:GTS Sound Team
ArtistUnicode:GTS Sound Team
Creator:ytGrapeFrootZ34
Version:2
Source:Expert Global Taiko Showdown 2022
Tags:LN, ena, ezmmr, upan, castella, suddendeath, onta, Hylotl, SoraIro-' , Marathon, Cicada, Longnote, stream, jack, speed, tech, burst
BeatmapID:4556971
BeatmapSetID:2160950

[Difficulty]
HPDrainRate:6
CircleSize:4
OverallDifficulty:6.6
ApproachRate:5
SliderMultiplier:1.4
SliderTickRate:1

[Events]
//Background and Video events
0,0,"bgggg.jpg",0,0
//Break Periods
//Storyboard Layer 0 (Background)
//Storyboard Layer 1 (Fail)
//Storyboard Layer 2 (Pass)
//Storyboard Layer 3 (Foreground)
//Storyboard Layer 4 (Overlay)
//Storyboard Sound Samples

[TimingPoints]
1073,272.727272727273,5,1,0,50,1,8
1073,-84.7457627118644,5,1,0,50,0,8
2164,272.727272727273,4,1,0,50,1,0
2164,-84.7457627118644,4,1,0,50,0,0
63232,272.727272727273,4,1,0,50,1,0
63232,-84.7457627118644,4,1,0,50,0,0
78505,272.727272727273,4,1,0,50,1,0
78505,-84.7457627118644,4,1,0,50,0,0
98141,272.727272727273,4,1,0,50,1,0
98141,-84.7457627118644,4,1,0,50,0,0
124322,266.666666666667,4,1,0,50,1,0
124322,-86.2068965517241,4,1,0,50,0,0
125388,250,4,1,0,50,1,0
125388,-92.5925925925926,4,1,0,50,0,0
126388,235.294117647059,4,1,0,50,1,0
126388,-98.0392156862745,4,1,0,50,0,0
127329,222.222222222222,4,1,0,50,1,0
127329,-104.166666666667,4,1,0,50,0,0
128217,210.526315789474,4,1,0,50,1,0
128217,-109.89010989011,4,1,0,50,0,0
129059,200,4,1,0,50,1,0
129059,-114.942528735632,4,1,0,50,0,0
130659,230.769230769231,5,1,0,50,1,0
130659,-100,5,1,0,50,0,0
131725,526.315789473684,727,1,0,50,1,0
131725,-43.859649122807,727,1,0,50,0,0
140124,523.331879633668,8,1,0,50,1,0
140124,-44.0528634361233,8,1,0,50,0,0
148497,523.331879633668,8,1,0,50,1,8
148497,-44.0528634361233,8,1,0,50,0,8
149282,545.454545454546,4,1,0,50,1,0
149282,-42.3728813559322,4,1,0,50,0,0
156907,272.727272727273,4,1,0,50,1,0
156907,-84.7457627118644,4,1,0,50,0,0
157997,300,4,1,0,50,1,0
157997,-76.9230769230769,4,1,0,50,0,0
179597,300,4,1,0,50,1,0
179597,-76.9230769230769,4,1,0,50,0,0
196397,300,4,1,0,50,1,0
196397,-76.9230769230769,4,1,0,50,0,0
220397,400,4,1,0,50,1,8
220397,-57.8034682080925,4,1,0,50,0,8
220418,400,3,1,0,50,1,0
220418,-57.8034682080925,3,1,0,50,0,0
227318,400,6,1,0,50,1,0
227318,-57.8034682080925,6,1,0,50,0,0
229418,400,3,1,0,50,1,0
229418,-57.8034682080925,3,1,0,50,0,0
234218,400,6,1,0,50,1,0
234218,-57.8034682080925,6,1,0,50,0,0
236318,400,3,1,0,50,1,0
236318,-57.8034682080925,3,1,0,50,0,0
237218,400,3,1,0,50,1,8
237218,-57.8034682080925,3,1,0,50,0,8
238418,333.333333333334,4,1,0,50,1,0
238418,-69.4444444444444,4,1,0,50,0,0
238751,300,4,1,0,50,1,8
238751,-76.9230769230769,4,1,0,50,0,8
239051,272.727272727273,4,1,0,50,1,8
239051,-84.7457627118644,4,1,0,50,0,8
239596,260.869565217391,4,1,0,50,1,0
239596,-88.495575221239,4,1,0,50,0,0
239856,272.727272727273,4,1,0,50,1,8
239856,-84.7457627118644,4,1,0,50,0,8
240128,260.869565217391,4,1,0,50,1,8
240128,-88.495575221239,4,1,0,50,0,8
240649,260.869565217391,4,1,0,50,1,0
240649,-88.495575221239,4,1,0,50,0,0
240910,250,4,1,0,50,1,8
240910,-92.5925925925926,4,1,0,50,0,8
241160,244.897959183673,4,1,0,50,1,8
241160,-94.3396226415094,4,1,0,50,0,8
241404,240,4,1,0,50,1,8
241404,-96.1538461538461,4,1,0,50,0,8
241644,235.294117647059,4,1,0,50,1,0
241644,-98.0392156862745,4,1,0,50,0,0
242555,230.769230769231,4,1,0,50,1,0
242555,-100,4,1,0,50,0,0
255478,230.769230769231,5,1,0,50,1,0
255478,-100,5,1,0,50,0,0
256631,230.769230769231,4,1,0,50,1,0
256631,-100,4,1,0,50,0,0
281554,230.769230769231,5,1,0,50,1,0
281554,-100,5,1,0,50,0,0
282707,230.769230769231,4,1,0,50,1,0
282707,-100,4,1,0,50,0,0
283630,230.769230769231,5,1,0,50,1,0
283630,-100,5,1,0,50,0,0
284783,230.769230769231,4,1,0,50,1,0
284783,-100,4,1,0,50,0,0
288475,230.769230769231,6,1,0,50,1,0
288475,-100,6,1,0,50,0,0
291244,230.769230769231,6,1,0,50,1,0
291244,-100,6,1,0,50,0,0
324474,230.769230769231,8,1,0,50,1,0
324474,-100,8,1,0,50,0,0
326320,230.769230769231,4,1,0,50,1,0
326320,-100,4,1,0,50,0,0
370627,224.299065420561,4,1,0,50,1,0
370627,-103.092783505155,4,1,0,50,0,0
372421,218.181818181818,4,1,0,50,1,0
372421,-105.263157894737,4,1,0,50,0,0
374166,212.389380530973,4,1,0,50,1,0
374166,-108.695652173913,4,1,0,50,0,0
375865,206.896551724138,4,1,0,50,1,0
375865,-111.111111111111,4,1,0,50,0,0
377520,206.896551724138,4,1,0,50,1,0
377520,-111.111111111111,4,1,0,50,0,0
410623,413.793103448276,4,1,0,50,1,0
410623,-55.8659217877095,4,1,0,50,0,0

[Colours]
Combo1 : 255,121,124
Combo2 : 255,255,255
Combo3 : 170,170,170

[HitObjects]
64,192,37073,128,0,37550:0:0:0:0:
448,192,37073,128,0,37277:0:0:0:0:
192,192,37073,128,0,37243:0:0:0:0:
320,192,37073,128,0,37260:0:0:0:0:
192,192,37345,128,0,37806:0:0:0:0:
320,192,37345,128,0,37516:0:0:0:0:
448,192,37345,128,0,37533:0:0:0:0:
448,192,37618,128,0,38095:0:0:0:0:
320,192,37618,128,0,37789:0:0:0:0:
64,192,37618,128,0,37823:0:0:0:0:
320,192,37891,128,0,38334:0:0:0:0:
192,192,37891,128,0,38061:0:0:0:0:
64,192,37891,128,0,38078:0:0:0:0:
64,192,38164,128,0,38641:0:0:0:0:
192,192,38164,128,0,38351:0:0:0:0:
448,192,38164,128,0,38368:0:0:0:0:
192,192,38436,128,0,38896:0:0:0:0:
320,192,38436,128,0,38624:0:0:0:0:
448,192,38436,128,0,38607:0:0:0:0:
448,192,38709,128,0,39186:0:0:0:0:
320,192,38709,128,0,38914:0:0:0:0:
64,192,38709,128,0,38879:0:0:0:0:
320,192,38982,128,0,39425:0:0:0:0:
192,192,38982,128,0,39169:0:0:0:0:
64,192,38982,128,0,39186:0:0:0:0:
64,192,39254,128,0,39732:0:0:0:0:
192,192,39254,128,0,39459:0:0:0:0:
448,192,39254,128,0,39442:0:0:0:0:
192,192,39527,128,0,40004:0:0:0:0:
320,192,39527,128,0,39715:0:0:0:0:
448,192,39527,128,0,39698:0:0:0:0:
448,192,39800,128,0,40277:0:0:0:0:
320,192,39800,128,0,39970:0:0:0:0:
64,192,39800,128,0,39987:0:0:0:0:
320,192,40073,128,0,40550:0:0:0:0:
192,192,40073,128,0,40260:0:0:0:0:
64,192,40073,128,0,40226:0:0:0:0:
64,192,40345,128,0,40823:0:0:0:0:
192,192,40345,128,0,40533:0:0:0:0:
448,192,40345,128,0,40516:0:0:0:0:
192,192,40618,128,0,41078:0:0:0:0:
320,192,40618,128,0,40806:0:0:0:0:
448,192,40618,128,0,40789:0:0:0:0:
448,192,40891,128,0,41368:0:0:0:0:
320,192,40891,128,0,41095:0:0:0:0:
64,192,40891,128,0,41061:0:0:0:0:
320,192,41164,128,0,41573:0:0:0:0:
192,192,41164,128,0,41334:0:0:0:0:
64,192,41164,128,0,41351:0:0:0:0:
192,192,41436,128,0,41777:0:0:0:0:
64,192,41436,128,0,41573:0:0:0:0:
448,192,41436,128,0,41573:0:0:0:0:
64,192,41641,128,0,41914:0:0:0:0:
320,192,41641,128,0,41777:0:0:0:0:
448,192,41641,128,0,41777:0:0:0:0:
448,192,41845,128,0,42118:0:0:0:0:
320,192,41845,128,0,41914:0:0:0:0:
192,192,41845,128,0,41914:0:0:0:0:
320,192,41982,128,0,42323:0:0:0:0:
192,192,41982,128,0,42118:0:0:0:0:
64,192,41982,128,0,42118:0:0:0:0:
448,192,42186,128,0,42459:0:0:0:0:
192,192,42186,128,0,42323:0:0:0:0:
64,192,42186,128,0,42664:0:0:0:0:
320,192,42391,128,0,42459:0:0:0:0:
192,192,42391,128,0,42459:0:0:0:0:
192,192,42527,128,0,42868:0:0:0:0:
448,192,42527,128,0,42664:0:0:0:0:
320,192,42527,128,0,42664:0:0:0:0:
64,192,42732,128,0,43004:0:0:0:0:
320,192,42732,128,0,42868:0:0:0:0:
448,192,42732,128,0,42868:0:0:0:0:
448,192,42936,128,0,43209:0:0:0:0:
320,192,42936,128,0,43004:0:0:0:0:
192,192,42936,128,0,43004:0:0:0:0:
320,192,43073,128,0,43414:0:0:0:0:
192,192,43073,128,0,43209:0:0:0:0:
64,192,43073,128,0,43209:0:0:0:0:
448,192,43277,128,0,43550:0:0:0:0:
64,192,43277,128,0,43414:0:0:0:0:
192,192,43277,128,0,43414:0:0:0:0:
64,192,43482,128,0,43686:0:0:0:0:
320,192,43482,128,0,43550:0:0:0:0:
192,192,43482,128,0,43550:0:0:0:0:
192,192,43618,128,0,43823:0:0:0:0:
320,192,43618,128,0,43686:0:0:0:0:
448,192,43618,128,0,43686:0:0:0:0:
320,192,43754,128,0,43959:0:0:0:0:
64,192,43754,128,0,43823:0:0:0:0:
448,192,43754,128,0,43823:0:0:0:0:
448,192,43891,128,0,44095:0:0:0:0:
192,192,43891,128,0,43959:0:0:0:0:
64,192,43891,128,0,43959:0:0:0:0:
192,192,44027,128,0,44095:0:0:0:0:
64,192,44027,128,0,44095:0:0:0:0:
320,192,44027,128,0,44164:0:0:0:0:
192,192,44164,128,0,44232:0:0:0:0:
64,192,44164,128,0,44266:0:0:0:0:
448,192,44164,1,0,0:0:0:0:
448,192,44232,128,0,44300:0:0:0:0:
320,192,44232,128,0,44334:0:0:0:0:
64,192,44300,128,0,44368:0:0:0:0:
192,192,44300,128,0,44402:0:0:0:0:
320,192,44368,128,0,44436:0:0:0:0:
448,192,44368,128,0,44470:0:0:0:0:
192,192,44436,128,0,44504:0:0:0:0:
64,192,44436,128,0,44539:0:0:0:0:
448,192,44504,128,0,44573:0:0:0:0:
320,192,44504,128,0,44607:0:0:0:0:
192,192,44573,128,0,44641:0:0:0:0:
64,192,44573,128,0,44675:0:0:0:0:
320,192,44641,128,0,44709:0:0:0:0:
448,192,44641,128,0,44709:0:0:0:0:
64,192,44709,128,0,44982:0:0:0:0:
