osu file format v14

[General]
AudioFilename: audio.ogg
AudioLeadIn: 0
PreviewTime: 255478
Countdown: 0
SampleSet: None
StackLeniency: 0.7
Mode: 3
LetterboxInBreaks: 0
SpecialStyle: 0
WidescreenStoryboard: 1

[Editor]
DistanceSpacing: 1.5
BeatDivisor: 8
GridSize: 32
TimelineZoom: 3.799998

[Metadata]
Title:<> ~Truth in Uncertainty~ LN Training
TitleUnicode:《/nttld.:beings》 ~Truth in Uncertainty~ LN Training
Artist:GTS Sound Team
ArtistUnicode:GTS Sound Team
Creator:ytGrapeFrootZ34
Version:17
Source:Expert Global Taiko Showdown 2022
Tags:LN, ena, ezmmr, upan, castella, suddendeath, onta, Hylotl, SoraIro-' , Marathon, Cicada, Longnote, stream, jack, speed, tech, burst
BeatmapID:4556967
BeatmapSetID:2160950

[Difficulty]
HPDrainRate:6
CircleSize:4
OverallDifficulty:6.6
ApproachRate:5
SliderMultiplier:1.4
SliderTickRate:1

[Events]
//Background and Video events
0,0,"bgggg.jpg",0,0
//Break Periods
//Storyboard Layer 0 (Background)
//Storyboard Layer 1 (Fail)
//Storyboard Layer 2 (Pass)
//Storyboard Layer 3 (Foreground)
//Storyboard Layer 4 (Overlay)
//Storyboard Sound Samples

[TimingPoints]
1073,272.727272727273,5,1,0,50,1,8
1073,-84.7457627118644,5,1,0,50,0,8
2164,272.727272727273,4,1,0,50,1,0
2164,-84.7457627118644,4,1,0,50,0,0
63232,272.727272727273,4,1,0,50,1,0
63232,-84.7457627118644,4,1,0,50,0,0
78505,272.727272727273,4,1,0,50,1,0
78505,-84.7457627118644,4,1,0,50,0,0
98141,272.727272727273,4,1,0,50,1,0
98141,-84.7457627118644,4,1,0,50,0,0
124322,266.666666666667,4,1,0,50,1,0
124322,-86.2068965517241,4,1,0,50,0,0
125388,250,4,1,0,50,1,0
125388,-92.5925925925926,4,1,0,50,0,0
126388,235.294117647059,4,1,0,50,1,0
126388,-98.0392156862745,4,1,0,50,0,0
127329,222.222222222222,4,1,0,50,1,0
127329,-104.166666666667,4,1,0,50,0,0
128217,210.526315789474,4,1,0,50,1,0
128217,-109.89010989011,4,1,0,50,0,0
129059,200,4,1,0,50,1,0
129059,-114.942528735632,4,1,0,50,0,0
130659,230.769230769231,5,1,0,50,1,0
130659,-100,5,1,0,50,0,0
131725,526.315789473684,727,1,0,50,1,0
131725,-43.859649122807,727,1,0,50,0,0
140124,523.331879633668,8,1,0,50,1,0
140124,-44.0528634361233,8,1,0,50,0,0
148497,523.331879633668,8,1,0,50,1,8
148497,-44.0528634361233,8,1,0,50,0,8
149282,545.454545454546,4,1,0,50,1,0
149282,-42.3728813559322,4,1,0,50,0,0
156907,272.727272727273,4,1,0,50,1,0
156907,-84.7457627118644,4,1,0,50,0,0
157997,300,4,1,0,50,1,0
157997,-76.9230769230769,4,1,0,50,0,0
179597,300,4,1,0,50,1,0
179597,-76.9230769230769,4,1,0,50,0,0
196397,300,4,1,0,50,1,0
196397,-76.9230769230769,4,1,0,50,0,0
220397,400,4,1,0,50,1,8
220397,-57.8034682080925,4,1,0,50,0,8
220418,400,3,1,0,50,1,0
220418,-57.8034682080925,3,1,0,50,0,0
227318,400,6,1,0,50,1,0
227318,-57.8034682080925,6,1,0,50,0,0
229418,400,3,1,0,50,1,0
229418,-57.8034682080925,3,1,0,50,0,0
234218,400,6,1,0,50,1,0
234218,-57.8034682080925,6,1,0,50,0,0
236318,400,3,1,0,50,1,0
236318,-57.8034682080925,3,1,0,50,0,0
237218,400,3,1,0,50,1,8
237218,-57.8034682080925,3,1,0,50,0,8
238418,333.333333333334,4,1,0,50,1,0
238418,-69.4444444444444,4,1,0,50,0,0
238751,300,4,1,0,50,1,8
238751,-76.9230769230769,4,1,0,50,0,8
239051,272.727272727273,4,1,0,50,1,8
239051,-84.7457627118644,4,1,0,50,0,8
239596,260.869565217391,4,1,0,50,1,0
239596,-88.495575221239,4,1,0,50,0,0
239856,272.727272727273,4,1,0,50,1,8
239856,-84.7457627118644,4,1,0,50,0,8
240128,260.869565217391,4,1,0,50,1,8
240128,-88.495575221239,4,1,0,50,0,8
240649,260.869565217391,4,1,0,50,1,0
240649,-88.495575221239,4,1,0,50,0,0
240910,250,4,1,0,50,1,8
240910,-92.5925925925926,4,1,0,50,0,8
241160,244.897959183673,4,1,0,50,1,8
241160,-94.3396226415094,4,1,0,50,0,8
241404,240,4,1,0,50,1,8
241404,-96.1538461538461,4,1,0,50,0,8
241644,235.294117647059,4,1,0,50,1,0
241644,-98.0392156862745,4,1,0,50,0,0
242555,230.769230769231,4,1,0,50,1,0
242555,-100,4,1,0,50,0,0
255478,230.769230769231,5,1,0,50,1,0
255478,-100,5,1,0,50,0,0
256631,230.769230769231,4,1,0,50,1,0
256631,-100,4,1,0,50,0,0
281554,230.769230769231,5,1,0,50,1,0
281554,-100,5,1,0,50,0,0
282707,230.769230769231,4,1,0,50,1,0
282707,-100,4,1,0,50,0,0
283630,230.769230769231,5,1,0,50,1,0
283630,-100,5,1,0,50,0,0
284783,230.769230769231,4,1,0,50,1,0
284783,-100,4,1,0,50,0,0
288475,230.769230769231,6,1,0,50,1,0
288475,-100,6,1,0,50,0,0
291244,230.769230769231,6,1,0,50,1,0
291244,-100,6,1,0,50,0,0
324474,230.769230769231,8,1,0,50,1,0
324474,-100,8,1,0,50,0,0
326320,230.769230769231,4,1,0,50,1,0
326320,-100,4,1,0,50,0,0
370627,224.299065420561,4,1,0,50,1,0
370627,-103.092783505155,4,1,0,50,0,0
372421,218.181818181818,4,1,0,50,1,0
372421,-105.263157894737,4,1,0,50,0,0
374166,212.389380530973,4,1,0,50,1,0
374166,-108.695652173913,4,1,0,50,0,0
375865,206.896551724138,4,1,0,50,1,0
375865,-111.111111111111,4,1,0,50,0,0
377520,206.896551724138,4,1,0,50,1,0
377520,-111.111111111111,4,1,0,50,0,0
410623,413.793103448276,4,1,0,50,1,0
410623,-55.8659217877095,4,1,0,50,0,0

[Colours]
Combo1 : 255,121,124
Combo2 : 255,255,255
Combo3 : 170,170,170

[HitObjects]
448,192,291244,1,0,0:0:0:0:
64,192,291244,1,0,0:0:0:0:
320,192,291244,1,0,0:0:0:0:
64,192,291330,128,0,291417:0:0:0:0:
448,192,291330,128,0,291417:0:0:0:0:
192,192,291330,128,0,291445:0:0:0:0:
448,192,291474,128,0,291619:0:0:0:0:
320,192,291474,128,0,291590:0:0:0:0:
64,192,291474,128,0,291551:0:0:0:0:
320,192,291676,128,0,291792:0:0:0:0:
64,192,291676,128,0,291748:0:0:0:0:
192,192,291676,128,0,291777:0:0:0:0:
64,192,291849,128,0,291878:0:0:0:0:
192,192,291849,128,0,291878:0:0:0:0:
64,192,291936,1,0,0:0:0:0:
320,192,291936,1,0,0:0:0:0:
448,192,291936,1,0,0:0:0:0:
192,192,292022,1,0,0:0:0:0:
320,192,292022,1,0,0:0:0:0:
64,192,292109,128,0,292167:0:0:0:0:
192,192,292109,128,0,292224:0:0:0:0:
448,192,292109,128,0,292282:0:0:0:0:
192,192,292282,1,0,0:0:0:0:
64,192,292282,1,0,0:0:0:0:
64,192,292369,128,0,292527:0:0:0:0:
192,192,292369,128,0,292441:0:0:0:0:
448,192,292369,128,0,292527:0:0:0:0:
320,192,292527,1,0,0:0:0:0:
192,192,292527,1,0,0:0:0:0:
64,192,292609,1,0,0:0:0:0:
448,192,292628,128,0,292772:0:0:0:0:
192,192,292628,128,0,292772:0:0:0:0:
320,192,292647,128,0,292686:0:0:0:0:
320,192,292772,1,0,0:0:0:0:
64,192,292772,1,0,0:0:0:0:
64,192,292888,128,0,292974:0:0:0:0:
192,192,292888,128,0,293061:0:0:0:0:
448,192,292888,128,0,292960:0:0:0:0:
448,192,293061,128,0,293133:0:0:0:0:
320,192,293061,128,0,293133:0:0:0:0:
64,192,293061,128,0,293133:0:0:0:0:
64,192,293205,128,0,293320:0:0:0:0:
192,192,293205,128,0,293320:0:0:0:0:
320,192,293205,128,0,293244:0:0:0:0:
448,192,293320,1,0,0:0:0:0:
320,192,293320,1,0,0:0:0:0:
320,192,293494,1,0,0:0:0:0:
64,192,293494,1,0,0:0:0:0:
448,192,293580,128,0,293652:0:0:0:0:
192,192,293580,128,0,293753:0:0:0:0:
64,192,293580,128,0,293753:0:0:0:0:
448,192,293753,1,0,0:0:0:0:
320,192,293753,1,0,0:0:0:0:
64,192,293825,128,0,293883:0:0:0:0:
320,192,293825,128,0,293926:0:0:0:0:
448,192,293840,128,0,293994:0:0:0:0:
192,192,294013,128,0,294090:0:0:0:0:
64,192,294013,128,0,294090:0:0:0:0:
320,192,294013,128,0,294186:0:0:0:0:
192,192,294186,1,0,0:0:0:0:
64,192,294186,1,0,0:0:0:0:
192,192,294272,128,0,294344:0:0:0:0:
448,192,294272,128,0,294388:0:0:0:0:
320,192,294272,128,0,294373:0:0:0:0:
448,192,294445,128,0,294518:0:0:0:0:
320,192,294445,128,0,294561:0:0:0:0:
64,192,294445,128,0,294604:0:0:0:0:
448,192,294619,1,0,0:0:0:0:
320,192,294619,1,0,0:0:0:0:
64,192,294686,128,0,294782:0:0:0:0:
192,192,294705,128,0,294801:0:0:0:0:
448,192,294705,128,0,294878:0:0:0:0:
192,192,294878,128,0,294955:0:0:0:0:
64,192,294878,128,0,294955:0:0:0:0:
320,192,294878,128,0,295022:0:0:0:0:
64,192,295051,1,0,0:0:0:0:
192,192,295051,1,0,0:0:0:0:
320,192,295138,128,0,295253:0:0:0:0:
192,192,295138,128,0,295253:0:0:0:0:
448,192,295138,128,0,295253:0:0:0:0:
64,192,295311,128,0,295441:0:0:0:0:
192,192,295311,128,0,295426:0:0:0:0:
320,192,295311,128,0,295412:0:0:0:0:
64,192,295484,128,0,295585:0:0:0:0:
320,192,295484,128,0,295614:0:0:0:0:
448,192,295484,128,0,295585:0:0:0:0:
64,192,295657,128,0,295801:0:0:0:0:
448,192,295657,1,0,0:0:0:0:
192,192,295657,1,0,0:0:0:0:
448,192,295744,1,0,0:0:0:0:
320,192,295744,128,0,295816:0:0:0:0:
64,192,295917,1,0,0:0:0:0:
192,192,295917,128,0,296003:0:0:0:0:
448,192,295917,128,0,296003:0:0:0:0:
320,192,296003,1,0,0:0:0:0:
64,192,296003,1,0,0:0:0:0:
192,192,296147,1,0,0:0:0:0:
448,192,296176,128,0,296292:0:0:0:0:
64,192,296176,128,0,296292:0:0:0:0:
320,192,296176,128,0,296234:0:0:0:0:
64,192,296349,1,0,0:0:0:0:
320,192,296349,1,0,0:0:0:0:
448,192,296349,1,0,0:0:0:0:
192,192,296349,128,0,296494:0:0:0:0:
320,192,296522,1,0,0:0:0:0:
448,192,296522,1,0,0:0:0:0:
64,192,296522,1,0,0:0:0:0:
192,192,296609,1,0,0:0:0:0:
64,192,296695,1,0,0:0:0:0:
192,192,296695,1,0,0:0:0:0:
448,192,296695,1,0,0:0:0:0:
320,192,296782,1,0,0:0:0:0:
64,192,296782,128,0,296926:0:0:0:0:
448,192,296840,128,0,296955:0:0:0:0:
192,192,296869,128,0,296955:0:0:0:0:
320,192,296955,128,0,296984:0:0:0:0:
64,192,297042,128,0,297128:0:0:0:0:
448,192,297042,128,0,297128:0:0:0:0:
320,192,297042,128,0,297186:0:0:0:0:
64,192,297186,128,0,297272:0:0:0:0:
448,192,297186,128,0,297272:0:0:0:0:
192,192,297186,128,0,297359:0:0:0:0:
320,192,297359,128,0,297474:0:0:0:0:
448,192,297359,128,0,297474:0:0:0:0:
64,192,297359,128,0,297561:0:0:0:0:
192,192,297460,1,0,0:0:0:0:
320,192,297546,1,0,0:0:0:0:
448,192,297561,1,0,0:0:0:0:
192,192,297647,128,0,297763:0:0:0:0:
320,192,297647,128,0,297734:0:0:0:0:
64,192,297647,128,0,297792:0:0:0:0:
448,192,297820,1,0,0:0:0:0:
320,192,297820,1,0,0:0:0:0:
448,192,297907,128,0,298080:0:0:0:0:
192,192,297907,128,0,298022:0:0:0:0:
64,192,297907,128,0,297994:0:0:0:0:
192,192,298080,1,0,0:0:0:0:
64,192,298080,1,0,0:0:0:0:
64,192,298167,128,0,298282:0:0:0:0:
320,192,298167,128,0,298282:0:0:0:0:
448,192,298167,128,0,298340:0:0:0:0:
192,192,298340,1,0,0:0:0:0:
64,192,298340,1,0,0:0:0:0:
64,192,298426,128,0,298542:0:0:0:0:
192,192,298426,128,0,298513:0:0:0:0:
320,192,298426,128,0,298484:0:0:0:0:
448,192,298599,128,0,298686:0:0:0:0:
320,192,298599,128,0,298686:0:0:0:0:
192,192,298599,128,0,298686:0:0:0:0:
192,192,298744,128,0,298801:0:0:0:0:
64,192,298744,128,0,298801:0:0:0:0:
320,192,298744,128,0,298801:0:0:0:0:
448,192,298844,128,0,298945:0:0:0:0:
64,192,298859,128,0,299032:0:0:0:0:
192,192,298859,128,0,298945:0:0:0:0:
320,192,299032,1,0,0:0:0:0:
448,192,299032,1,0,0:0:0:0:
64,192,299119,128,0,299176:0:0:0:0:
320,192,299119,128,0,299234:0:0:0:0:
448,192,299119,128,0,299234:0:0:0:0:
64,192,299292,1,0,0:0:0:0:
192,192,299292,1,0,0:0:0:0:
64,192,299378,128,0,299494:0:0:0:0:
448,192,299378,128,0,299465:0:0:0:0:
320,192,299378,128,0,299479:0:0:0:0:
320,192,299551,128,0,299695:0:0:0:0:
64,192,299551,128,0,299609:0:0:0:0:
192,192,299551,128,0,299609:0:0:0:0:
64,192,299724,1,0,0:0:0:0:
192,192,299724,1,0,0:0:0:0:
192,192,299811,128,0,299897:0:0:0:0:
320,192,299811,128,0,299926:0:0:0:0:
448,192,299811,128,0,299955:0:0:0:0:
320,192,299984,128,0,300157:0:0:0:0:
192,192,299984,128,0,300070:0:0:0:0:
64,192,299984,128,0,300070:0:0:0:0:
64,192,300157,1,0,0:0:0:0:
192,192,300157,1,0,0:0:0:0:
192,192,300229,128,0,300316:0:0:0:0:
320,192,300244,128,0,300330:0:0:0:0:
448,192,300244,128,0,300359:0:0:0:0:
64,192,300388,128,0,300532:0:0:0:0:
192,192,300388,128,0,300503:0:0:0:0:
320,192,300388,128,0,300474:0:0:0:0:
64,192,300590,1,0,0:0:0:0:
320,192,300590,1,0,0:0:0:0:
192,192,300676,128,0,300792:0:0:0:0:
448,192,300676,128,0,300792:0:0:0:0:
320,192,300676,128,0,300792:0:0:0:0:
64,192,300734,1,0,0:0:0:0:
320,192,300849,128,0,300936:0:0:0:0:
64,192,300849,128,0,300936:0:0:0:0:
192,192,300849,128,0,300965:0:0:0:0:
448,192,300994,128,0,301109:0:0:0:0:
320,192,300994,128,0,301051:0:0:0:0:
64,192,300994,128,0,301051:0:0:0:0:
192,192,301109,1,0,0:0:0:0:
320,192,301195,128,0,301224:0:0:0:0:
448,192,301195,128,0,301224:0:0:0:0:
64,192,301195,128,0,301224:0:0:0:0:
320,192,301282,128,0,301340:0:0:0:0:
64,192,301282,128,0,301369:0:0:0:0:
192,192,301282,128,0,301369:0:0:0:0:
320,192,301426,1,0,0:0:0:0:
64,192,301426,1,0,0:0:0:0:
448,192,301426,1,0,0:0:0:0:
192,192,301513,128,0,301599:0:0:0:0:
320,192,301513,128,0,301570:0:0:0:0:
448,192,301513,128,0,301599:0:0:0:0:
320,192,301614,128,0,301657:0:0:0:0:
64,192,301628,128,0,301657:0:0:0:0:
448,192,301700,128,0,301772:0:0:0:0:
64,192,301715,128,0,301888:0:0:0:0:
192,192,301715,128,0,301830:0:0:0:0:
320,192,301888,128,0,302003:0:0:0:0:
448,192,301888,128,0,302003:0:0:0:0:
192,192,301888,128,0,301945:0:0:0:0:
320,192,302061,1,0,0:0:0:0:
448,192,302061,1,0,0:0:0:0:
64,192,302090,1,0,0:0:0:0:
192,192,302119,1,0,0:0:0:0:
448,192,302147,1,0,0:0:0:0:
320,192,302176,1,0,0:0:0:0:
64,192,302205,1,0,0:0:0:0:
192,192,302234,1,0,0:0:0:0:
320,192,302263,1,0,0:0:0:0:
448,192,302292,1,0,0:0:0:0:
