osu file format v14

[General]
AudioFilename: audio.ogg
AudioLeadIn: 0
PreviewTime: 255478
Countdown: 0
SampleSet: None
StackLeniency: 0.7
Mode: 3
LetterboxInBreaks: 0
SpecialStyle: 0
WidescreenStoryboard: 1

[Editor]
DistanceSpacing: 1.5
BeatDivisor: 8
GridSize: 32
TimelineZoom: 3.799998

[Metadata]
Title:<> ~Truth in Uncertainty~ LN Training
TitleUnicode:《/nttld.:beings》 ~Truth in Uncertainty~ LN Training
Artist:GTS Sound Team
ArtistUnicode:GTS Sound Team
Creator:ytGrapeFrootZ34
Version:15
Source:Expert Global Taiko Showdown 2022
Tags:LN, ena, ezmmr, upan, castella, suddendeath, onta, Hylotl, SoraIro-' , Marathon, Cicada, Longnote, stream, jack, speed, tech, burst
BeatmapID:4556965
BeatmapSetID:2160950

[Difficulty]
HPDrainRate:6
CircleSize:4
OverallDifficulty:6.6
ApproachRate:5
SliderMultiplier:1.4
SliderTickRate:1

[Events]
//Background and Video events
0,0,"bgggg.jpg",0,0
//Break Periods
//Storyboard Layer 0 (Background)
//Storyboard Layer 1 (Fail)
//Storyboard Layer 2 (Pass)
//Storyboard Layer 3 (Foreground)
//Storyboard Layer 4 (Overlay)
//Storyboard Sound Samples

[TimingPoints]
1073,272.727272727273,5,1,0,50,1,8
1073,-84.7457627118644,5,1,0,50,0,8
2164,272.727272727273,4,1,0,50,1,0
2164,-84.7457627118644,4,1,0,50,0,0
63232,272.727272727273,4,1,0,50,1,0
63232,-84.7457627118644,4,1,0,50,0,0
78505,272.727272727273,4,1,0,50,1,0
78505,-84.7457627118644,4,1,0,50,0,0
98141,272.727272727273,4,1,0,50,1,0
98141,-84.7457627118644,4,1,0,50,0,0
124322,266.666666666667,4,1,0,50,1,0
124322,-86.2068965517241,4,1,0,50,0,0
125388,250,4,1,0,50,1,0
125388,-92.5925925925926,4,1,0,50,0,0
126388,235.294117647059,4,1,0,50,1,0
126388,-98.0392156862745,4,1,0,50,0,0
127329,222.222222222222,4,1,0,50,1,0
127329,-104.166666666667,4,1,0,50,0,0
128217,210.526315789474,4,1,0,50,1,0
128217,-109.89010989011,4,1,0,50,0,0
129059,200,4,1,0,50,1,0
129059,-114.942528735632,4,1,0,50,0,0
130659,230.769230769231,5,1,0,50,1,0
130659,-100,5,1,0,50,0,0
131725,526.315789473684,727,1,0,50,1,0
131725,-43.859649122807,727,1,0,50,0,0
140124,523.331879633668,8,1,0,50,1,0
140124,-44.0528634361233,8,1,0,50,0,0
148497,523.331879633668,8,1,0,50,1,8
148497,-44.0528634361233,8,1,0,50,0,8
149282,545.454545454546,4,1,0,50,1,0
149282,-42.3728813559322,4,1,0,50,0,0
156907,272.727272727273,4,1,0,50,1,0
156907,-84.7457627118644,4,1,0,50,0,0
157997,300,4,1,0,50,1,0
157997,-76.9230769230769,4,1,0,50,0,0
179597,300,4,1,0,50,1,0
179597,-76.9230769230769,4,1,0,50,0,0
196397,300,4,1,0,50,1,0
196397,-76.9230769230769,4,1,0,50,0,0
220397,400,4,1,0,50,1,8
220397,-57.8034682080925,4,1,0,50,0,8
220418,400,3,1,0,50,1,0
220418,-57.8034682080925,3,1,0,50,0,0
227318,400,6,1,0,50,1,0
227318,-57.8034682080925,6,1,0,50,0,0
229418,400,3,1,0,50,1,0
229418,-57.8034682080925,3,1,0,50,0,0
234218,400,6,1,0,50,1,0
234218,-57.8034682080925,6,1,0,50,0,0
236318,400,3,1,0,50,1,0
236318,-57.8034682080925,3,1,0,50,0,0
237218,400,3,1,0,50,1,8
237218,-57.8034682080925,3,1,0,50,0,8
238418,333.333333333334,4,1,0,50,1,0
238418,-69.4444444444444,4,1,0,50,0,0
238751,300,4,1,0,50,1,8
238751,-76.9230769230769,4,1,0,50,0,8
239051,272.727272727273,4,1,0,50,1,8
239051,-84.7457627118644,4,1,0,50,0,8
239596,260.869565217391,4,1,0,50,1,0
239596,-88.495575221239,4,1,0,50,0,0
239856,272.727272727273,4,1,0,50,1,8
239856,-84.7457627118644,4,1,0,50,0,8
240128,260.869565217391,4,1,0,50,1,8
240128,-88.495575221239,4,1,0,50,0,8
240649,260.869565217391,4,1,0,50,1,0
240649,-88.495575221239,4,1,0,50,0,0
240910,250,4,1,0,50,1,8
240910,-92.5925925925926,4,1,0,50,0,8
241160,244.897959183673,4,1,0,50,1,8
241160,-94.3396226415094,4,1,0,50,0,8
241404,240,4,1,0,50,1,8
241404,-96.1538461538461,4,1,0,50,0,8
241644,235.294117647059,4,1,0,50,1,0
241644,-98.0392156862745,4,1,0,50,0,0
242555,230.769230769231,4,1,0,50,1,0
242555,-100,4,1,0,50,0,0
255478,230.769230769231,5,1,0,50,1,0
255478,-100,5,1,0,50,0,0
256631,230.769230769231,4,1,0,50,1,0
256631,-100,4,1,0,50,0,0
281554,230.769230769231,5,1,0,50,1,0
281554,-100,5,1,0,50,0,0
282707,230.769230769231,4,1,0,50,1,0
282707,-100,4,1,0,50,0,0
283630,230.769230769231,5,1,0,50,1,0
283630,-100,5,1,0,50,0,0
284783,230.769230769231,4,1,0,50,1,0
284783,-100,4,1,0,50,0,0
288475,230.769230769231,6,1,0,50,1,0
288475,-100,6,1,0,50,0,0
291244,230.769230769231,6,1,0,50,1,0
291244,-100,6,1,0,50,0,0
324474,230.769230769231,8,1,0,50,1,0
324474,-100,8,1,0,50,0,0
326320,230.769230769231,4,1,0,50,1,0
326320,-100,4,1,0,50,0,0
370627,224.299065420561,4,1,0,50,1,0
370627,-103.092783505155,4,1,0,50,0,0
372421,218.181818181818,4,1,0,50,1,0
372421,-105.263157894737,4,1,0,50,0,0
374166,212.389380530973,4,1,0,50,1,0
374166,-108.695652173913,4,1,0,50,0,0
375865,206.896551724138,4,1,0,50,1,0
375865,-111.111111111111,4,1,0,50,0,0
377520,206.896551724138,4,1,0,50,1,0
377520,-111.111111111111,4,1,0,50,0,0
410623,413.793103448276,4,1,0,50,1,0
410623,-55.8659217877095,4,1,0,50,0,0

[Colours]
Combo1 : 255,121,124
Combo2 : 255,255,255
Combo3 : 170,170,170

[HitObjects]
320,192,255478,128,0,255535:0:0:0:0:
64,192,255478,128,0,255535:0:0:0:0:
448,192,255478,128,0,255535:0:0:0:0:
448,192,255593,128,0,255651:0:0:0:0:
192,192,255593,128,0,255651:0:0:0:0:
64,192,255593,128,0,255651:0:0:0:0:
64,192,255708,128,0,255824:0:0:0:0:
448,192,255708,128,0,255824:0:0:0:0:
320,192,255708,128,0,255824:0:0:0:0:
192,192,255824,128,0,255968:0:0:0:0:
320,192,255939,128,0,256112:0:0:0:0:
448,192,255939,128,0,256112:0:0:0:0:
64,192,255939,128,0,256112:0:0:0:0:
192,192,256054,128,0,256199:0:0:0:0:
320,192,256170,128,0,256372:0:0:0:0:
448,192,256170,128,0,256372:0:0:0:0:
64,192,256170,128,0,256372:0:0:0:0:
192,192,256285,128,0,256429:0:0:0:0:
64,192,256401,128,0,256617:0:0:0:0:
448,192,256401,128,0,256617:0:0:0:0:
320,192,256401,128,0,256617:0:0:0:0:
192,192,256516,128,0,256631:0:0:0:0:
448,192,256631,1,0,0:0:0:0:
64,192,256631,1,0,0:0:0:0:
320,192,256631,1,0,0:0:0:0:
192,192,256688,128,0,256861:0:0:0:0:
448,192,256717,128,0,256861:0:0:0:0:
64,192,256746,128,0,256804:0:0:0:0:
320,192,256804,128,0,256861:0:0:0:0:
64,192,256861,128,0,256890:0:0:0:0:
320,192,256890,128,0,256919:0:0:0:0:
192,192,256919,128,0,256948:0:0:0:0:
448,192,256948,128,0,256977:0:0:0:0:
64,192,256977,128,0,257034:0:0:0:0:
320,192,256977,128,0,257006:0:0:0:0:
192,192,257034,128,0,257092:0:0:0:0:
448,192,257092,128,0,257207:0:0:0:0:
320,192,257092,128,0,257150:0:0:0:0:
64,192,257092,128,0,257150:0:0:0:0:
192,192,257150,128,0,257265:0:0:0:0:
320,192,257207,128,0,257265:0:0:0:0:
64,192,257207,128,0,257265:0:0:0:0:
448,192,257265,128,0,257323:0:0:0:0:
320,192,257323,128,0,257381:0:0:0:0:
192,192,257323,128,0,257438:0:0:0:0:
64,192,257323,128,0,257381:0:0:0:0:
448,192,257381,128,0,257496:0:0:0:0:
320,192,257438,128,0,257496:0:0:0:0:
64,192,257438,128,0,257554:0:0:0:0:
192,192,257496,128,0,257554:0:0:0:0:
448,192,257554,128,0,257611:0:0:0:0:
320,192,257554,128,0,257611:0:0:0:0:
192,192,257611,128,0,257669:0:0:0:0:
64,192,257611,128,0,257727:0:0:0:0:
320,192,257669,128,0,257727:0:0:0:0:
448,192,257669,128,0,257727:0:0:0:0:
192,192,257727,128,0,257784:0:0:0:0:
64,192,257784,128,0,257957:0:0:0:0:
320,192,257784,128,0,257842:0:0:0:0:
448,192,257784,128,0,257900:0:0:0:0:
192,192,257842,128,0,257957:0:0:0:0:
320,192,257900,128,0,257957:0:0:0:0:
448,192,257957,128,0,258015:0:0:0:0:
320,192,258015,128,0,258044:0:0:0:0:
192,192,258015,128,0,258044:0:0:0:0:
64,192,258015,128,0,258044:0:0:0:0:
448,192,258073,128,0,258131:0:0:0:0:
320,192,258131,128,0,258159:0:0:0:0:
192,192,258131,128,0,258159:0:0:0:0:
64,192,258131,128,0,258159:0:0:0:0:
192,192,258188,128,0,258246:0:0:0:0:
64,192,258246,128,0,258361:0:0:0:0:
320,192,258246,128,0,258304:0:0:0:0:
448,192,258246,128,0,258419:0:0:0:0:
192,192,258304,128,0,258477:0:0:0:0:
320,192,258361,128,0,258419:0:0:0:0:
64,192,258419,128,0,258477:0:0:0:0:
448,192,258477,128,0,258534:0:0:0:0:
320,192,258477,128,0,258534:0:0:0:0:
64,192,258534,128,0,258592:0:0:0:0:
192,192,258534,128,0,258650:0:0:0:0:
320,192,258592,128,0,258650:0:0:0:0:
448,192,258592,128,0,258650:0:0:0:0:
64,192,258650,128,0,258765:0:0:0:0:
192,192,258707,128,0,258765:0:0:0:0:
320,192,258707,128,0,258765:0:0:0:0:
448,192,258707,128,0,258765:0:0:0:0:
320,192,258823,128,0,258938:0:0:0:0:
64,192,258823,128,0,258938:0:0:0:0:
192,192,258938,128,0,258996:0:0:0:0:
448,192,258938,128,0,258996:0:0:0:0:
320,192,258996,128,0,259054:0:0:0:0:
64,192,258996,128,0,259054:0:0:0:0:
192,192,259054,128,0,259082:0:0:0:0:
192,192,259111,128,0,259140:0:0:0:0:
64,192,259169,128,0,259227:0:0:0:0:
320,192,259169,128,0,259227:0:0:0:0:
448,192,259169,128,0,259227:0:0:0:0:
192,192,259227,128,0,259342:0:0:0:0:
320,192,259284,128,0,259342:0:0:0:0:
64,192,259342,128,0,259400:0:0:0:0:
320,192,259400,128,0,259457:0:0:0:0:
448,192,259400,128,0,259457:0:0:0:0:
192,192,259400,128,0,259573:0:0:0:0:
64,192,259457,128,0,259515:0:0:0:0:
320,192,259515,128,0,259573:0:0:0:0:
448,192,259515,128,0,259573:0:0:0:0:
64,192,259573,128,0,259631:0:0:0:0:
320,192,259631,128,0,259688:0:0:0:0:
192,192,259631,128,0,259746:0:0:0:0:
448,192,259631,128,0,259688:0:0:0:0:
64,192,259688,128,0,259804:0:0:0:0:
448,192,259746,128,0,259804:0:0:0:0:
320,192,259746,128,0,259804:0:0:0:0:
192,192,259804,128,0,259861:0:0:0:0:
448,192,259861,128,0,259977:0:0:0:0:
320,192,259861,128,0,259919:0:0:0:0:
64,192,259861,128,0,259919:0:0:0:0:
192,192,259919,128,0,260092:0:0:0:0:
64,192,259977,128,0,260034:0:0:0:0:
320,192,259977,128,0,260034:0:0:0:0:
448,192,260034,128,0,260092:0:0:0:0:
64,192,260092,128,0,260150:0:0:0:0:
320,192,260121,128,0,260179:0:0:0:0:
192,192,260150,128,0,260207:0:0:0:0:
64,192,260179,128,0,260236:0:0:0:0:
448,192,260207,128,0,260323:0:0:0:0:
320,192,260207,128,0,260381:0:0:0:0:
192,192,260265,128,0,260438:0:0:0:0:
64,192,260323,128,0,260438:0:0:0:0:
448,192,260381,128,0,260438:0:0:0:0:
320,192,260438,128,0,260496:0:0:0:0:
64,192,260467,128,0,260525:0:0:0:0:
448,192,260496,128,0,260554:0:0:0:0:
192,192,260525,128,0,260582:0:0:0:0:
320,192,260554,128,0,260669:0:0:0:0:
64,192,260554,128,0,260669:0:0:0:0:
448,192,260611,128,0,260784:0:0:0:0:
192,192,260669,128,0,260727:0:0:0:0:
320,192,260727,128,0,260784:0:0:0:0:
192,192,260784,128,0,260842:0:0:0:0:
64,192,260784,128,0,260842:0:0:0:0:
320,192,260842,128,0,260900:0:0:0:0:
448,192,260842,128,0,260957:0:0:0:0:
192,192,260900,128,0,260957:0:0:0:0:
64,192,260900,128,0,260957:0:0:0:0:
320,192,260957,128,0,261015:0:0:0:0:
192,192,261015,128,0,261073:0:0:0:0:
64,192,261015,128,0,261131:0:0:0:0:
448,192,261015,128,0,261188:0:0:0:0:
320,192,261073,128,0,261188:0:0:0:0:
192,192,261131,128,0,261188:0:0:0:0:
64,192,261188,128,0,261246:0:0:0:0:
320,192,261246,128,0,261275:0:0:0:0:
192,192,261246,128,0,261275:0:0:0:0:
448,192,261246,128,0,261275:0:0:0:0:
448,192,261304,128,0,261361:0:0:0:0:
192,192,261361,128,0,261419:0:0:0:0:
64,192,261361,128,0,261477:0:0:0:0:
320,192,261361,128,0,261419:0:0:0:0:
448,192,261419,128,0,261650:0:0:0:0:
320,192,261477,128,0,261534:0:0:0:0:
192,192,261477,128,0,261592:0:0:0:0:
64,192,261534,128,0,261650:0:0:0:0:
320,192,261592,128,0,261650:0:0:0:0:
192,192,261650,128,0,261707:0:0:0:0:
448,192,261707,128,0,261765:0:0:0:0:
320,192,261707,128,0,261794:0:0:0:0:
64,192,261707,128,0,261823:0:0:0:0:
192,192,261765,128,0,261881:0:0:0:0:
448,192,261823,128,0,261881:0:0:0:0:
320,192,261852,128,0,261881:0:0:0:0:
64,192,261881,128,0,261938:0:0:0:0:
320,192,261909,128,0,261938:0:0:0:0:
192,192,261938,128,0,261996:0:0:0:0:
448,192,261938,128,0,261996:0:0:0:0:
320,192,261996,128,0,262025:0:0:0:0:
64,192,262054,128,0,262111:0:0:0:0:
192,192,262082,128,0,262111:0:0:0:0:
448,192,262111,128,0,262169:0:0:0:0:
192,192,262140,128,0,262169:0:0:0:0:
320,192,262169,128,0,262227:0:0:0:0:
64,192,262169,128,0,262227:0:0:0:0:
448,192,262227,128,0,262371:0:0:0:0:
192,192,262284,128,0,262371:0:0:0:0:
64,192,262284,128,0,262371:0:0:0:0:
320,192,262342,128,0,262371:0:0:0:0:
448,192,262400,1,0,0:0:0:0:
320,192,262400,1,0,0:0:0:0:
192,192,262400,1,0,0:0:0:0:
64,192,262400,1,0,0:0:0:0:
64,192,262457,128,0,262573:0:0:0:0:
320,192,262515,128,0,262631:0:0:0:0:
448,192,262573,128,0,262688:0:0:0:0:
64,192,262631,128,0,262688:0:0:0:0:
192,192,262688,128,0,262717:0:0:0:0:
192,192,262746,1,0,0:0:0:0:
64,192,262746,1,0,0:0:0:0:
320,192,262746,1,0,0:0:0:0:
448,192,262746,1,0,0:0:0:0:
448,192,262804,128,0,262919:0:0:0:0:
192,192,262861,128,0,262919:0:0:0:0:
64,192,262919,128,0,262948:0:0:0:0:
320,192,262977,1,0,0:0:0:0:
448,192,262977,1,0,0:0:0:0:
192,192,262977,1,0,0:0:0:0:
64,192,262977,1,0,0:0:0:0:
192,192,263092,1,0,0:0:0:0:
64,192,263092,1,0,0:0:0:0:
320,192,263092,1,0,0:0:0:0:
448,192,263092,1,0,0:0:0:0:
448,192,263207,128,0,263265:0:0:0:0:
192,192,263207,128,0,263265:0:0:0:0:
320,192,263222,128,0,263265:0:0:0:0:
64,192,263222,128,0,263265:0:0:0:0:
192,192,263323,128,0,263400:0:0:0:0:
64,192,263323,128,0,263400:0:0:0:0:
448,192,263323,128,0,263361:0:0:0:0:
320,192,263361,128,0,263438:0:0:0:0:
448,192,263400,128,0,263477:0:0:0:0:
192,192,263438,128,0,263515:0:0:0:0:
320,192,263477,128,0,263554:0:0:0:0:
64,192,263515,128,0,263592:0:0:0:0:
448,192,263554,128,0,263631:0:0:0:0:
192,192,263592,128,0,263669:0:0:0:0:
64,192,263631,128,0,263707:0:0:0:0:
448,192,263669,128,0,263746:0:0:0:0:
192,192,263707,128,0,263746:0:0:0:0:
320,192,263746,128,0,263784:0:0:0:0:
448,192,263784,128,0,263957:0:0:0:0:
64,192,263784,128,0,263900:0:0:0:0:
192,192,263784,128,0,263842:0:0:0:0:
320,192,263842,128,0,263957:0:0:0:0:
192,192,263900,128,0,263957:0:0:0:0:
64,192,263957,128,0,264015:0:0:0:0:
448,192,264015,128,0,264188:0:0:0:0:
320,192,264015,128,0,264073:0:0:0:0:
192,192,264015,128,0,264131:0:0:0:0:
64,192,264073,128,0,264188:0:0:0:0:
320,192,264131,128,0,264188:0:0:0:0:
192,192,264188,128,0,264246:0:0:0:0:
64,192,264246,128,0,264361:0:0:0:0:
320,192,264246,128,0,264304:0:0:0:0:
448,192,264246,128,0,264419:0:0:0:0:
192,192,264304,128,0,264419:0:0:0:0:
320,192,264361,128,0,264477:0:0:0:0:
64,192,264419,128,0,264477:0:0:0:0:
192,192,264477,128,0,264534:0:0:0:0:
448,192,264477,128,0,264534:0:0:0:0:
64,192,264534,128,0,264592:0:0:0:0:
320,192,264534,128,0,264592:0:0:0:0:
448,192,264592,128,0,264650:0:0:0:0:
192,192,264592,128,0,264650:0:0:0:0:
320,192,264650,1,0,0:0:0:0:
64,192,264650,128,0,264707:0:0:0:0:
192,192,264707,128,0,264765:0:0:0:0:
320,192,264707,128,0,264765:0:0:0:0:
448,192,264707,128,0,264765:0:0:0:0:
64,192,264765,128,0,264881:0:0:0:0:
192,192,264823,128,0,264881:0:0:0:0:
320,192,264881,128,0,264938:0:0:0:0:
192,192,264938,128,0,264996:0:0:0:0:
64,192,264938,128,0,264996:0:0:0:0:
448,192,264938,128,0,264996:0:0:0:0:
320,192,264996,128,0,265111:0:0:0:0:
448,192,265054,128,0,265111:0:0:0:0:
64,192,265054,128,0,265169:0:0:0:0:
192,192,265111,128,0,265169:0:0:0:0:
448,192,265169,128,0,265227:0:0:0:0:
320,192,265169,128,0,265227:0:0:0:0:
64,192,265227,128,0,265284:0:0:0:0:
192,192,265227,128,0,265342:0:0:0:0:
320,192,265284,128,0,265342:0:0:0:0:
448,192,265284,128,0,265342:0:0:0:0:
64,192,265342,128,0,265400:0:0:0:0:
320,192,265400,128,0,265457:0:0:0:0:
192,192,265400,128,0,265457:0:0:0:0:
448,192,265400,128,0,265457:0:0:0:0:
64,192,265457,128,0,265573:0:0:0:0:
320,192,265515,128,0,265573:0:0:0:0:
192,192,265573,128,0,265631:0:0:0:0:
320,192,265631,128,0,265688:0:0:0:0:
64,192,265631,128,0,265688:0:0:0:0:
448,192,265631,128,0,265688:0:0:0:0:
192,192,265688,128,0,265804:0:0:0:0:
448,192,265746,128,0,265804:0:0:0:0:
64,192,265746,128,0,265861:0:0:0:0:
320,192,265804,128,0,265919:0:0:0:0:
448,192,265861,128,0,265919:0:0:0:0:
192,192,265861,128,0,265919:0:0:0:0:
64,192,265919,128,0,265977:0:0:0:0:
192,192,265977,128,0,266034:0:0:0:0:
320,192,265977,128,0,266034:0:0:0:0:
448,192,265977,128,0,266034:0:0:0:0:
448,192,266092,1,0,0:0:0:0:
320,192,266092,1,0,0:0:0:0:
192,192,266092,128,0,266294:0:0:0:0:
64,192,266092,128,0,266294:0:0:0:0:
320,192,266207,1,0,0:0:0:0:
448,192,266207,1,0,0:0:0:0:
192,192,266323,1,0,0:0:0:0:
64,192,266323,1,0,0:0:0:0:
320,192,266323,128,0,266525:0:0:0:0:
448,192,266323,128,0,266525:0:0:0:0:
64,192,266438,1,0,0:0:0:0:
192,192,266438,1,0,0:0:0:0:
64,192,266554,1,0,0:0:0:0:
320,192,266554,1,0,0:0:0:0:
448,192,266554,1,0,0:0:0:0:
192,192,266611,1,0,0:0:0:0:
64,192,266669,128,0,266842:0:0:0:0:
320,192,266669,128,0,266842:0:0:0:0:
448,192,266669,128,0,266842:0:0:0:0:
192,192,266784,1,0,0:0:0:0:
320,192,266900,1,0,0:0:0:0:
64,192,266900,1,0,0:0:0:0:
192,192,266900,1,0,0:0:0:0:
448,192,266957,1,0,0:0:0:0:
320,192,267015,128,0,267073:0:0:0:0:
192,192,267015,128,0,267131:0:0:0:0:
64,192,267015,128,0,267188:0:0:0:0:
448,192,267073,128,0,267188:0:0:0:0:
320,192,267131,128,0,267188:0:0:0:0:
192,192,267188,128,0,267246:0:0:0:0:
320,192,267246,1,0,0:0:0:0:
448,192,267246,1,0,0:0:0:0:
64,192,267246,1,0,0:0:0:0:
192,192,267304,1,0,0:0:0:0:
320,192,267361,128,0,267477:0:0:0:0:
448,192,267361,128,0,267419:0:0:0:0:
64,192,267361,128,0,267534:0:0:0:0:
192,192,267419,128,0,267534:0:0:0:0:
448,192,267477,128,0,267534:0:0:0:0:
320,192,267534,128,0,267592:0:0:0:0:
64,192,267592,128,0,267650:0:0:0:0:
192,192,267592,128,0,267650:0:0:0:0:
448,192,267592,128,0,267650:0:0:0:0:
448,192,267707,128,0,267765:0:0:0:0:
320,192,267707,128,0,267765:0:0:0:0:
192,192,267707,128,0,267765:0:0:0:0:
320,192,267823,128,0,267881:0:0:0:0:
64,192,267823,128,0,267881:0:0:0:0:
192,192,267823,128,0,267881:0:0:0:0:
320,192,267938,128,0,267996:0:0:0:0:
448,192,267938,128,0,268054:0:0:0:0:
64,192,267938,128,0,267996:0:0:0:0:
192,192,267996,128,0,268111:0:0:0:0:
320,192,268054,128,0,268111:0:0:0:0:
64,192,268054,128,0,268111:0:0:0:0:
448,192,268111,128,0,268169:0:0:0:0:
320,192,268169,128,0,268284:0:0:0:0:
192,192,268169,128,0,268227:0:0:0:0:
64,192,268169,128,0,268227:0:0:0:0:
448,192,268227,128,0,268342:0:0:0:0:
64,192,268284,128,0,268342:0:0:0:0:
192,192,268284,128,0,268400:0:0:0:0:
320,192,268342,128,0,268457:0:0:0:0:
448,192,268400,128,0,268457:0:0:0:0:
64,192,268400,128,0,268457:0:0:0:0:
192,192,268457,128,0,268515:0:0:0:0:
448,192,268515,128,0,268544:0:0:0:0:
320,192,268515,128,0,268544:0:0:0:0:
64,192,268515,128,0,268544:0:0:0:0:
64,192,268631,128,0,268688:0:0:0:0:
320,192,268631,128,0,268688:0:0:0:0:
448,192,268631,128,0,268688:0:0:0:0:
448,192,268746,128,0,268832:0:0:0:0:
320,192,268746,128,0,268832:0:0:0:0:
64,192,268746,128,0,268832:0:0:0:0:
192,192,268861,128,0,268890:0:0:0:0:
64,192,268861,128,0,268890:0:0:0:0:
448,192,268861,128,0,268890:0:0:0:0:
192,192,268977,128,0,269034:0:0:0:0:
64,192,268977,128,0,269034:0:0:0:0:
448,192,268977,128,0,269034:0:0:0:0:
448,192,269092,128,0,269179:0:0:0:0:
64,192,269092,128,0,269179:0:0:0:0:
192,192,269092,128,0,269179:0:0:0:0:
448,192,269207,128,0,269265:0:0:0:0:
320,192,269207,128,0,269265:0:0:0:0:
192,192,269265,128,0,269323:0:0:0:0:
64,192,269265,128,0,269323:0:0:0:0:
320,192,269323,128,0,269381:0:0:0:0:
448,192,269323,128,0,269381:0:0:0:0:
64,192,269381,128,0,269438:0:0:0:0:
192,192,269381,128,0,269496:0:0:0:0:
320,192,269438,128,0,269496:0:0:0:0:
448,192,269438,128,0,269496:0:0:0:0:
64,192,269496,1,0,0:0:0:0:
448,192,269554,128,0,269611:0:0:0:0:
320,192,269554,128,0,269669:0:0:0:0:
192,192,269554,128,0,269784:0:0:0:0:
64,192,269611,128,0,269727:0:0:0:0:
448,192,269669,128,0,269784:0:0:0:0:
320,192,269727,128,0,269784:0:0:0:0:
64,192,269784,1,0,0:0:0:0:
320,192,269813,128,0,269871:0:0:0:0:
192,192,269842,128,0,269900:0:0:0:0:
448,192,269871,128,0,269929:0:0:0:0:
320,192,269900,128,0,269957:0:0:0:0:
64,192,269900,128,0,269957:0:0:0:0:
192,192,269957,128,0,270015:0:0:0:0:
320,192,270015,128,0,270073:0:0:0:0:
448,192,270044,128,0,270102:0:0:0:0:
64,192,270073,128,0,270131:0:0:0:0:
192,192,270102,128,0,270159:0:0:0:0:
320,192,270131,128,0,270188:0:0:0:0:
448,192,270131,128,0,270188:0:0:0:0:
64,192,270188,128,0,270246:0:0:0:0:
320,192,270246,128,0,270304:0:0:0:0:
192,192,270246,128,0,270361:0:0:0:0:
448,192,270246,128,0,270477:0:0:0:0:
64,192,270304,128,0,270419:0:0:0:0:
320,192,270361,128,0,270419:0:0:0:0:
192,192,270419,128,0,270534:0:0:0:0:
64,192,270477,128,0,270534:0:0:0:0:
320,192,270477,128,0,270534:0:0:0:0:
448,192,270534,128,0,270592:0:0:0:0:
320,192,270592,128,0,270707:0:0:0:0:
192,192,270592,128,0,270650:0:0:0:0:
64,192,270592,128,0,270650:0:0:0:0:
448,192,270650,128,0,270765:0:0:0:0:
192,192,270707,128,0,270765:0:0:0:0:
64,192,270707,128,0,270765:0:0:0:0:
320,192,270765,128,0,270823:0:0:0:0:
448,192,270823,128,0,270852:0:0:0:0:
192,192,270823,128,0,270852:0:0:0:0:
64,192,270823,128,0,270852:0:0:0:0:
192,192,270881,128,0,270938:0:0:0:0:
448,192,270938,128,0,270996:0:0:0:0:
320,192,270938,128,0,271054:0:0:0:0:
64,192,270938,128,0,271111:0:0:0:0:
192,192,270996,128,0,271111:0:0:0:0:
448,192,271054,128,0,271111:0:0:0:0:
320,192,271111,128,0,271169:0:0:0:0:
448,192,271169,128,0,271342:0:0:0:0:
192,192,271169,128,0,271227:0:0:0:0:
64,192,271169,128,0,271284:0:0:0:0:
320,192,271227,128,0,271342:0:0:0:0:
192,192,271284,128,0,271342:0:0:0:0:
64,192,271342,128,0,271400:0:0:0:0:
192,192,271400,128,0,271515:0:0:0:0:
448,192,271400,128,0,271457:0:0:0:0:
320,192,271400,128,0,271515:0:0:0:0:
64,192,271457,128,0,271515:0:0:0:0:
448,192,271515,128,0,271573:0:0:0:0:
192,192,271544,128,0,271602:0:0:0:0:
320,192,271573,128,0,271631:0:0:0:0:
64,192,271602,128,0,271659:0:0:0:0:
192,192,271631,128,0,271688:0:0:0:0:
448,192,271631,128,0,271688:0:0:0:0:
320,192,271688,128,0,271746:0:0:0:0:
64,192,271746,128,0,271804:0:0:0:0:
448,192,271775,128,0,271832:0:0:0:0:
192,192,271804,128,0,271861:0:0:0:0:
320,192,271832,128,0,271861:0:0:0:0:
64,192,271861,128,0,271919:0:0:0:0:
448,192,271861,128,0,271919:0:0:0:0:
192,192,271919,128,0,271977:0:0:0:0:
448,192,271977,128,0,272034:0:0:0:0:
320,192,271977,128,0,272034:0:0:0:0:
64,192,271977,128,0,272034:0:0:0:0:
192,192,272034,128,0,272092:0:0:0:0:
320,192,272092,128,0,272150:0:0:0:0:
64,192,272092,128,0,272150:0:0:0:0:
448,192,272150,128,0,272207:0:0:0:0:
320,192,272207,128,0,272323:0:0:0:0:
192,192,272207,128,0,272265:0:0:0:0:
64,192,272207,128,0,272265:0:0:0:0:
448,192,272265,128,0,272323:0:0:0:0:
192,192,272323,128,0,272381:0:0:0:0:
64,192,272323,128,0,272381:0:0:0:0:
320,192,272381,128,0,272438:0:0:0:0:
448,192,272381,128,0,272496:0:0:0:0:
192,192,272438,128,0,272496:0:0:0:0:
64,192,272438,128,0,272496:0:0:0:0:
320,192,272496,128,0,272554:0:0:0:0:
448,192,272554,128,0,272611:0:0:0:0:
192,192,272554,128,0,272611:0:0:0:0:
64,192,272554,128,0,272727:0:0:0:0:
320,192,272611,128,0,272727:0:0:0:0:
192,192,272669,1,0,0:0:0:0:
448,192,272669,128,0,272727:0:0:0:0:
192,192,272727,1,0,0:0:0:0:
448,192,272784,128,0,272842:0:0:0:0:
320,192,272784,128,0,272842:0:0:0:0:
64,192,272784,128,0,272842:0:0:0:0:
192,192,272842,128,0,272900:0:0:0:0:
448,192,272900,128,0,273015:0:0:0:0:
192,192,272957,128,0,273073:0:0:0:0:
320,192,273015,128,0,273073:0:0:0:0:
64,192,273015,128,0,273073:0:0:0:0:
448,192,273073,128,0,273131:0:0:0:0:
320,192,273131,128,0,273246:0:0:0:0:
64,192,273131,128,0,273188:0:0:0:0:
192,192,273131,128,0,273304:0:0:0:0:
448,192,273188,128,0,273361:0:0:0:0:
64,192,273246,128,0,273361:0:0:0:0:
320,192,273304,128,0,273361:0:0:0:0:
192,192,273361,128,0,273419:0:0:0:0:
448,192,273390,128,0,273448:0:0:0:0:
64,192,273419,128,0,273477:0:0:0:0:
320,192,273448,128,0,273506:0:0:0:0:
448,192,273477,128,0,273534:0:0:0:0:
192,192,273477,128,0,273534:0:0:0:0:
64,192,273534,128,0,273592:0:0:0:0:
320,192,273592,128,0,273650:0:0:0:0:
64,192,273650,128,0,273707:0:0:0:0:
448,192,273707,128,0,273736:0:0:0:0:
320,192,273707,128,0,273736:0:0:0:0:
192,192,273707,128,0,273736:0:0:0:0:
64,192,273765,128,0,273823:0:0:0:0:
192,192,273823,128,0,273852:0:0:0:0:
320,192,273823,128,0,273852:0:0:0:0:
448,192,273823,128,0,273852:0:0:0:0:
320,192,273881,128,0,273938:0:0:0:0:
448,192,273938,128,0,274025:0:0:0:0:
192,192,273938,128,0,274025:0:0:0:0:
64,192,273938,128,0,274025:0:0:0:0:
192,192,274054,128,0,274140:0:0:0:0:
320,192,274054,128,0,274140:0:0:0:0:
448,192,274169,128,0,274256:0:0:0:0:
320,192,274169,128,0,274256:0:0:0:0:
64,192,274169,128,0,274256:0:0:0:0:
192,192,274284,128,0,274371:0:0:0:0:
448,192,274284,128,0,274371:0:0:0:0:
320,192,274400,128,0,274515:0:0:0:0:
192,192,274400,128,0,274457:0:0:0:0:
64,192,274400,128,0,274457:0:0:0:0:
448,192,274457,128,0,274573:0:0:0:0:
192,192,274515,128,0,274631:0:0:0:0:
64,192,274515,128,0,274573:0:0:0:0:
320,192,274573,128,0,274688:0:0:0:0:
448,192,274631,128,0,274688:0:0:0:0:
64,192,274631,128,0,274688:0:0:0:0:
192,192,274688,128,0,274746:0:0:0:0:
448,192,274746,128,0,274804:0:0:0:0:
320,192,274746,128,0,274804:0:0:0:0:
64,192,274746,128,0,274919:0:0:0:0:
192,192,274804,128,0,274861:0:0:0:0:
448,192,274861,128,0,274919:0:0:0:0:
320,192,274861,128,0,274977:0:0:0:0:
192,192,274919,128,0,275034:0:0:0:0:
64,192,274977,128,0,275034:0:0:0:0:
448,192,274977,128,0,275034:0:0:0:0:
320,192,275034,128,0,275092:0:0:0:0:
192,192,275092,128,0,275150:0:0:0:0:
448,192,275092,128,0,275150:0:0:0:0:
64,192,275092,128,0,275207:0:0:0:0:
320,192,275150,128,0,275265:0:0:0:0:
448,192,275207,128,0,275265:0:0:0:0:
192,192,275207,128,0,275323:0:0:0:0:
64,192,275265,128,0,275381:0:0:0:0:
320,192,275323,128,0,275381:0:0:0:0:
448,192,275323,128,0,275381:0:0:0:0:
192,192,275381,128,0,275438:0:0:0:0:
448,192,275438,128,0,275496:0:0:0:0:
320,192,275438,128,0,275554:0:0:0:0:
64,192,275438,128,0,275496:0:0:0:0:
192,192,275496,128,0,275611:0:0:0:0:
64,192,275554,128,0,275611:0:0:0:0:
448,192,275554,128,0,275727:0:0:0:0:
320,192,275611,128,0,275669:0:0:0:0:
64,192,275669,128,0,275727:0:0:0:0:
192,192,275669,128,0,275784:0:0:0:0:
320,192,275727,128,0,275784:0:0:0:0:
64,192,275784,128,0,275842:0:0:0:0:
448,192,275784,128,0,275842:0:0:0:0:
320,192,275842,128,0,275900:0:0:0:0:
192,192,275842,128,0,275900:0:0:0:0:
64,192,275900,128,0,275957:0:0:0:0:
448,192,275900,128,0,275957:0:0:0:0:
320,192,275957,128,0,276015:0:0:0:0:
448,192,276015,128,0,276131:0:0:0:0:
192,192,276015,128,0,276073:0:0:0:0:
64,192,276015,128,0,276188:0:0:0:0:
320,192,276073,128,0,276188:0:0:0:0:
192,192,276131,128,0,276188:0:0:0:0:
448,192,276188,128,0,276246:0:0:0:0:
320,192,276246,1,0,0:0:0:0:
192,192,276246,1,0,0:0:0:0:
64,192,276246,128,0,276275:0:0:0:0:
448,192,276304,1,0,0:0:0:0:
64,192,276361,1,0,0:0:0:0:
320,192,276361,1,0,0:0:0:0:
192,192,276361,128,0,276390:0:0:0:0:
448,192,276419,1,0,0:0:0:0:
192,192,276477,1,0,0:0:0:0:
64,192,276477,1,0,0:0:0:0:
320,192,276477,128,0,276506:0:0:0:0:
448,192,276534,128,0,276650:0:0:0:0:
320,192,276592,128,0,276650:0:0:0:0:
64,192,276650,1,0,0:0:0:0:
192,192,276650,1,0,0:0:0:0:
320,192,276707,128,0,276765:0:0:0:0:
64,192,276707,128,0,276765:0:0:0:0:
448,192,276707,128,0,276765:0:0:0:0:
192,192,276765,128,0,276881:0:0:0:0:
320,192,276823,128,0,276938:0:0:0:0:
448,192,276881,128,0,276938:0:0:0:0:
64,192,276938,1,0,0:0:0:0:
192,192,276938,1,0,0:0:0:0:
320,192,276996,1,0,0:0:0:0:
448,192,276996,1,0,0:0:0:0:
192,192,277054,128,0,277111:0:0:0:0:
448,192,277054,128,0,277111:0:0:0:0:
64,192,277054,128,0,277111:0:0:0:0:
320,192,277111,128,0,277227:0:0:0:0:
192,192,277169,128,0,277227:0:0:0:0:
64,192,277227,1,0,0:0:0:0:
448,192,277284,128,0,277342:0:0:0:0:
320,192,277299,128,0,277342:0:0:0:0:
192,192,277299,128,0,277342:0:0:0:0:
64,192,277313,128,0,277342:0:0:0:0:
64,192,277400,128,0,277457:0:0:0:0:
192,192,277414,128,0,277457:0:0:0:0:
320,192,277414,128,0,277457:0:0:0:0:
448,192,277429,128,0,277457:0:0:0:0:
192,192,277515,128,0,277554:0:0:0:0:
64,192,277515,128,0,277592:0:0:0:0:
320,192,277554,128,0,277631:0:0:0:0:
192,192,277592,128,0,277669:0:0:0:0:
64,192,277631,128,0,277707:0:0:0:0:
448,192,277631,128,0,277707:0:0:0:0:
320,192,277669,128,0,277746:0:0:0:0:
192,192,277707,128,0,277784:0:0:0:0:
448,192,277746,128,0,277823:0:0:0:0:
64,192,277784,128,0,277823:0:0:0:0:
192,192,277823,128,0,277861:0:0:0:0:
64,192,277861,128,0,277919:0:0:0:0:
320,192,277861,128,0,277977:0:0:0:0:
448,192,277861,128,0,278034:0:0:0:0:
192,192,277977,128,0,278034:0:0:0:0:
64,192,277977,128,0,278034:0:0:0:0:
320,192,278034,128,0,278092:0:0:0:0:
448,192,278092,128,0,278150:0:0:0:0:
64,192,278092,128,0,278150:0:0:0:0:
192,192,278092,128,0,278179:0:0:0:0:
320,192,278150,128,0,278207:0:0:0:0:
64,192,278207,1,0,0:0:0:0:
448,192,278207,128,0,278236:0:0:0:0:
192,192,278236,1,0,0:0:0:0:
320,192,278265,1,0,0:0:0:0:
448,192,278294,1,0,0:0:0:0:
192,192,278323,128,0,278381:0:0:0:0:
64,192,278323,128,0,278381:0:0:0:0:
448,192,278381,128,0,278438:0:0:0:0:
320,192,278381,128,0,278496:0:0:0:0:
192,192,278438,128,0,278496:0:0:0:0:
64,192,278438,128,0,278496:0:0:0:0:
448,192,278496,128,0,278611:0:0:0:0:
320,192,278554,128,0,278611:0:0:0:0:
192,192,278554,128,0,278611:0:0:0:0:
64,192,278554,128,0,278669:0:0:0:0:
192,192,278669,128,0,278784:0:0:0:0:
320,192,278669,128,0,278727:0:0:0:0:
448,192,278669,128,0,278842:0:0:0:0:
64,192,278727,128,0,278842:0:0:0:0:
320,192,278784,128,0,278900:0:0:0:0:
192,192,278842,128,0,278900:0:0:0:0:
64,192,278900,1,0,0:0:0:0:
448,192,278900,1,0,0:0:0:0:
320,192,279015,128,0,279073:0:0:0:0:
192,192,279015,128,0,279073:0:0:0:0:
64,192,279030,128,0,279073:0:0:0:0:
448,192,279030,128,0,279073:0:0:0:0:
448,192,279131,128,0,279188:0:0:0:0:
64,192,279131,128,0,279188:0:0:0:0:
320,192,279145,128,0,279188:0:0:0:0:
192,192,279145,128,0,279188:0:0:0:0:
448,192,279246,128,0,279477:0:0:0:0:
192,192,279246,128,0,279304:0:0:0:0:
64,192,279246,128,0,279361:0:0:0:0:
320,192,279304,128,0,279477:0:0:0:0:
192,192,279361,128,0,279419:0:0:0:0:
64,192,279419,128,0,279477:0:0:0:0:
192,192,279477,128,0,279506:0:0:0:0:
64,192,279506,128,0,279534:0:0:0:0:
320,192,279534,128,0,279563:0:0:0:0:
448,192,279534,128,0,279563:0:0:0:0:
320,192,279592,128,0,279621:0:0:0:0:
448,192,279621,128,0,279650:0:0:0:0:
64,192,279650,128,0,279679:0:0:0:0:
192,192,279650,128,0,279679:0:0:0:0:
320,192,279707,128,0,279765:0:0:0:0:
448,192,279707,128,0,279765:0:0:0:0:
64,192,279707,128,0,279765:0:0:0:0:
320,192,279823,128,0,279881:0:0:0:0:
192,192,279823,128,0,279881:0:0:0:0:
448,192,279823,128,0,279881:0:0:0:0:
320,192,279938,128,0,279996:0:0:0:0:
192,192,279938,128,0,280054:0:0:0:0:
64,192,279938,128,0,279996:0:0:0:0:
448,192,279996,128,0,280111:0:0:0:0:
320,192,280054,128,0,280111:0:0:0:0:
64,192,280054,128,0,280169:0:0:0:0:
192,192,280111,128,0,280169:0:0:0:0:
320,192,280169,128,0,280227:0:0:0:0:
448,192,280169,128,0,280227:0:0:0:0:
64,192,280227,128,0,280284:0:0:0:0:
192,192,280227,128,0,280342:0:0:0:0:
320,192,280284,128,0,280342:0:0:0:0:
448,192,280284,128,0,280342:0:0:0:0:
64,192,280342,128,0,280400:0:0:0:0:
448,192,280400,128,0,280457:0:0:0:0:
320,192,280400,128,0,280457:0:0:0:0:
192,192,280400,128,0,280457:0:0:0:0:
64,192,280457,128,0,280573:0:0:0:0:
320,192,280515,128,0,280573:0:0:0:0:
192,192,280573,128,0,280631:0:0:0:0:
320,192,280631,128,0,280688:0:0:0:0:
448,192,280631,128,0,280688:0:0:0:0:
64,192,280631,128,0,280688:0:0:0:0:
192,192,280688,128,0,280804:0:0:0:0:
448,192,280746,128,0,280804:0:0:0:0:
320,192,280804,128,0,280861:0:0:0:0:
448,192,280861,128,0,281034:0:0:0:0:
64,192,280861,128,0,280919:0:0:0:0:
192,192,280861,128,0,281092:0:0:0:0:
320,192,280919,128,0,280977:0:0:0:0:
64,192,280977,128,0,281034:0:0:0:0:
320,192,281034,128,0,281092:0:0:0:0:
64,192,281092,128,0,281131:0:0:0:0:
448,192,281092,128,0,281131:0:0:0:0:
192,192,281131,128,0,281169:0:0:0:0:
320,192,281169,128,0,281207:0:0:0:0:
448,192,281207,128,0,281246:0:0:0:0:
64,192,281207,128,0,281246:0:0:0:0:
320,192,281246,128,0,281284:0:0:0:0:
192,192,281284,128,0,281323:0:0:0:0:
448,192,281323,1,0,0:0:0:0:
320,192,281323,1,0,0:0:0:0:
64,192,281323,1,0,0:0:0:0:
192,192,281381,1,0,0:0:0:0:
448,192,281438,128,0,281554:0:0:0:0:
320,192,281438,128,0,281496:0:0:0:0:
64,192,281438,128,0,281496:0:0:0:0:
192,192,281496,128,0,281611:0:0:0:0:
64,192,281554,5,0,0:0:0:0:
320,192,281554,128,0,281669:0:0:0:0:
448,192,281611,128,0,281669:0:0:0:0:
192,192,281669,128,0,281727:0:0:0:0:
64,192,281669,128,0,281727:0:0:0:0:
320,192,281727,128,0,281784:0:0:0:0:
448,192,281727,128,0,281842:0:0:0:0:
192,192,281784,128,0,281842:0:0:0:0:
64,192,281784,128,0,281842:0:0:0:0:
320,192,281842,128,0,281900:0:0:0:0:
448,192,281900,1,0,0:0:0:0:
192,192,281900,1,0,0:0:0:0:
64,192,281900,1,0,0:0:0:0:
320,192,281957,1,0,0:0:0:0:
448,192,282015,128,0,282073:0:0:0:0:
192,192,282015,128,0,282073:0:0:0:0:
64,192,282015,128,0,282073:0:0:0:0:
320,192,282073,1,0,0:0:0:0:
192,192,282130,1,0,0:0:0:0:
448,192,282130,1,0,0:0:0:0:
192,192,282188,1,0,0:0:0:0:
320,192,282246,128,0,282304:0:0:0:0:
448,192,282246,128,0,282361:0:0:0:0:
64,192,282246,128,0,282419:0:0:0:0:
192,192,282304,128,0,282419:0:0:0:0:
320,192,282361,128,0,282419:0:0:0:0:
448,192,282419,128,0,282477:0:0:0:0:
320,192,282477,128,0,282534:0:0:0:0:
192,192,282477,128,0,282592:0:0:0:0:
64,192,282477,128,0,282650:0:0:0:0:
448,192,282534,128,0,282650:0:0:0:0:
320,192,282592,128,0,282650:0:0:0:0:
192,192,282650,128,0,282707:0:0:0:0:
