osu file format v14

[General]
AudioFilename: audio.ogg
AudioLeadIn: 0
PreviewTime: 255478
Countdown: 0
SampleSet: None
StackLeniency: 0.7
Mode: 3
LetterboxInBreaks: 0
SpecialStyle: 0
WidescreenStoryboard: 1

[Editor]
DistanceSpacing: 1.5
BeatDivisor: 8
GridSize: 32
TimelineZoom: 3.799998

[Metadata]
Title:<> ~Truth in Uncertainty~ LN Training
TitleUnicode:《/nttld.:beings》 ~Truth in Uncertainty~ LN Training
Artist:GTS Sound Team
ArtistUnicode:GTS Sound Team
Creator:ytGrapeFrootZ34
Version:14+15+16+17+18+19
Source:Expert Global Taiko Showdown 2022
Tags:LN, ena, ezmmr, upan, castella, suddendeath, onta, Hylotl, SoraIro-' , Marathon, Cicada, Longnote, stream, jack, speed, tech, burst
BeatmapID:4556964
BeatmapSetID:2160950

[Difficulty]
HPDrainRate:6
CircleSize:4
OverallDifficulty:6.6
ApproachRate:5
SliderMultiplier:1.4
SliderTickRate:1

[Events]
//Background and Video events
0,0,"bgggg.jpg",0,0
//Break Periods
//Storyboard Layer 0 (Background)
//Storyboard Layer 1 (Fail)
//Storyboard Layer 2 (Pass)
//Storyboard Layer 3 (Foreground)
//Storyboard Layer 4 (Overlay)
//Storyboard Sound Samples

[TimingPoints]
1073,272.727272727273,5,1,0,50,1,8
1073,-84.7457627118644,5,1,0,50,0,8
2164,272.727272727273,4,1,0,50,1,0
2164,-84.7457627118644,4,1,0,50,0,0
63232,272.727272727273,4,1,0,50,1,0
63232,-84.7457627118644,4,1,0,50,0,0
78505,272.727272727273,4,1,0,50,1,0
78505,-84.7457627118644,4,1,0,50,0,0
98141,272.727272727273,4,1,0,50,1,0
98141,-84.7457627118644,4,1,0,50,0,0
124322,266.666666666667,4,1,0,50,1,0
124322,-86.2068965517241,4,1,0,50,0,0
125388,250,4,1,0,50,1,0
125388,-92.5925925925926,4,1,0,50,0,0
126388,235.294117647059,4,1,0,50,1,0
126388,-98.0392156862745,4,1,0,50,0,0
127329,222.222222222222,4,1,0,50,1,0
127329,-104.166666666667,4,1,0,50,0,0
128217,210.526315789474,4,1,0,50,1,0
128217,-109.89010989011,4,1,0,50,0,0
129059,200,4,1,0,50,1,0
129059,-114.942528735632,4,1,0,50,0,0
130659,230.769230769231,5,1,0,50,1,0
130659,-100,5,1,0,50,0,0
131725,526.315789473684,727,1,0,50,1,0
131725,-43.859649122807,727,1,0,50,0,0
140124,523.331879633668,8,1,0,50,1,0
140124,-44.0528634361233,8,1,0,50,0,0
148497,523.331879633668,8,1,0,50,1,8
148497,-44.0528634361233,8,1,0,50,0,8
149282,545.454545454546,4,1,0,50,1,0
149282,-42.3728813559322,4,1,0,50,0,0
156907,272.727272727273,4,1,0,50,1,0
156907,-84.7457627118644,4,1,0,50,0,0
157997,300,4,1,0,50,1,0
157997,-76.9230769230769,4,1,0,50,0,0
179597,300,4,1,0,50,1,0
179597,-76.9230769230769,4,1,0,50,0,0
196397,300,4,1,0,50,1,0
196397,-76.9230769230769,4,1,0,50,0,0
220397,400,4,1,0,50,1,8
220397,-57.8034682080925,4,1,0,50,0,8
220418,400,3,1,0,50,1,0
220418,-57.8034682080925,3,1,0,50,0,0
227318,400,6,1,0,50,1,0
227318,-57.8034682080925,6,1,0,50,0,0
229418,400,3,1,0,50,1,0
229418,-57.8034682080925,3,1,0,50,0,0
234218,400,6,1,0,50,1,0
234218,-57.8034682080925,6,1,0,50,0,0
236318,400,3,1,0,50,1,0
236318,-57.8034682080925,3,1,0,50,0,0
237218,400,3,1,0,50,1,8
237218,-57.8034682080925,3,1,0,50,0,8
238418,333.333333333334,4,1,0,50,1,0
238418,-69.4444444444444,4,1,0,50,0,0
238751,300,4,1,0,50,1,8
238751,-76.9230769230769,4,1,0,50,0,8
239051,272.727272727273,4,1,0,50,1,8
239051,-84.7457627118644,4,1,0,50,0,8
239596,260.869565217391,4,1,0,50,1,0
239596,-88.495575221239,4,1,0,50,0,0
239856,272.727272727273,4,1,0,50,1,8
239856,-84.7457627118644,4,1,0,50,0,8
240128,260.869565217391,4,1,0,50,1,8
240128,-88.495575221239,4,1,0,50,0,8
240649,260.869565217391,4,1,0,50,1,0
240649,-88.495575221239,4,1,0,50,0,0
240910,250,4,1,0,50,1,8
240910,-92.5925925925926,4,1,0,50,0,8
241160,244.897959183673,4,1,0,50,1,8
241160,-94.3396226415094,4,1,0,50,0,8
241404,240,4,1,0,50,1,8
241404,-96.1538461538461,4,1,0,50,0,8
241644,235.294117647059,4,1,0,50,1,0
241644,-98.0392156862745,4,1,0,50,0,0
242555,230.769230769231,4,1,0,50,1,0
242555,-100,4,1,0,50,0,0
255478,230.769230769231,5,1,0,50,1,0
255478,-100,5,1,0,50,0,0
256631,230.769230769231,4,1,0,50,1,0
256631,-100,4,1,0,50,0,0
281554,230.769230769231,5,1,0,50,1,0
281554,-100,5,1,0,50,0,0
282707,230.769230769231,4,1,0,50,1,0
282707,-100,4,1,0,50,0,0
283630,230.769230769231,5,1,0,50,1,0
283630,-100,5,1,0,50,0,0
284783,230.769230769231,4,1,0,50,1,0
284783,-100,4,1,0,50,0,0
288475,230.769230769231,6,1,0,50,1,0
288475,-100,6,1,0,50,0,0
291244,230.769230769231,6,1,0,50,1,0
291244,-100,6,1,0,50,0,0
324474,230.769230769231,8,1,0,50,1,0
324474,-100,8,1,0,50,0,0
326320,230.769230769231,4,1,0,50,1,0
326320,-100,4,1,0,50,0,0
370627,224.299065420561,4,1,0,50,1,0
370627,-103.092783505155,4,1,0,50,0,0
372421,218.181818181818,4,1,0,50,1,0
372421,-105.263157894737,4,1,0,50,0,0
374166,212.389380530973,4,1,0,50,1,0
374166,-108.695652173913,4,1,0,50,0,0
375865,206.896551724138,4,1,0,50,1,0
375865,-111.111111111111,4,1,0,50,0,0
377520,206.896551724138,4,1,0,50,1,0
377520,-111.111111111111,4,1,0,50,0,0
410623,413.793103448276,4,1,0,50,1,0
410623,-55.8659217877095,4,1,0,50,0,0

[Colours]
Combo1 : 255,121,124
Combo2 : 255,255,255
Combo3 : 170,170,170

[HitObjects]
192,192,238418,128,0,238501:0:0:0:0:
64,192,238418,128,0,238501:0:0:0:0:
320,192,238501,128,0,238668:0:0:0:0:
192,192,238584,128,0,238751:0:0:0:0:
64,192,238668,128,0,238751:0:0:0:0:
448,192,238751,128,0,238826:0:0:0:0:
320,192,238751,128,0,238826:0:0:0:0:
192,192,238826,128,0,238976:0:0:0:0:
320,192,238901,128,0,239051:0:0:0:0:
448,192,238976,128,0,239051:0:0:0:0:
192,192,239051,128,0,239119:0:0:0:0:
64,192,239051,128,0,239119:0:0:0:0:
320,192,239119,128,0,239255:0:0:0:0:
448,192,239187,128,0,239255:0:0:0:0:
64,192,239255,128,0,239323:0:0:0:0:
320,192,239323,128,0,239391:0:0:0:0:
448,192,239323,128,0,239391:0:0:0:0:
192,192,239391,128,0,239528:0:0:0:0:
64,192,239460,128,0,239528:0:0:0:0:
448,192,239528,128,0,239596:0:0:0:0:
192,192,239596,128,0,239661:0:0:0:0:
64,192,239596,128,0,239661:0:0:0:0:
448,192,239661,128,0,239791:0:0:0:0:
64,192,239726,128,0,239856:0:0:0:0:
192,192,239791,128,0,239856:0:0:0:0:
320,192,239856,128,0,239924:0:0:0:0:
448,192,239856,128,0,239924:0:0:0:0:
64,192,239924,128,0,240060:0:0:0:0:
448,192,239992,128,0,240128:0:0:0:0:
320,192,240060,128,0,240128:0:0:0:0:
192,192,240128,128,0,240193:0:0:0:0:
64,192,240128,128,0,240193:0:0:0:0:
320,192,240193,128,0,240323:0:0:0:0:
192,192,240258,128,0,240388:0:0:0:0:
64,192,240323,128,0,240388:0:0:0:0:
448,192,240388,128,0,240454:0:0:0:0:
320,192,240388,128,0,240454:0:0:0:0:
192,192,240454,128,0,240584:0:0:0:0:
320,192,240519,128,0,240649:0:0:0:0:
448,192,240584,128,0,240649:0:0:0:0:
192,192,240649,128,0,240779:0:0:0:0:
64,192,240649,128,0,240779:0:0:0:0:
320,192,240714,128,0,240844:0:0:0:0:
448,192,240779,128,0,240844:0:0:0:0:
64,192,240844,128,0,240910:0:0:0:0:
320,192,240910,128,0,241035:0:0:0:0:
448,192,240910,128,0,241035:0:0:0:0:
192,192,240972,128,0,241097:0:0:0:0:
64,192,241035,128,0,241097:0:0:0:0:
448,192,241097,128,0,241160:0:0:0:0:
192,192,241160,128,0,241282:0:0:0:0:
64,192,241160,128,0,241221:0:0:0:0:
320,192,241221,128,0,241343:0:0:0:0:
64,192,241282,128,0,241404:0:0:0:0:
192,192,241343,128,0,241404:0:0:0:0:
320,192,241404,128,0,241524:0:0:0:0:
448,192,241404,128,0,241464:0:0:0:0:
192,192,241464,128,0,241584:0:0:0:0:
448,192,241524,128,0,241584:0:0:0:0:
320,192,241584,128,0,241644:0:0:0:0:
448,192,241644,128,0,241820:0:0:0:0:
192,192,241644,128,0,241761:0:0:0:0:
64,192,241644,128,0,241702:0:0:0:0:
320,192,241702,128,0,241820:0:0:0:0:
64,192,241761,128,0,241820:0:0:0:0:
192,192,241820,128,0,241879:0:0:0:0:
64,192,241879,128,0,242026:0:0:0:0:
448,192,241879,128,0,241938:0:0:0:0:
320,192,241879,128,0,241938:0:0:0:0:
192,192,241938,128,0,242055:0:0:0:0:
320,192,241996,128,0,242085:0:0:0:0:
448,192,242055,128,0,242114:0:0:0:0:
64,192,242114,128,0,242144:0:0:0:0:
192,192,242144,128,0,242173:0:0:0:0:
320,192,242173,128,0,242202:0:0:0:0:
448,192,242202,128,0,242232:0:0:0:0:
64,192,242232,128,0,242261:0:0:0:0:
192,192,242232,128,0,242261:0:0:0:0:
320,192,242291,128,0,242320:0:0:0:0:
448,192,242291,128,0,242320:0:0:0:0:
192,192,242349,128,0,242379:0:0:0:0:
64,192,242349,128,0,242379:0:0:0:0:
448,192,242467,1,0,0:0:0:0:
320,192,242467,1,0,0:0:0:0:
64,192,242467,1,0,0:0:0:0:
192,192,242555,128,0,242728:0:0:0:0:
64,192,242555,128,0,242612:0:0:0:0:
448,192,242555,128,0,242728:0:0:0:0:
320,192,242612,128,0,242728:0:0:0:0:
64,192,242670,1,0,0:0:0:0:
64,192,242728,128,0,242785:0:0:0:0:
448,192,242785,1,0,0:0:0:0:
320,192,242785,1,0,0:0:0:0:
192,192,242785,1,0,0:0:0:0:
64,192,242901,128,0,243074:0:0:0:0:
320,192,242901,128,0,243074:0:0:0:0:
448,192,242901,128,0,242958:0:0:0:0:
192,192,242958,128,0,243074:0:0:0:0:
448,192,243016,1,0,0:0:0:0:
448,192,243074,128,0,243131:0:0:0:0:
192,192,243131,1,0,0:0:0:0:
320,192,243131,1,0,0:0:0:0:
64,192,243131,1,0,0:0:0:0:
448,192,243247,128,0,243305:0:0:0:0:
320,192,243247,128,0,243362:0:0:0:0:
192,192,243247,128,0,243305:0:0:0:0:
64,192,243305,128,0,243420:0:0:0:0:
192,192,243362,128,0,243420:0:0:0:0:
448,192,243362,128,0,243420:0:0:0:0:
320,192,243420,128,0,243478:0:0:0:0:
448,192,243478,128,0,243535:0:0:0:0:
192,192,243478,128,0,243535:0:0:0:0:
64,192,243478,128,0,243535:0:0:0:0:
320,192,243535,128,0,243593:0:0:0:0:
192,192,243593,128,0,243651:0:0:0:0:
64,192,243593,128,0,243708:0:0:0:0:
448,192,243593,128,0,243766:0:0:0:0:
320,192,243651,128,0,243766:0:0:0:0:
192,192,243708,128,0,243766:0:0:0:0:
64,192,243766,128,0,243824:0:0:0:0:
320,192,243824,1,0,0:0:0:0:
448,192,243824,1,0,0:0:0:0:
192,192,243824,1,0,0:0:0:0:
192,192,243939,128,0,243997:0:0:0:0:
64,192,243939,128,0,243997:0:0:0:0:
320,192,243939,128,0,243997:0:0:0:0:
448,192,243939,128,0,243997:0:0:0:0:
448,192,244055,128,0,244112:0:0:0:0:
320,192,244055,128,0,244112:0:0:0:0:
192,192,244055,128,0,244112:0:0:0:0:
64,192,244055,128,0,244112:0:0:0:0:
448,192,244170,128,0,244228:0:0:0:0:
320,192,244170,128,0,244343:0:0:0:0:
64,192,244170,128,0,244343:0:0:0:0:
192,192,244228,128,0,244285:0:0:0:0:
448,192,244285,128,0,244343:0:0:0:0:
192,192,244343,128,0,244401:0:0:0:0:
448,192,244401,128,0,244430:0:0:0:0:
320,192,244401,128,0,244430:0:0:0:0:
64,192,244401,128,0,244430:0:0:0:0:
192,192,244458,128,0,244487:0:0:0:0:
64,192,244458,128,0,244487:0:0:0:0:
448,192,244516,128,0,244574:0:0:0:0:
320,192,244545,128,0,244603:0:0:0:0:
192,192,244574,128,0,244631:0:0:0:0:
64,192,244603,128,0,244660:0:0:0:0:
448,192,244631,128,0,244689:0:0:0:0:
320,192,244689,128,0,244776:0:0:0:0:
64,192,244747,128,0,244805:0:0:0:0:
192,192,244776,128,0,244833:0:0:0:0:
448,192,244805,128,0,244862:0:0:0:0:
320,192,244833,128,0,244862:0:0:0:0:
192,192,244862,128,0,244920:0:0:0:0:
64,192,244862,128,0,244920:0:0:0:0:
320,192,244978,128,0,245035:0:0:0:0:
448,192,244978,128,0,245035:0:0:0:0:
64,192,244978,128,0,245035:0:0:0:0:
448,192,245093,128,0,245122:0:0:0:0:
320,192,245093,128,0,245122:0:0:0:0:
192,192,245093,128,0,245122:0:0:0:0:
64,192,245093,128,0,245122:0:0:0:0:
192,192,245151,128,0,245266:0:0:0:0:
448,192,245208,128,0,245324:0:0:0:0:
320,192,245266,128,0,245324:0:0:0:0:
64,192,245324,128,0,245381:0:0:0:0:
192,192,245324,128,0,245439:0:0:0:0:
320,192,245381,128,0,245497:0:0:0:0:
448,192,245381,128,0,245497:0:0:0:0:
64,192,245439,128,0,245555:0:0:0:0:
192,192,245497,128,0,245555:0:0:0:0:
320,192,245555,128,0,245612:0:0:0:0:
448,192,245555,128,0,245612:0:0:0:0:
64,192,245612,128,0,245670:0:0:0:0:
192,192,245612,128,0,245728:0:0:0:0:
320,192,245670,128,0,245728:0:0:0:0:
448,192,245670,128,0,245728:0:0:0:0:
64,192,245728,128,0,245785:0:0:0:0:
448,192,245785,128,0,245862:0:0:0:0:
320,192,245785,128,0,245939:0:0:0:0:
192,192,245824,128,0,245901:0:0:0:0:
64,192,245862,128,0,245939:0:0:0:0:
448,192,245901,128,0,246074:0:0:0:0:
192,192,245939,128,0,246016:0:0:0:0:
320,192,245978,128,0,246055:0:0:0:0:
64,192,246016,128,0,246045:0:0:0:0:
192,192,246045,128,0,246074:0:0:0:0:
320,192,246074,128,0,246103:0:0:0:0:
448,192,246103,128,0,246131:0:0:0:0:
192,192,246131,128,0,246160:0:0:0:0:
64,192,246131,128,0,246160:0:0:0:0:
64,192,246189,128,0,246247:0:0:0:0:
448,192,246247,128,0,246305:0:0:0:0:
320,192,246247,128,0,246305:0:0:0:0:
192,192,246305,128,0,246362:0:0:0:0:
448,192,246362,128,0,246391:0:0:0:0:
320,192,246391,128,0,246420:0:0:0:0:
192,192,246420,128,0,246449:0:0:0:0:
64,192,246449,128,0,246593:0:0:0:0:
448,192,246478,128,0,246506:0:0:0:0:
320,192,246478,128,0,246506:0:0:0:0:
448,192,246535,128,0,246593:0:0:0:0:
192,192,246593,128,0,246651:0:0:0:0:
320,192,246651,128,0,246708:0:0:0:0:
448,192,246708,128,0,246824:0:0:0:0:
192,192,246708,128,0,246824:0:0:0:0:
64,192,246708,128,0,246766:0:0:0:0:
320,192,246766,128,0,246824:0:0:0:0:
64,192,246824,128,0,246862:0:0:0:0:
320,192,246862,128,0,246901:0:0:0:0:
448,192,246862,128,0,246901:0:0:0:0:
192,192,246901,128,0,246939:0:0:0:0:
448,192,246939,128,0,247141:0:0:0:0:
64,192,246939,128,0,247141:0:0:0:0:
320,192,246939,1,0,0:0:0:0:
192,192,246997,1,0,0:0:0:0:
320,192,247055,1,0,0:0:0:0:
192,192,247112,1,0,0:0:0:0:
64,192,247170,128,0,247372:0:0:0:0:
448,192,247170,128,0,247372:0:0:0:0:
320,192,247170,1,0,0:0:0:0:
320,192,247228,1,0,0:0:0:0:
192,192,247285,1,0,0:0:0:0:
192,192,247343,1,0,0:0:0:0:
448,192,247401,128,0,247516:0:0:0:0:
320,192,247401,128,0,247458:0:0:0:0:
64,192,247401,128,0,247574:0:0:0:0:
192,192,247458,128,0,247574:0:0:0:0:
320,192,247516,128,0,247574:0:0:0:0:
448,192,247574,128,0,247631:0:0:0:0:
320,192,247631,1,0,0:0:0:0:
192,192,247631,1,0,0:0:0:0:
64,192,247631,1,0,0:0:0:0:
448,192,247689,1,0,0:0:0:0:
320,192,247747,128,0,247920:0:0:0:0:
192,192,247747,128,0,247805:0:0:0:0:
64,192,247747,128,0,247862:0:0:0:0:
448,192,247805,128,0,247920:0:0:0:0:
192,192,247862,128,0,247920:0:0:0:0:
64,192,247920,128,0,247978:0:0:0:0:
192,192,247978,1,0,0:0:0:0:
320,192,247978,1,0,0:0:0:0:
448,192,247978,1,0,0:0:0:0:
64,192,248035,1,0,0:0:0:0:
320,192,248093,128,0,248208:0:0:0:0:
448,192,248093,128,0,248266:0:0:0:0:
192,192,248093,128,0,248151:0:0:0:0:
64,192,248151,128,0,248266:0:0:0:0:
192,192,248208,128,0,248266:0:0:0:0:
320,192,248266,128,0,248324:0:0:0:0:
192,192,248324,1,0,0:0:0:0:
64,192,248324,1,0,0:0:0:0:
448,192,248324,1,0,0:0:0:0:
320,192,248381,1,0,0:0:0:0:
448,192,248439,128,0,248555:0:0:0:0:
192,192,248439,128,0,248670:0:0:0:0:
64,192,248439,128,0,248497:0:0:0:0:
320,192,248497,128,0,248612:0:0:0:0:
64,192,248555,128,0,248785:0:0:0:0:
448,192,248612,128,0,248728:0:0:0:0:
320,192,248670,128,0,248728:0:0:0:0:
192,192,248728,128,0,248785:0:0:0:0:
448,192,248785,128,0,248843:0:0:0:0:
320,192,248785,128,0,248843:0:0:0:0:
192,192,248843,128,0,248901:0:0:0:0:
64,192,248843,128,0,248901:0:0:0:0:
320,192,248901,128,0,248958:0:0:0:0:
448,192,248901,128,0,248958:0:0:0:0:
192,192,248958,128,0,249016:0:0:0:0:
64,192,248958,128,0,249016:0:0:0:0:
448,192,249016,128,0,249055:0:0:0:0:
192,192,249055,128,0,249093:0:0:0:0:
320,192,249093,128,0,249131:0:0:0:0:
64,192,249131,128,0,249170:0:0:0:0:
448,192,249170,128,0,249208:0:0:0:0:
192,192,249208,128,0,249247:0:0:0:0:
64,192,249247,1,0,0:0:0:0:
320,192,249247,1,0,0:0:0:0:
448,192,249247,1,0,0:0:0:0:
320,192,249305,1,0,0:0:0:0:
448,192,249362,128,0,249535:0:0:0:0:
192,192,249362,128,0,249420:0:0:0:0:
64,192,249362,128,0,249478:0:0:0:0:
320,192,249420,128,0,249535:0:0:0:0:
192,192,249478,128,0,249535:0:0:0:0:
64,192,249535,1,0,0:0:0:0:
192,192,249593,1,0,0:0:0:0:
448,192,249593,1,0,0:0:0:0:
320,192,249593,1,0,0:0:0:0:
64,192,249651,1,0,0:0:0:0:
192,192,249708,128,0,249766:0:0:0:0:
320,192,249708,128,0,249824:0:0:0:0:
448,192,249708,128,0,249881:0:0:0:0:
64,192,249766,128,0,249881:0:0:0:0:
192,192,249824,128,0,249881:0:0:0:0:
320,192,249881,128,0,249939:0:0:0:0:
192,192,249939,1,0,0:0:0:0:
64,192,249939,1,0,0:0:0:0:
448,192,249939,1,0,0:0:0:0:
320,192,249997,1,0,0:0:0:0:
448,192,250055,128,0,250170:0:0:0:0:
192,192,250055,128,0,250112:0:0:0:0:
64,192,250055,128,0,250228:0:0:0:0:
320,192,250112,128,0,250228:0:0:0:0:
192,192,250170,128,0,250228:0:0:0:0:
448,192,250228,128,0,250285:0:0:0:0:
320,192,250285,128,0,250343:0:0:0:0:
64,192,250285,128,0,250343:0:0:0:0:
192,192,250285,128,0,250343:0:0:0:0:
192,192,250401,128,0,250458:0:0:0:0:
320,192,250401,128,0,250458:0:0:0:0:
448,192,250401,128,0,250458:0:0:0:0:
64,192,250516,128,0,250631:0:0:0:0:
320,192,250516,128,0,250631:0:0:0:0:
448,192,250516,128,0,250631:0:0:0:0:
192,192,250631,1,0,0:0:0:0:
320,192,250670,128,0,250708:0:0:0:0:
192,192,250708,128,0,250747:0:0:0:0:
64,192,250747,128,0,250805:0:0:0:0:
320,192,250747,128,0,250805:0:0:0:0:
448,192,250747,128,0,250805:0:0:0:0:
448,192,250862,1,0,0:0:0:0:
64,192,250862,1,0,0:0:0:0:
192,192,250862,1,0,0:0:0:0:
64,192,250978,128,0,251035:0:0:0:0:
448,192,250978,128,0,251035:0:0:0:0:
320,192,250992,128,0,251035:0:0:0:0:
192,192,251006,128,0,251035:0:0:0:0:
448,192,251093,128,0,251151:0:0:0:0:
64,192,251093,128,0,251151:0:0:0:0:
192,192,251107,128,0,251151:0:0:0:0:
320,192,251122,128,0,251151:0:0:0:0:
64,192,251208,128,0,251266:0:0:0:0:
448,192,251208,128,0,251266:0:0:0:0:
320,192,251223,128,0,251266:0:0:0:0:
192,192,251237,128,0,251266:0:0:0:0:
448,192,251324,128,0,251439:0:0:0:0:
320,192,251324,128,0,251381:0:0:0:0:
64,192,251324,128,0,251497:0:0:0:0:
192,192,251381,128,0,251497:0:0:0:0:
320,192,251439,128,0,251497:0:0:0:0:
448,192,251497,128,0,251555:0:0:0:0:
192,192,251555,1,0,0:0:0:0:
64,192,251555,1,0,0:0:0:0:
320,192,251555,1,0,0:0:0:0:
448,192,251612,1,0,0:0:0:0:
320,192,251670,128,0,251785:0:0:0:0:
192,192,251670,128,0,251728:0:0:0:0:
64,192,251670,128,0,251728:0:0:0:0:
448,192,251728,128,0,251843:0:0:0:0:
64,192,251785,128,0,251843:0:0:0:0:
192,192,251785,128,0,251901:0:0:0:0:
320,192,251843,128,0,251901:0:0:0:0:
448,192,251901,1,0,0:0:0:0:
64,192,251901,1,0,0:0:0:0:
192,192,251958,1,0,0:0:0:0:
64,192,252016,128,0,252074:0:0:0:0:
320,192,252016,128,0,252074:0:0:0:0:
448,192,252016,128,0,252074:0:0:0:0:
192,192,252074,1,0,0:0:0:0:
448,192,252131,128,0,252189:0:0:0:0:
320,192,252131,128,0,252189:0:0:0:0:
64,192,252131,128,0,252189:0:0:0:0:
320,192,252247,128,0,252420:0:0:0:0:
192,192,252247,128,0,252391:0:0:0:0:
64,192,252247,128,0,252420:0:0:0:0:
448,192,252247,128,0,252405:0:0:0:0:
320,192,252478,128,0,252506:0:0:0:0:
448,192,252506,128,0,252535:0:0:0:0:
192,192,252535,128,0,252564:0:0:0:0:
64,192,252535,128,0,252564:0:0:0:0:
192,192,252593,128,0,252622:0:0:0:0:
64,192,252622,128,0,252651:0:0:0:0:
320,192,252651,128,0,252680:0:0:0:0:
448,192,252651,128,0,252680:0:0:0:0:
64,192,252708,1,0,0:0:0:0:
192,192,252708,1,0,0:0:0:0:
448,192,252708,1,0,0:0:0:0:
448,192,252824,128,0,253112:0:0:0:0:
320,192,252824,128,0,253055:0:0:0:0:
192,192,252824,128,0,253112:0:0:0:0:
64,192,252824,128,0,253083:0:0:0:0:
64,192,253170,1,0,0:0:0:0:
448,192,253170,1,0,0:0:0:0:
320,192,253170,1,0,0:0:0:0:
320,192,253285,128,0,253458:0:0:0:0:
192,192,253285,128,0,253343:0:0:0:0:
64,192,253285,128,0,253401:0:0:0:0:
448,192,253343,128,0,253458:0:0:0:0:
192,192,253401,128,0,253458:0:0:0:0:
64,192,253458,128,0,253516:0:0:0:0:
192,192,253516,128,0,253631:0:0:0:0:
320,192,253516,128,0,253574:0:0:0:0:
448,192,253516,128,0,253689:0:0:0:0:
64,192,253574,128,0,253689:0:0:0:0:
320,192,253631,128,0,253689:0:0:0:0:
192,192,253689,128,0,253805:0:0:0:0:
64,192,253747,128,0,253805:0:0:0:0:
320,192,253747,128,0,253805:0:0:0:0:
448,192,253747,128,0,253805:0:0:0:0:
64,192,253862,1,0,0:0:0:0:
192,192,253862,1,0,0:0:0:0:
320,192,253862,1,0,0:0:0:0:
448,192,253862,1,0,0:0:0:0:
192,192,253920,128,0,254093:0:0:0:0:
64,192,253978,128,0,254035:0:0:0:0:
448,192,253978,128,0,254093:0:0:0:0:
320,192,254035,128,0,254093:0:0:0:0:
64,192,254093,1,0,0:0:0:0:
192,192,254122,1,0,0:0:0:0:
320,192,254151,1,0,0:0:0:0:
64,192,254180,128,0,254381:0:0:0:0:
448,192,254208,1,0,0:0:0:0:
320,192,254237,128,0,254381:0:0:0:0:
192,192,254266,128,0,254381:0:0:0:0:
448,192,254295,128,0,254381:0:0:0:0:
64,192,254439,1,0,0:0:0:0:
448,192,254439,1,0,0:0:0:0:
320,192,254439,1,0,0:0:0:0:
192,192,254497,128,0,254612:0:0:0:0:
320,192,254555,128,0,254670:0:0:0:0:
448,192,254555,128,0,254728:0:0:0:0:
64,192,254612,128,0,254728:0:0:0:0:
192,192,254670,128,0,254728:0:0:0:0:
320,192,254728,128,0,254785:0:0:0:0:
192,192,254785,1,0,0:0:0:0:
64,192,254785,1,0,0:0:0:0:
448,192,254785,1,0,0:0:0:0:
320,192,254843,128,0,255074:0:0:0:0:
192,192,254901,128,0,254958:0:0:0:0:
448,192,254901,128,0,255016:0:0:0:0:
64,192,254958,128,0,255074:0:0:0:0:
192,192,255016,128,0,255074:0:0:0:0:
448,192,255074,128,0,255131:0:0:0:0:
64,192,255131,1,0,0:0:0:0:
192,192,255131,1,0,0:0:0:0:
320,192,255131,1,0,0:0:0:0:
448,192,255189,128,0,255305:0:0:0:0:
320,192,255247,128,0,255420:0:0:0:0:
192,192,255247,128,0,255362:0:0:0:0:
64,192,255305,128,0,255420:0:0:0:0:
448,192,255362,128,0,255420:0:0:0:0:
192,192,255420,128,0,255478:0:0:0:0:
320,192,255478,128,0,255535:0:0:0:0:
64,192,255478,128,0,255535:0:0:0:0:
448,192,255478,128,0,255535:0:0:0:0:
448,192,255593,128,0,255651:0:0:0:0:
192,192,255593,128,0,255651:0:0:0:0:
64,192,255593,128,0,255651:0:0:0:0:
64,192,255708,128,0,255824:0:0:0:0:
448,192,255708,128,0,255824:0:0:0:0:
320,192,255708,128,0,255824:0:0:0:0:
192,192,255824,128,0,255968:0:0:0:0:
320,192,255939,128,0,256112:0:0:0:0:
448,192,255939,128,0,256112:0:0:0:0:
64,192,255939,128,0,256112:0:0:0:0:
192,192,256054,128,0,256199:0:0:0:0:
320,192,256170,128,0,256372:0:0:0:0:
448,192,256170,128,0,256372:0:0:0:0:
64,192,256170,128,0,256372:0:0:0:0:
192,192,256285,128,0,256429:0:0:0:0:
64,192,256401,128,0,256617:0:0:0:0:
448,192,256401,128,0,256617:0:0:0:0:
320,192,256401,128,0,256617:0:0:0:0:
192,192,256516,128,0,256631:0:0:0:0:
448,192,256631,1,0,0:0:0:0:
64,192,256631,1,0,0:0:0:0:
320,192,256631,1,0,0:0:0:0:
192,192,256688,128,0,256861:0:0:0:0:
448,192,256717,128,0,256861:0:0:0:0:
64,192,256746,128,0,256804:0:0:0:0:
320,192,256804,128,0,256861:0:0:0:0:
64,192,256861,128,0,256890:0:0:0:0:
320,192,256890,128,0,256919:0:0:0:0:
192,192,256919,128,0,256948:0:0:0:0:
448,192,256948,128,0,256977:0:0:0:0:
64,192,256977,128,0,257034:0:0:0:0:
320,192,256977,128,0,257006:0:0:0:0:
192,192,257034,128,0,257092:0:0:0:0:
448,192,257092,128,0,257207:0:0:0:0:
320,192,257092,128,0,257150:0:0:0:0:
64,192,257092,128,0,257150:0:0:0:0:
192,192,257150,128,0,257265:0:0:0:0:
320,192,257207,128,0,257265:0:0:0:0:
64,192,257207,128,0,257265:0:0:0:0:
448,192,257265,128,0,257323:0:0:0:0:
320,192,257323,128,0,257381:0:0:0:0:
192,192,257323,128,0,257438:0:0:0:0:
64,192,257323,128,0,257381:0:0:0:0:
448,192,257381,128,0,257496:0:0:0:0:
320,192,257438,128,0,257496:0:0:0:0:
64,192,257438,128,0,257554:0:0:0:0:
192,192,257496,128,0,257554:0:0:0:0:
448,192,257554,128,0,257611:0:0:0:0:
320,192,257554,128,0,257611:0:0:0:0:
192,192,257611,128,0,257669:0:0:0:0:
64,192,257611,128,0,257727:0:0:0:0:
320,192,257669,128,0,257727:0:0:0:0:
448,192,257669,128,0,257727:0:0:0:0:
192,192,257727,128,0,257784:0:0:0:0:
64,192,257784,128,0,257957:0:0:0:0:
320,192,257784,128,0,257842:0:0:0:0:
448,192,257784,128,0,257900:0:0:0:0:
192,192,257842,128,0,257957:0:0:0:0:
320,192,257900,128,0,257957:0:0:0:0:
448,192,257957,128,0,258015:0:0:0:0:
320,192,258015,128,0,258044:0:0:0:0:
192,192,258015,128,0,258044:0:0:0:0:
64,192,258015,128,0,258044:0:0:0:0:
448,192,258073,128,0,258131:0:0:0:0:
320,192,258131,128,0,258159:0:0:0:0:
192,192,258131,128,0,258159:0:0:0:0:
64,192,258131,128,0,258159:0:0:0:0:
192,192,258188,128,0,258246:0:0:0:0:
64,192,258246,128,0,258361:0:0:0:0:
320,192,258246,128,0,258304:0:0:0:0:
448,192,258246,128,0,258419:0:0:0:0:
192,192,258304,128,0,258477:0:0:0:0:
320,192,258361,128,0,258419:0:0:0:0:
64,192,258419,128,0,258477:0:0:0:0:
448,192,258477,128,0,258534:0:0:0:0:
320,192,258477,128,0,258534:0:0:0:0:
64,192,258534,128,0,258592:0:0:0:0:
192,192,258534,128,0,258650:0:0:0:0:
320,192,258592,128,0,258650:0:0:0:0:
448,192,258592,128,0,258650:0:0:0:0:
64,192,258650,128,0,258765:0:0:0:0:
192,192,258707,128,0,258765:0:0:0:0:
320,192,258707,128,0,258765:0:0:0:0:
448,192,258707,128,0,258765:0:0:0:0:
320,192,258823,128,0,258938:0:0:0:0:
64,192,258823,128,0,258938:0:0:0:0:
192,192,258938,128,0,258996:0:0:0:0:
448,192,258938,128,0,258996:0:0:0:0:
320,192,258996,128,0,259054:0:0:0:0:
64,192,258996,128,0,259054:0:0:0:0:
192,192,259054,128,0,259082:0:0:0:0:
192,192,259111,128,0,259140:0:0:0:0:
64,192,259169,128,0,259227:0:0:0:0:
320,192,259169,128,0,259227:0:0:0:0:
448,192,259169,128,0,259227:0:0:0:0:
192,192,259227,128,0,259342:0:0:0:0:
320,192,259284,128,0,259342:0:0:0:0:
64,192,259342,128,0,259400:0:0:0:0:
320,192,259400,128,0,259457:0:0:0:0:
448,192,259400,128,0,259457:0:0:0:0:
192,192,259400,128,0,259573:0:0:0:0:
64,192,259457,128,0,259515:0:0:0:0:
320,192,259515,128,0,259573:0:0:0:0:
448,192,259515,128,0,259573:0:0:0:0:
64,192,259573,128,0,259631:0:0:0:0:
320,192,259631,128,0,259688:0:0:0:0:
192,192,259631,128,0,259746:0:0:0:0:
448,192,259631,128,0,259688:0:0:0:0:
64,192,259688,128,0,259804:0:0:0:0:
448,192,259746,128,0,259804:0:0:0:0:
320,192,259746,128,0,259804:0:0:0:0:
192,192,259804,128,0,259861:0:0:0:0:
448,192,259861,128,0,259977:0:0:0:0:
320,192,259861,128,0,259919:0:0:0:0:
64,192,259861,128,0,259919:0:0:0:0:
192,192,259919,128,0,260092:0:0:0:0:
64,192,259977,128,0,260034:0:0:0:0:
320,192,259977,128,0,260034:0:0:0:0:
448,192,260034,128,0,260092:0:0:0:0:
64,192,260092,128,0,260150:0:0:0:0:
320,192,260121,128,0,260179:0:0:0:0:
192,192,260150,128,0,260207:0:0:0:0:
64,192,260179,128,0,260236:0:0:0:0:
448,192,260207,128,0,260323:0:0:0:0:
320,192,260207,128,0,260381:0:0:0:0:
192,192,260265,128,0,260438:0:0:0:0:
64,192,260323,128,0,260438:0:0:0:0:
448,192,260381,128,0,260438:0:0:0:0:
320,192,260438,128,0,260496:0:0:0:0:
64,192,260467,128,0,260525:0:0:0:0:
448,192,260496,128,0,260554:0:0:0:0:
192,192,260525,128,0,260582:0:0:0:0:
320,192,260554,128,0,260669:0:0:0:0:
64,192,260554,128,0,260669:0:0:0:0:
448,192,260611,128,0,260784:0:0:0:0:
192,192,260669,128,0,260727:0:0:0:0:
320,192,260727,128,0,260784:0:0:0:0:
192,192,260784,128,0,260842:0:0:0:0:
64,192,260784,128,0,260842:0:0:0:0:
320,192,260842,128,0,260900:0:0:0:0:
448,192,260842,128,0,260957:0:0:0:0:
192,192,260900,128,0,260957:0:0:0:0:
64,192,260900,128,0,260957:0:0:0:0:
320,192,260957,128,0,261015:0:0:0:0:
192,192,261015,128,0,261073:0:0:0:0:
64,192,261015,128,0,261131:0:0:0:0:
448,192,261015,128,0,261188:0:0:0:0:
320,192,261073,128,0,261188:0:0:0:0:
192,192,261131,128,0,261188:0:0:0:0:
64,192,261188,128,0,261246:0:0:0:0:
320,192,261246,128,0,261275:0:0:0:0:
192,192,261246,128,0,261275:0:0:0:0:
448,192,261246,128,0,261275:0:0:0:0:
448,192,261304,128,0,261361:0:0:0:0:
192,192,261361,128,0,261419:0:0:0:0:
64,192,261361,128,0,261477:0:0:0:0:
320,192,261361,128,0,261419:0:0:0:0:
448,192,261419,128,0,261650:0:0:0:0:
320,192,261477,128,0,261534:0:0:0:0:
192,192,261477,128,0,261592:0:0:0:0:
64,192,261534,128,0,261650:0:0:0:0:
320,192,261592,128,0,261650:0:0:0:0:
192,192,261650,128,0,261707:0:0:0:0:
448,192,261707,128,0,261765:0:0:0:0:
320,192,261707,128,0,261794:0:0:0:0:
64,192,261707,128,0,261823:0:0:0:0:
192,192,261765,128,0,261881:0:0:0:0:
448,192,261823,128,0,261881:0:0:0:0:
320,192,261852,128,0,261881:0:0:0:0:
64,192,261881,128,0,261938:0:0:0:0:
320,192,261909,128,0,261938:0:0:0:0:
192,192,261938,128,0,261996:0:0:0:0:
448,192,261938,128,0,261996:0:0:0:0:
320,192,261996,128,0,262025:0:0:0:0:
64,192,262054,128,0,262111:0:0:0:0:
192,192,262082,128,0,262111:0:0:0:0:
448,192,262111,128,0,262169:0:0:0:0:
192,192,262140,128,0,262169:0:0:0:0:
320,192,262169,128,0,262227:0:0:0:0:
64,192,262169,128,0,262227:0:0:0:0:
448,192,262227,128,0,262371:0:0:0:0:
192,192,262284,128,0,262371:0:0:0:0:
64,192,262284,128,0,262371:0:0:0:0:
320,192,262342,128,0,262371:0:0:0:0:
448,192,262400,1,0,0:0:0:0:
320,192,262400,1,0,0:0:0:0:
192,192,262400,1,0,0:0:0:0:
64,192,262400,1,0,0:0:0:0:
64,192,262457,128,0,262573:0:0:0:0:
320,192,262515,128,0,262631:0:0:0:0:
448,192,262573,128,0,262688:0:0:0:0:
64,192,262631,128,0,262688:0:0:0:0:
192,192,262688,128,0,262717:0:0:0:0:
192,192,262746,1,0,0:0:0:0:
64,192,262746,1,0,0:0:0:0:
320,192,262746,1,0,0:0:0:0:
448,192,262746,1,0,0:0:0:0:
448,192,262804,128,0,262919:0:0:0:0:
192,192,262861,128,0,262919:0:0:0:0:
64,192,262919,128,0,262948:0:0:0:0:
320,192,262977,1,0,0:0:0:0:
448,192,262977,1,0,0:0:0:0:
192,192,262977,1,0,0:0:0:0:
64,192,262977,1,0,0:0:0:0:
192,192,263092,1,0,0:0:0:0:
64,192,263092,1,0,0:0:0:0:
320,192,263092,1,0,0:0:0:0:
448,192,263092,1,0,0:0:0:0:
448,192,263207,128,0,263265:0:0:0:0:
192,192,263207,128,0,263265:0:0:0:0:
320,192,263222,128,0,263265:0:0:0:0:
64,192,263222,128,0,263265:0:0:0:0:
192,192,263323,128,0,263400:0:0:0:0:
64,192,263323,128,0,263400:0:0:0:0:
448,192,263323,128,0,263361:0:0:0:0:
320,192,263361,128,0,263438:0:0:0:0:
448,192,263400,128,0,263477:0:0:0:0:
192,192,263438,128,0,263515:0:0:0:0:
320,192,263477,128,0,263554:0:0:0:0:
64,192,263515,128,0,263592:0:0:0:0:
448,192,263554,128,0,263631:0:0:0:0:
192,192,263592,128,0,263669:0:0:0:0:
64,192,263631,128,0,263707:0:0:0:0:
448,192,263669,128,0,263746:0:0:0:0:
192,192,263707,128,0,263746:0:0:0:0:
320,192,263746,128,0,263784:0:0:0:0:
448,192,263784,128,0,263957:0:0:0:0:
64,192,263784,128,0,263900:0:0:0:0:
192,192,263784,128,0,263842:0:0:0:0:
320,192,263842,128,0,263957:0:0:0:0:
192,192,263900,128,0,263957:0:0:0:0:
64,192,263957,128,0,264015:0:0:0:0:
448,192,264015,128,0,264188:0:0:0:0:
320,192,264015,128,0,264073:0:0:0:0:
192,192,264015,128,0,264131:0:0:0:0:
64,192,264073,128,0,264188:0:0:0:0:
320,192,264131,128,0,264188:0:0:0:0:
192,192,264188,128,0,264246:0:0:0:0:
64,192,264246,128,0,264361:0:0:0:0:
320,192,264246,128,0,264304:0:0:0:0:
448,192,264246,128,0,264419:0:0:0:0:
192,192,264304,128,0,264419:0:0:0:0:
320,192,264361,128,0,264477:0:0:0:0:
64,192,264419,128,0,264477:0:0:0:0:
192,192,264477,128,0,264534:0:0:0:0:
448,192,264477,128,0,264534:0:0:0:0:
64,192,264534,128,0,264592:0:0:0:0:
320,192,264534,128,0,264592:0:0:0:0:
448,192,264592,128,0,264650:0:0:0:0:
192,192,264592,128,0,264650:0:0:0:0:
320,192,264650,1,0,0:0:0:0:
64,192,264650,128,0,264707:0:0:0:0:
192,192,264707,128,0,264765:0:0:0:0:
320,192,264707,128,0,264765:0:0:0:0:
448,192,264707,128,0,264765:0:0:0:0:
64,192,264765,128,0,264881:0:0:0:0:
192,192,264823,128,0,264881:0:0:0:0:
320,192,264881,128,0,264938:0:0:0:0:
192,192,264938,128,0,264996:0:0:0:0:
64,192,264938,128,0,264996:0:0:0:0:
448,192,264938,128,0,264996:0:0:0:0:
320,192,264996,128,0,265111:0:0:0:0:
448,192,265054,128,0,265111:0:0:0:0:
64,192,265054,128,0,265169:0:0:0:0:
192,192,265111,128,0,265169:0:0:0:0:
448,192,265169,128,0,265227:0:0:0:0:
320,192,265169,128,0,265227:0:0:0:0:
64,192,265227,128,0,265284:0:0:0:0:
192,192,265227,128,0,265342:0:0:0:0:
320,192,265284,128,0,265342:0:0:0:0:
448,192,265284,128,0,265342:0:0:0:0:
64,192,265342,128,0,265400:0:0:0:0:
320,192,265400,128,0,265457:0:0:0:0:
192,192,265400,128,0,265457:0:0:0:0:
448,192,265400,128,0,265457:0:0:0:0:
64,192,265457,128,0,265573:0:0:0:0:
320,192,265515,128,0,265573:0:0:0:0:
192,192,265573,128,0,265631:0:0:0:0:
320,192,265631,128,0,265688:0:0:0:0:
64,192,265631,128,0,265688:0:0:0:0:
448,192,265631,128,0,265688:0:0:0:0:
192,192,265688,128,0,265804:0:0:0:0:
448,192,265746,128,0,265804:0:0:0:0:
64,192,265746,128,0,265861:0:0:0:0:
320,192,265804,128,0,265919:0:0:0:0:
448,192,265861,128,0,265919:0:0:0:0:
192,192,265861,128,0,265919:0:0:0:0:
64,192,265919,128,0,265977:0:0:0:0:
192,192,265977,128,0,266034:0:0:0:0:
320,192,265977,128,0,266034:0:0:0:0:
448,192,265977,128,0,266034:0:0:0:0:
448,192,266092,1,0,0:0:0:0:
320,192,266092,1,0,0:0:0:0:
192,192,266092,128,0,266294:0:0:0:0:
64,192,266092,128,0,266294:0:0:0:0:
320,192,266207,1,0,0:0:0:0:
448,192,266207,1,0,0:0:0:0:
192,192,266323,1,0,0:0:0:0:
64,192,266323,1,0,0:0:0:0:
320,192,266323,128,0,266525:0:0:0:0:
448,192,266323,128,0,266525:0:0:0:0:
64,192,266438,1,0,0:0:0:0:
192,192,266438,1,0,0:0:0:0:
64,192,266554,1,0,0:0:0:0:
320,192,266554,1,0,0:0:0:0:
448,192,266554,1,0,0:0:0:0:
192,192,266611,1,0,0:0:0:0:
64,192,266669,128,0,266842:0:0:0:0:
320,192,266669,128,0,266842:0:0:0:0:
448,192,266669,128,0,266842:0:0:0:0:
192,192,266784,1,0,0:0:0:0:
320,192,266900,1,0,0:0:0:0:
64,192,266900,1,0,0:0:0:0:
192,192,266900,1,0,0:0:0:0:
448,192,266957,1,0,0:0:0:0:
320,192,267015,128,0,267073:0:0:0:0:
192,192,267015,128,0,267131:0:0:0:0:
64,192,267015,128,0,267188:0:0:0:0:
448,192,267073,128,0,267188:0:0:0:0:
320,192,267131,128,0,267188:0:0:0:0:
192,192,267188,128,0,267246:0:0:0:0:
320,192,267246,1,0,0:0:0:0:
448,192,267246,1,0,0:0:0:0:
64,192,267246,1,0,0:0:0:0:
192,192,267304,1,0,0:0:0:0:
320,192,267361,128,0,267477:0:0:0:0:
448,192,267361,128,0,267419:0:0:0:0:
64,192,267361,128,0,267534:0:0:0:0:
192,192,267419,128,0,267534:0:0:0:0:
448,192,267477,128,0,267534:0:0:0:0:
320,192,267534,128,0,267592:0:0:0:0:
64,192,267592,128,0,267650:0:0:0:0:
192,192,267592,128,0,267650:0:0:0:0:
448,192,267592,128,0,267650:0:0:0:0:
448,192,267707,128,0,267765:0:0:0:0:
320,192,267707,128,0,267765:0:0:0:0:
192,192,267707,128,0,267765:0:0:0:0:
320,192,267823,128,0,267881:0:0:0:0:
64,192,267823,128,0,267881:0:0:0:0:
192,192,267823,128,0,267881:0:0:0:0:
320,192,267938,128,0,267996:0:0:0:0:
448,192,267938,128,0,268054:0:0:0:0:
64,192,267938,128,0,267996:0:0:0:0:
192,192,267996,128,0,268111:0:0:0:0:
320,192,268054,128,0,268111:0:0:0:0:
64,192,268054,128,0,268111:0:0:0:0:
448,192,268111,128,0,268169:0:0:0:0:
320,192,268169,128,0,268284:0:0:0:0:
192,192,268169,128,0,268227:0:0:0:0:
64,192,268169,128,0,268227:0:0:0:0:
448,192,268227,128,0,268342:0:0:0:0:
64,192,268284,128,0,268342:0:0:0:0:
192,192,268284,128,0,268400:0:0:0:0:
320,192,268342,128,0,268457:0:0:0:0:
448,192,268400,128,0,268457:0:0:0:0:
64,192,268400,128,0,268457:0:0:0:0:
192,192,268457,128,0,268515:0:0:0:0:
448,192,268515,128,0,268544:0:0:0:0:
320,192,268515,128,0,268544:0:0:0:0:
64,192,268515,128,0,268544:0:0:0:0:
64,192,268631,128,0,268688:0:0:0:0:
320,192,268631,128,0,268688:0:0:0:0:
448,192,268631,128,0,268688:0:0:0:0:
448,192,268746,128,0,268832:0:0:0:0:
320,192,268746,128,0,268832:0:0:0:0:
64,192,268746,128,0,268832:0:0:0:0:
192,192,268861,128,0,268890:0:0:0:0:
64,192,268861,128,0,268890:0:0:0:0:
448,192,268861,128,0,268890:0:0:0:0:
192,192,268977,128,0,269034:0:0:0:0:
64,192,268977,128,0,269034:0:0:0:0:
448,192,268977,128,0,269034:0:0:0:0:
448,192,269092,128,0,269179:0:0:0:0:
64,192,269092,128,0,269179:0:0:0:0:
192,192,269092,128,0,269179:0:0:0:0:
448,192,269207,128,0,269265:0:0:0:0:
320,192,269207,128,0,269265:0:0:0:0:
192,192,269265,128,0,269323:0:0:0:0:
64,192,269265,128,0,269323:0:0:0:0:
320,192,269323,128,0,269381:0:0:0:0:
448,192,269323,128,0,269381:0:0:0:0:
64,192,269381,128,0,269438:0:0:0:0:
192,192,269381,128,0,269496:0:0:0:0:
320,192,269438,128,0,269496:0:0:0:0:
448,192,269438,128,0,269496:0:0:0:0:
64,192,269496,1,0,0:0:0:0:
448,192,269554,128,0,269611:0:0:0:0:
320,192,269554,128,0,269669:0:0:0:0:
192,192,269554,128,0,269784:0:0:0:0:
64,192,269611,128,0,269727:0:0:0:0:
448,192,269669,128,0,269784:0:0:0:0:
320,192,269727,128,0,269784:0:0:0:0:
64,192,269784,1,0,0:0:0:0:
320,192,269813,128,0,269871:0:0:0:0:
192,192,269842,128,0,269900:0:0:0:0:
448,192,269871,128,0,269929:0:0:0:0:
320,192,269900,128,0,269957:0:0:0:0:
64,192,269900,128,0,269957:0:0:0:0:
192,192,269957,128,0,270015:0:0:0:0:
320,192,270015,128,0,270073:0:0:0:0:
448,192,270044,128,0,270102:0:0:0:0:
64,192,270073,128,0,270131:0:0:0:0:
192,192,270102,128,0,270159:0:0:0:0:
320,192,270131,128,0,270188:0:0:0:0:
448,192,270131,128,0,270188:0:0:0:0:
64,192,270188,128,0,270246:0:0:0:0:
320,192,270246,128,0,270304:0:0:0:0:
192,192,270246,128,0,270361:0:0:0:0:
448,192,270246,128,0,270477:0:0:0:0:
64,192,270304,128,0,270419:0:0:0:0:
320,192,270361,128,0,270419:0:0:0:0:
192,192,270419,128,0,270534:0:0:0:0:
64,192,270477,128,0,270534:0:0:0:0:
320,192,270477,128,0,270534:0:0:0:0:
448,192,270534,128,0,270592:0:0:0:0:
320,192,270592,128,0,270707:0:0:0:0:
192,192,270592,128,0,270650:0:0:0:0:
64,192,270592,128,0,270650:0:0:0:0:
448,192,270650,128,0,270765:0:0:0:0:
192,192,270707,128,0,270765:0:0:0:0:
64,192,270707,128,0,270765:0:0:0:0:
320,192,270765,128,0,270823:0:0:0:0:
448,192,270823,128,0,270852:0:0:0:0:
192,192,270823,128,0,270852:0:0:0:0:
64,192,270823,128,0,270852:0:0:0:0:
192,192,270881,128,0,270938:0:0:0:0:
448,192,270938,128,0,270996:0:0:0:0:
320,192,270938,128,0,271054:0:0:0:0:
64,192,270938,128,0,271111:0:0:0:0:
192,192,270996,128,0,271111:0:0:0:0:
448,192,271054,128,0,271111:0:0:0:0:
320,192,271111,128,0,271169:0:0:0:0:
448,192,271169,128,0,271342:0:0:0:0:
192,192,271169,128,0,271227:0:0:0:0:
64,192,271169,128,0,271284:0:0:0:0:
320,192,271227,128,0,271342:0:0:0:0:
192,192,271284,128,0,271342:0:0:0:0:
64,192,271342,128,0,271400:0:0:0:0:
192,192,271400,128,0,271515:0:0:0:0:
448,192,271400,128,0,271457:0:0:0:0:
320,192,271400,128,0,271515:0:0:0:0:
64,192,271457,128,0,271515:0:0:0:0:
448,192,271515,128,0,271573:0:0:0:0:
192,192,271544,128,0,271602:0:0:0:0:
320,192,271573,128,0,271631:0:0:0:0:
64,192,271602,128,0,271659:0:0:0:0:
192,192,271631,128,0,271688:0:0:0:0:
448,192,271631,128,0,271688:0:0:0:0:
320,192,271688,128,0,271746:0:0:0:0:
64,192,271746,128,0,271804:0:0:0:0:
448,192,271775,128,0,271832:0:0:0:0:
192,192,271804,128,0,271861:0:0:0:0:
320,192,271832,128,0,271861:0:0:0:0:
64,192,271861,128,0,271919:0:0:0:0:
448,192,271861,128,0,271919:0:0:0:0:
192,192,271919,128,0,271977:0:0:0:0:
448,192,271977,128,0,272034:0:0:0:0:
320,192,271977,128,0,272034:0:0:0:0:
64,192,271977,128,0,272034:0:0:0:0:
192,192,272034,128,0,272092:0:0:0:0:
320,192,272092,128,0,272150:0:0:0:0:
64,192,272092,128,0,272150:0:0:0:0:
448,192,272150,128,0,272207:0:0:0:0:
320,192,272207,128,0,272323:0:0:0:0:
192,192,272207,128,0,272265:0:0:0:0:
64,192,272207,128,0,272265:0:0:0:0:
448,192,272265,128,0,272323:0:0:0:0:
192,192,272323,128,0,272381:0:0:0:0:
64,192,272323,128,0,272381:0:0:0:0:
320,192,272381,128,0,272438:0:0:0:0:
448,192,272381,128,0,272496:0:0:0:0:
192,192,272438,128,0,272496:0:0:0:0:
64,192,272438,128,0,272496:0:0:0:0:
320,192,272496,128,0,272554:0:0:0:0:
448,192,272554,128,0,272611:0:0:0:0:
192,192,272554,128,0,272611:0:0:0:0:
64,192,272554,128,0,272727:0:0:0:0:
320,192,272611,128,0,272727:0:0:0:0:
192,192,272669,1,0,0:0:0:0:
448,192,272669,128,0,272727:0:0:0:0:
192,192,272727,1,0,0:0:0:0:
448,192,272784,128,0,272842:0:0:0:0:
320,192,272784,128,0,272842:0:0:0:0:
64,192,272784,128,0,272842:0:0:0:0:
192,192,272842,128,0,272900:0:0:0:0:
448,192,272900,128,0,273015:0:0:0:0:
192,192,272957,128,0,273073:0:0:0:0:
320,192,273015,128,0,273073:0:0:0:0:
64,192,273015,128,0,273073:0:0:0:0:
448,192,273073,128,0,273131:0:0:0:0:
320,192,273131,128,0,273246:0:0:0:0:
64,192,273131,128,0,273188:0:0:0:0:
192,192,273131,128,0,273304:0:0:0:0:
448,192,273188,128,0,273361:0:0:0:0:
64,192,273246,128,0,273361:0:0:0:0:
320,192,273304,128,0,273361:0:0:0:0:
192,192,273361,128,0,273419:0:0:0:0:
448,192,273390,128,0,273448:0:0:0:0:
64,192,273419,128,0,273477:0:0:0:0:
320,192,273448,128,0,273506:0:0:0:0:
448,192,273477,128,0,273534:0:0:0:0:
192,192,273477,128,0,273534:0:0:0:0:
64,192,273534,128,0,273592:0:0:0:0:
320,192,273592,128,0,273650:0:0:0:0:
64,192,273650,128,0,273707:0:0:0:0:
448,192,273707,128,0,273736:0:0:0:0:
320,192,273707,128,0,273736:0:0:0:0:
192,192,273707,128,0,273736:0:0:0:0:
64,192,273765,128,0,273823:0:0:0:0:
192,192,273823,128,0,273852:0:0:0:0:
320,192,273823,128,0,273852:0:0:0:0:
448,192,273823,128,0,273852:0:0:0:0:
320,192,273881,128,0,273938:0:0:0:0:
448,192,273938,128,0,274025:0:0:0:0:
192,192,273938,128,0,274025:0:0:0:0:
64,192,273938,128,0,274025:0:0:0:0:
192,192,274054,128,0,274140:0:0:0:0:
320,192,274054,128,0,274140:0:0:0:0:
448,192,274169,128,0,274256:0:0:0:0:
320,192,274169,128,0,274256:0:0:0:0:
64,192,274169,128,0,274256:0:0:0:0:
192,192,274284,128,0,274371:0:0:0:0:
448,192,274284,128,0,274371:0:0:0:0:
320,192,274400,128,0,274515:0:0:0:0:
192,192,274400,128,0,274457:0:0:0:0:
64,192,274400,128,0,274457:0:0:0:0:
448,192,274457,128,0,274573:0:0:0:0:
192,192,274515,128,0,274631:0:0:0:0:
64,192,274515,128,0,274573:0:0:0:0:
320,192,274573,128,0,274688:0:0:0:0:
448,192,274631,128,0,274688:0:0:0:0:
64,192,274631,128,0,274688:0:0:0:0:
192,192,274688,128,0,274746:0:0:0:0:
448,192,274746,128,0,274804:0:0:0:0:
320,192,274746,128,0,274804:0:0:0:0:
64,192,274746,128,0,274919:0:0:0:0:
192,192,274804,128,0,274861:0:0:0:0:
448,192,274861,128,0,274919:0:0:0:0:
320,192,274861,128,0,274977:0:0:0:0:
192,192,274919,128,0,275034:0:0:0:0:
64,192,274977,128,0,275034:0:0:0:0:
448,192,274977,128,0,275034:0:0:0:0:
320,192,275034,128,0,275092:0:0:0:0:
192,192,275092,128,0,275150:0:0:0:0:
448,192,275092,128,0,275150:0:0:0:0:
64,192,275092,128,0,275207:0:0:0:0:
320,192,275150,128,0,275265:0:0:0:0:
448,192,275207,128,0,275265:0:0:0:0:
192,192,275207,128,0,275323:0:0:0:0:
64,192,275265,128,0,275381:0:0:0:0:
320,192,275323,128,0,275381:0:0:0:0:
448,192,275323,128,0,275381:0:0:0:0:
192,192,275381,128,0,275438:0:0:0:0:
448,192,275438,128,0,275496:0:0:0:0:
320,192,275438,128,0,275554:0:0:0:0:
64,192,275438,128,0,275496:0:0:0:0:
192,192,275496,128,0,275611:0:0:0:0:
64,192,275554,128,0,275611:0:0:0:0:
448,192,275554,128,0,275727:0:0:0:0:
320,192,275611,128,0,275669:0:0:0:0:
64,192,275669,128,0,275727:0:0:0:0:
192,192,275669,128,0,275784:0:0:0:0:
320,192,275727,128,0,275784:0:0:0:0:
64,192,275784,128,0,275842:0:0:0:0:
448,192,275784,128,0,275842:0:0:0:0:
320,192,275842,128,0,275900:0:0:0:0:
192,192,275842,128,0,275900:0:0:0:0:
64,192,275900,128,0,275957:0:0:0:0:
448,192,275900,128,0,275957:0:0:0:0:
320,192,275957,128,0,276015:0:0:0:0:
448,192,276015,128,0,276131:0:0:0:0:
192,192,276015,128,0,276073:0:0:0:0:
64,192,276015,128,0,276188:0:0:0:0:
320,192,276073,128,0,276188:0:0:0:0:
192,192,276131,128,0,276188:0:0:0:0:
448,192,276188,128,0,276246:0:0:0:0:
320,192,276246,1,0,0:0:0:0:
192,192,276246,1,0,0:0:0:0:
64,192,276246,128,0,276275:0:0:0:0:
448,192,276304,1,0,0:0:0:0:
64,192,276361,1,0,0:0:0:0:
320,192,276361,1,0,0:0:0:0:
192,192,276361,128,0,276390:0:0:0:0:
448,192,276419,1,0,0:0:0:0:
192,192,276477,1,0,0:0:0:0:
64,192,276477,1,0,0:0:0:0:
320,192,276477,128,0,276506:0:0:0:0:
448,192,276534,128,0,276650:0:0:0:0:
320,192,276592,128,0,276650:0:0:0:0:
64,192,276650,1,0,0:0:0:0:
192,192,276650,1,0,0:0:0:0:
320,192,276707,128,0,276765:0:0:0:0:
64,192,276707,128,0,276765:0:0:0:0:
448,192,276707,128,0,276765:0:0:0:0:
192,192,276765,128,0,276881:0:0:0:0:
320,192,276823,128,0,276938:0:0:0:0:
448,192,276881,128,0,276938:0:0:0:0:
64,192,276938,1,0,0:0:0:0:
192,192,276938,1,0,0:0:0:0:
320,192,276996,1,0,0:0:0:0:
448,192,276996,1,0,0:0:0:0:
192,192,277054,128,0,277111:0:0:0:0:
448,192,277054,128,0,277111:0:0:0:0:
64,192,277054,128,0,277111:0:0:0:0:
320,192,277111,128,0,277227:0:0:0:0:
192,192,277169,128,0,277227:0:0:0:0:
64,192,277227,1,0,0:0:0:0:
448,192,277284,128,0,277342:0:0:0:0:
320,192,277299,128,0,277342:0:0:0:0:
192,192,277299,128,0,277342:0:0:0:0:
64,192,277313,128,0,277342:0:0:0:0:
64,192,277400,128,0,277457:0:0:0:0:
192,192,277414,128,0,277457:0:0:0:0:
320,192,277414,128,0,277457:0:0:0:0:
448,192,277429,128,0,277457:0:0:0:0:
192,192,277515,128,0,277554:0:0:0:0:
64,192,277515,128,0,277592:0:0:0:0:
320,192,277554,128,0,277631:0:0:0:0:
192,192,277592,128,0,277669:0:0:0:0:
64,192,277631,128,0,277707:0:0:0:0:
448,192,277631,128,0,277707:0:0:0:0:
320,192,277669,128,0,277746:0:0:0:0:
192,192,277707,128,0,277784:0:0:0:0:
448,192,277746,128,0,277823:0:0:0:0:
64,192,277784,128,0,277823:0:0:0:0:
192,192,277823,128,0,277861:0:0:0:0:
64,192,277861,128,0,277919:0:0:0:0:
320,192,277861,128,0,277977:0:0:0:0:
448,192,277861,128,0,278034:0:0:0:0:
192,192,277977,128,0,278034:0:0:0:0:
64,192,277977,128,0,278034:0:0:0:0:
320,192,278034,128,0,278092:0:0:0:0:
448,192,278092,128,0,278150:0:0:0:0:
64,192,278092,128,0,278150:0:0:0:0:
192,192,278092,128,0,278179:0:0:0:0:
320,192,278150,128,0,278207:0:0:0:0:
64,192,278207,1,0,0:0:0:0:
448,192,278207,128,0,278236:0:0:0:0:
192,192,278236,1,0,0:0:0:0:
320,192,278265,1,0,0:0:0:0:
448,192,278294,1,0,0:0:0:0:
192,192,278323,128,0,278381:0:0:0:0:
64,192,278323,128,0,278381:0:0:0:0:
448,192,278381,128,0,278438:0:0:0:0:
320,192,278381,128,0,278496:0:0:0:0:
192,192,278438,128,0,278496:0:0:0:0:
64,192,278438,128,0,278496:0:0:0:0:
448,192,278496,128,0,278611:0:0:0:0:
320,192,278554,128,0,278611:0:0:0:0:
192,192,278554,128,0,278611:0:0:0:0:
64,192,278554,128,0,278669:0:0:0:0:
192,192,278669,128,0,278784:0:0:0:0:
320,192,278669,128,0,278727:0:0:0:0:
448,192,278669,128,0,278842:0:0:0:0:
64,192,278727,128,0,278842:0:0:0:0:
320,192,278784,128,0,278900:0:0:0:0:
192,192,278842,128,0,278900:0:0:0:0:
64,192,278900,1,0,0:0:0:0:
448,192,278900,1,0,0:0:0:0:
320,192,279015,128,0,279073:0:0:0:0:
192,192,279015,128,0,279073:0:0:0:0:
64,192,279030,128,0,279073:0:0:0:0:
448,192,279030,128,0,279073:0:0:0:0:
448,192,279131,128,0,279188:0:0:0:0:
64,192,279131,128,0,279188:0:0:0:0:
320,192,279145,128,0,279188:0:0:0:0:
192,192,279145,128,0,279188:0:0:0:0:
448,192,279246,128,0,279477:0:0:0:0:
192,192,279246,128,0,279304:0:0:0:0:
64,192,279246,128,0,279361:0:0:0:0:
320,192,279304,128,0,279477:0:0:0:0:
192,192,279361,128,0,279419:0:0:0:0:
64,192,279419,128,0,279477:0:0:0:0:
192,192,279477,128,0,279506:0:0:0:0:
64,192,279506,128,0,279534:0:0:0:0:
320,192,279534,128,0,279563:0:0:0:0:
448,192,279534,128,0,279563:0:0:0:0:
320,192,279592,128,0,279621:0:0:0:0:
448,192,279621,128,0,279650:0:0:0:0:
64,192,279650,128,0,279679:0:0:0:0:
192,192,279650,128,0,279679:0:0:0:0:
320,192,279707,128,0,279765:0:0:0:0:
448,192,279707,128,0,279765:0:0:0:0:
64,192,279707,128,0,279765:0:0:0:0:
320,192,279823,128,0,279881:0:0:0:0:
192,192,279823,128,0,279881:0:0:0:0:
448,192,279823,128,0,279881:0:0:0:0:
320,192,279938,128,0,279996:0:0:0:0:
192,192,279938,128,0,280054:0:0:0:0:
64,192,279938,128,0,279996:0:0:0:0:
448,192,279996,128,0,280111:0:0:0:0:
320,192,280054,128,0,280111:0:0:0:0:
64,192,280054,128,0,280169:0:0:0:0:
192,192,280111,128,0,280169:0:0:0:0:
320,192,280169,128,0,280227:0:0:0:0:
448,192,280169,128,0,280227:0:0:0:0:
64,192,280227,128,0,280284:0:0:0:0:
192,192,280227,128,0,280342:0:0:0:0:
320,192,280284,128,0,280342:0:0:0:0:
448,192,280284,128,0,280342:0:0:0:0:
64,192,280342,128,0,280400:0:0:0:0:
448,192,280400,128,0,280457:0:0:0:0:
320,192,280400,128,0,280457:0:0:0:0:
192,192,280400,128,0,280457:0:0:0:0:
64,192,280457,128,0,280573:0:0:0:0:
320,192,280515,128,0,280573:0:0:0:0:
192,192,280573,128,0,280631:0:0:0:0:
320,192,280631,128,0,280688:0:0:0:0:
448,192,280631,128,0,280688:0:0:0:0:
64,192,280631,128,0,280688:0:0:0:0:
192,192,280688,128,0,280804:0:0:0:0:
448,192,280746,128,0,280804:0:0:0:0:
320,192,280804,128,0,280861:0:0:0:0:
448,192,280861,128,0,281034:0:0:0:0:
64,192,280861,128,0,280919:0:0:0:0:
192,192,280861,128,0,281092:0:0:0:0:
320,192,280919,128,0,280977:0:0:0:0:
64,192,280977,128,0,281034:0:0:0:0:
320,192,281034,128,0,281092:0:0:0:0:
64,192,281092,128,0,281131:0:0:0:0:
448,192,281092,128,0,281131:0:0:0:0:
192,192,281131,128,0,281169:0:0:0:0:
320,192,281169,128,0,281207:0:0:0:0:
448,192,281207,128,0,281246:0:0:0:0:
64,192,281207,128,0,281246:0:0:0:0:
320,192,281246,128,0,281284:0:0:0:0:
192,192,281284,128,0,281323:0:0:0:0:
448,192,281323,1,0,0:0:0:0:
320,192,281323,1,0,0:0:0:0:
64,192,281323,1,0,0:0:0:0:
192,192,281381,1,0,0:0:0:0:
448,192,281438,128,0,281554:0:0:0:0:
320,192,281438,128,0,281496:0:0:0:0:
64,192,281438,128,0,281496:0:0:0:0:
192,192,281496,128,0,281611:0:0:0:0:
64,192,281554,5,0,0:0:0:0:
320,192,281554,128,0,281669:0:0:0:0:
448,192,281611,128,0,281669:0:0:0:0:
192,192,281669,128,0,281727:0:0:0:0:
64,192,281669,128,0,281727:0:0:0:0:
320,192,281727,128,0,281784:0:0:0:0:
448,192,281727,128,0,281842:0:0:0:0:
192,192,281784,128,0,281842:0:0:0:0:
64,192,281784,128,0,281842:0:0:0:0:
320,192,281842,128,0,281900:0:0:0:0:
448,192,281900,1,0,0:0:0:0:
192,192,281900,1,0,0:0:0:0:
64,192,281900,1,0,0:0:0:0:
320,192,281957,1,0,0:0:0:0:
448,192,282015,128,0,282073:0:0:0:0:
192,192,282015,128,0,282073:0:0:0:0:
64,192,282015,128,0,282073:0:0:0:0:
320,192,282073,1,0,0:0:0:0:
192,192,282130,1,0,0:0:0:0:
448,192,282130,1,0,0:0:0:0:
192,192,282188,1,0,0:0:0:0:
320,192,282246,128,0,282304:0:0:0:0:
448,192,282246,128,0,282361:0:0:0:0:
64,192,282246,128,0,282419:0:0:0:0:
192,192,282304,128,0,282419:0:0:0:0:
320,192,282361,128,0,282419:0:0:0:0:
448,192,282419,128,0,282477:0:0:0:0:
320,192,282477,128,0,282534:0:0:0:0:
192,192,282477,128,0,282592:0:0:0:0:
64,192,282477,128,0,282650:0:0:0:0:
448,192,282534,128,0,282650:0:0:0:0:
320,192,282592,128,0,282650:0:0:0:0:
192,192,282650,128,0,282707:0:0:0:0:
320,192,282707,5,0,0:0:0:0:
64,192,282707,1,0,0:0:0:0:
448,192,282707,1,0,0:0:0:0:
192,192,282735,128,0,282822:0:0:0:0:
320,192,282764,128,0,282880:0:0:0:0:
64,192,282822,1,0,0:0:0:0:
192,192,282880,1,0,0:0:0:0:
320,192,282937,128,0,283014:0:0:0:0:
64,192,282937,128,0,282976:0:0:0:0:
448,192,282937,1,0,0:0:0:0:
192,192,282976,128,0,283053:0:0:0:0:
448,192,283014,128,0,283091:0:0:0:0:
64,192,283053,128,0,283091:0:0:0:0:
320,192,283091,1,0,0:0:0:0:
192,192,283130,128,0,283283:0:0:0:0:
320,192,283168,128,0,283226:0:0:0:0:
448,192,283168,128,0,283226:0:0:0:0:
64,192,283168,128,0,283226:0:0:0:0:
448,192,283283,128,0,283457:0:0:0:0:
320,192,283283,128,0,283341:0:0:0:0:
64,192,283283,128,0,283457:0:0:0:0:
192,192,283341,1,0,0:0:0:0:
320,192,283399,128,0,283457:0:0:0:0:
192,192,283457,128,0,283572:0:0:0:0:
64,192,283514,128,0,283572:0:0:0:0:
320,192,283514,128,0,283572:0:0:0:0:
448,192,283514,128,0,283572:0:0:0:0:
64,192,283630,1,0,0:0:0:0:
192,192,283630,128,0,283687:0:0:0:0:
448,192,283630,128,0,283745:0:0:0:0:
320,192,283668,128,0,283706:0:0:0:0:
64,192,283706,128,0,283803:0:0:0:0:
192,192,283745,128,0,283803:0:0:0:0:
320,192,283783,128,0,283937:0:0:0:0:
448,192,283822,128,0,283918:0:0:0:0:
64,192,283860,128,0,283956:0:0:0:0:
192,192,283860,128,0,283976:0:0:0:0:
448,192,283976,128,0,284053:0:0:0:0:
320,192,283995,128,0,284072:0:0:0:0:
64,192,284014,128,0,284130:0:0:0:0:
192,192,284053,128,0,284091:0:0:0:0:
448,192,284091,128,0,284168:0:0:0:0:
320,192,284130,128,0,284206:0:0:0:0:
192,192,284168,128,0,284245:0:0:0:0:
64,192,284206,128,0,284283:0:0:0:0:
448,192,284206,128,0,284322:0:0:0:0:
64,192,284322,128,0,284437:0:0:0:0:
192,192,284322,128,0,284437:0:0:0:0:
320,192,284322,1,0,0:0:0:0:
448,192,284380,128,0,284437:0:0:0:0:
320,192,284437,1,0,0:0:0:0:
192,192,284495,128,0,284610:0:0:0:0:
64,192,284495,128,0,284610:0:0:0:0:
448,192,284495,1,0,0:0:0:0:
320,192,284553,128,0,284610:0:0:0:0:
448,192,284610,128,0,284783:0:0:0:0:
320,192,284668,128,0,284726:0:0:0:0:
64,192,284668,128,0,284726:0:0:0:0:
192,192,284668,128,0,284840:0:0:0:0:
320,192,284783,128,0,284956:0:0:0:0:
64,192,284783,128,0,284956:0:0:0:0:
448,192,284840,128,0,284898:0:0:0:0:
192,192,284898,128,0,284956:0:0:0:0:
448,192,284956,128,0,285071:0:0:0:0:
64,192,285013,128,0,285244:0:0:0:0:
320,192,285013,128,0,285071:0:0:0:0:
192,192,285013,128,0,285129:0:0:0:0:
320,192,285129,128,0,285186:0:0:0:0:
448,192,285129,128,0,285302:0:0:0:0:
192,192,285186,128,0,285302:0:0:0:0:
320,192,285244,128,0,285302:0:0:0:0:
64,192,285302,128,0,285417:0:0:0:0:
448,192,285359,128,0,285417:0:0:0:0:
320,192,285359,128,0,285475:0:0:0:0:
192,192,285359,128,0,285533:0:0:0:0:
448,192,285475,128,0,285648:0:0:0:0:
64,192,285475,128,0,285648:0:0:0:0:
320,192,285533,128,0,285590:0:0:0:0:
192,192,285590,128,0,285648:0:0:0:0:
320,192,285648,128,0,285763:0:0:0:0:
448,192,285706,128,0,285763:0:0:0:0:
64,192,285706,128,0,285763:0:0:0:0:
192,192,285706,128,0,285821:0:0:0:0:
448,192,285821,128,0,285879:0:0:0:0:
320,192,285821,128,0,285994:0:0:0:0:
64,192,285821,128,0,285936:0:0:0:0:
192,192,285879,128,0,285936:0:0:0:0:
448,192,285936,128,0,285994:0:0:0:0:
192,192,285994,128,0,286052:0:0:0:0:
64,192,285994,128,0,286109:0:0:0:0:
448,192,286052,128,0,286109:0:0:0:0:
320,192,286052,128,0,286167:0:0:0:0:
192,192,286109,128,0,286167:0:0:0:0:
64,192,286167,128,0,286254:0:0:0:0:
448,192,286167,128,0,286225:0:0:0:0:
320,192,286196,128,0,286225:0:0:0:0:
192,192,286225,128,0,286254:0:0:0:0:
448,192,286254,128,0,286283:0:0:0:0:
320,192,286283,128,0,286340:0:0:0:0:
64,192,286283,128,0,286398:0:0:0:0:
192,192,286340,128,0,286398:0:0:0:0:
448,192,286340,128,0,286456:0:0:0:0:
320,192,286398,128,0,286456:0:0:0:0:
192,192,286456,128,0,286513:0:0:0:0:
64,192,286456,128,0,286571:0:0:0:0:
320,192,286513,128,0,286571:0:0:0:0:
448,192,286513,128,0,286571:0:0:0:0:
192,192,286571,1,0,0:0:0:0:
448,192,286629,128,0,286744:0:0:0:0:
64,192,286629,128,0,286744:0:0:0:0:
320,192,286629,1,0,0:0:0:0:
192,192,286686,128,0,286744:0:0:0:0:
320,192,286744,1,0,0:0:0:0:
448,192,286802,128,0,286917:0:0:0:0:
192,192,286802,1,0,0:0:0:0:
64,192,286802,128,0,286917:0:0:0:0:
320,192,286859,128,0,286917:0:0:0:0:
192,192,286917,128,0,287090:0:0:0:0:
320,192,286975,128,0,287033:0:0:0:0:
448,192,286975,128,0,287033:0:0:0:0:
64,192,286975,128,0,287033:0:0:0:0:
64,192,287090,128,0,287148:0:0:0:0:
448,192,287090,128,0,287148:0:0:0:0:
320,192,287090,128,0,287148:0:0:0:0:
192,192,287148,128,0,287263:0:0:0:0:
64,192,287206,128,0,287263:0:0:0:0:
448,192,287206,128,0,287263:0:0:0:0:
320,192,287206,128,0,287379:0:0:0:0:
64,192,287321,128,0,287379:0:0:0:0:
448,192,287321,128,0,287379:0:0:0:0:
192,192,287321,128,0,287494:0:0:0:0:
64,192,287436,128,0,287494:0:0:0:0:
448,192,287436,128,0,287494:0:0:0:0:
320,192,287436,128,0,287552:0:0:0:0:
64,192,287552,128,0,287667:0:0:0:0:
448,192,287552,128,0,287667:0:0:0:0:
192,192,287552,128,0,287609:0:0:0:0:
320,192,287609,1,0,0:0:0:0:
192,192,287667,1,0,0:0:0:0:
320,192,287725,128,0,287840:0:0:0:0:
448,192,287725,128,0,287840:0:0:0:0:
64,192,287725,128,0,287783:0:0:0:0:
192,192,287783,1,0,0:0:0:0:
64,192,287840,1,0,0:0:0:0:
320,192,287898,128,0,288013:0:0:0:0:
192,192,287898,128,0,288013:0:0:0:0:
448,192,287898,128,0,287956:0:0:0:0:
64,192,287956,1,0,0:0:0:0:
448,192,288013,1,0,0:0:0:0:
192,192,288071,128,0,288186:0:0:0:0:
320,192,288071,128,0,288129:0:0:0:0:
64,192,288071,128,0,288186:0:0:0:0:
448,192,288129,1,0,0:0:0:0:
320,192,288186,1,0,0:0:0:0:
192,192,288244,128,0,288417:0:0:0:0:
448,192,288244,128,0,288302:0:0:0:0:
64,192,288244,128,0,288302:0:0:0:0:
448,192,288359,128,0,288417:0:0:0:0:
64,192,288359,128,0,288417:0:0:0:0:
320,192,288359,128,0,288417:0:0:0:0:
448,192,288475,128,0,288590:0:0:0:0:
64,192,288475,128,0,288590:0:0:0:0:
320,192,288475,128,0,288532:0:0:0:0:
192,192,288532,1,0,0:0:0:0:
320,192,288590,1,0,0:0:0:0:
192,192,288648,128,0,288763:0:0:0:0:
64,192,288648,128,0,288763:0:0:0:0:
448,192,288648,128,0,288705:0:0:0:0:
320,192,288705,1,0,0:0:0:0:
448,192,288763,1,0,0:0:0:0:
192,192,288821,128,0,288936:0:0:0:0:
320,192,288821,128,0,288936:0:0:0:0:
64,192,288821,128,0,288878:0:0:0:0:
448,192,288878,1,0,0:0:0:0:
64,192,288936,1,0,0:0:0:0:
320,192,288994,128,0,289109:0:0:0:0:
192,192,288994,128,0,289051:0:0:0:0:
448,192,288994,128,0,289109:0:0:0:0:
64,192,289051,1,0,0:0:0:0:
192,192,289109,1,0,0:0:0:0:
320,192,289167,128,0,289282:0:0:0:0:
448,192,289167,128,0,289282:0:0:0:0:
64,192,289167,1,0,0:0:0:0:
192,192,289225,128,0,289340:0:0:0:0:
64,192,289282,128,0,289340:0:0:0:0:
320,192,289340,1,0,0:0:0:0:
448,192,289340,128,0,289455:0:0:0:0:
192,192,289398,128,0,289513:0:0:0:0:
64,192,289398,128,0,289455:0:0:0:0:
320,192,289455,128,0,289513:0:0:0:0:
64,192,289513,128,0,289628:0:0:0:0:
448,192,289513,128,0,289628:0:0:0:0:
320,192,289571,128,0,289628:0:0:0:0:
192,192,289571,128,0,289715:0:0:0:0:
64,192,289686,1,0,0:0:0:0:
320,192,289686,1,0,0:0:0:0:
448,192,289686,1,0,0:0:0:0:
192,192,289773,128,0,289801:0:0:0:0:
64,192,289773,128,0,289801:0:0:0:0:
320,192,289773,128,0,289801:0:0:0:0:
448,192,289773,128,0,289801:0:0:0:0:
320,192,289859,128,0,289917:0:0:0:0:
64,192,289859,128,0,289975:0:0:0:0:
448,192,289859,128,0,289975:0:0:0:0:
192,192,289917,128,0,289975:0:0:0:0:
320,192,289975,128,0,290032:0:0:0:0:
64,192,290032,128,0,290090:0:0:0:0:
448,192,290032,128,0,290148:0:0:0:0:
192,192,290032,128,0,290148:0:0:0:0:
320,192,290090,128,0,290148:0:0:0:0:
64,192,290148,128,0,290205:0:0:0:0:
448,192,290205,128,0,290263:0:0:0:0:
192,192,290205,128,0,290321:0:0:0:0:
320,192,290205,128,0,290321:0:0:0:0:
64,192,290263,128,0,290321:0:0:0:0:
448,192,290321,128,0,290378:0:0:0:0:
192,192,290378,128,0,290436:0:0:0:0:
64,192,290378,128,0,290494:0:0:0:0:
320,192,290378,128,0,290494:0:0:0:0:
448,192,290436,128,0,290494:0:0:0:0:
192,192,290494,128,0,290551:0:0:0:0:
320,192,290551,128,0,290609:0:0:0:0:
64,192,290551,128,0,290667:0:0:0:0:
448,192,290551,128,0,290667:0:0:0:0:
192,192,290609,128,0,290667:0:0:0:0:
320,192,290667,128,0,290725:0:0:0:0:
64,192,290725,128,0,290782:0:0:0:0:
448,192,290725,128,0,290840:0:0:0:0:
192,192,290725,128,0,290840:0:0:0:0:
320,192,290782,128,0,290898:0:0:0:0:
64,192,290840,128,0,290955:0:0:0:0:
192,192,290898,128,0,290955:0:0:0:0:
448,192,290898,128,0,290984:0:0:0:0:
320,192,290955,128,0,291013:0:0:0:0:
64,192,291013,1,0,0:0:0:0:
192,192,291013,128,0,291071:0:0:0:0:
448,192,291042,128,0,291157:0:0:0:0:
320,192,291071,128,0,291100:0:0:0:0:
64,192,291100,128,0,291186:0:0:0:0:
192,192,291128,1,0,0:0:0:0:
320,192,291157,128,0,291186:0:0:0:0:
192,192,291186,128,0,291215:0:0:0:0:
448,192,291244,1,0,0:0:0:0:
64,192,291244,1,0,0:0:0:0:
320,192,291244,1,0,0:0:0:0:
64,192,291330,128,0,291417:0:0:0:0:
448,192,291330,128,0,291417:0:0:0:0:
192,192,291330,128,0,291445:0:0:0:0:
448,192,291474,128,0,291619:0:0:0:0:
320,192,291474,128,0,291590:0:0:0:0:
64,192,291474,128,0,291551:0:0:0:0:
320,192,291676,128,0,291792:0:0:0:0:
64,192,291676,128,0,291748:0:0:0:0:
192,192,291676,128,0,291777:0:0:0:0:
64,192,291849,128,0,291878:0:0:0:0:
192,192,291849,128,0,291878:0:0:0:0:
64,192,291936,1,0,0:0:0:0:
320,192,291936,1,0,0:0:0:0:
448,192,291936,1,0,0:0:0:0:
192,192,292022,1,0,0:0:0:0:
320,192,292022,1,0,0:0:0:0:
64,192,292109,128,0,292167:0:0:0:0:
192,192,292109,128,0,292224:0:0:0:0:
448,192,292109,128,0,292282:0:0:0:0:
192,192,292282,1,0,0:0:0:0:
64,192,292282,1,0,0:0:0:0:
64,192,292369,128,0,292527:0:0:0:0:
192,192,292369,128,0,292441:0:0:0:0:
448,192,292369,128,0,292527:0:0:0:0:
320,192,292527,1,0,0:0:0:0:
192,192,292527,1,0,0:0:0:0:
64,192,292609,1,0,0:0:0:0:
448,192,292628,128,0,292772:0:0:0:0:
192,192,292628,128,0,292772:0:0:0:0:
320,192,292647,128,0,292686:0:0:0:0:
320,192,292772,1,0,0:0:0:0:
64,192,292772,1,0,0:0:0:0:
64,192,292888,128,0,292974:0:0:0:0:
192,192,292888,128,0,293061:0:0:0:0:
448,192,292888,128,0,292960:0:0:0:0:
448,192,293061,128,0,293133:0:0:0:0:
320,192,293061,128,0,293133:0:0:0:0:
64,192,293061,128,0,293133:0:0:0:0:
64,192,293205,128,0,293320:0:0:0:0:
192,192,293205,128,0,293320:0:0:0:0:
320,192,293205,128,0,293244:0:0:0:0:
448,192,293320,1,0,0:0:0:0:
320,192,293320,1,0,0:0:0:0:
320,192,293494,1,0,0:0:0:0:
64,192,293494,1,0,0:0:0:0:
448,192,293580,128,0,293652:0:0:0:0:
192,192,293580,128,0,293753:0:0:0:0:
64,192,293580,128,0,293753:0:0:0:0:
448,192,293753,1,0,0:0:0:0:
320,192,293753,1,0,0:0:0:0:
64,192,293825,128,0,293883:0:0:0:0:
320,192,293825,128,0,293926:0:0:0:0:
448,192,293840,128,0,293994:0:0:0:0:
192,192,294013,128,0,294090:0:0:0:0:
64,192,294013,128,0,294090:0:0:0:0:
320,192,294013,128,0,294186:0:0:0:0:
192,192,294186,1,0,0:0:0:0:
64,192,294186,1,0,0:0:0:0:
192,192,294272,128,0,294344:0:0:0:0:
448,192,294272,128,0,294388:0:0:0:0:
320,192,294272,128,0,294373:0:0:0:0:
448,192,294445,128,0,294518:0:0:0:0:
320,192,294445,128,0,294561:0:0:0:0:
64,192,294445,128,0,294604:0:0:0:0:
448,192,294619,1,0,0:0:0:0:
320,192,294619,1,0,0:0:0:0:
64,192,294686,128,0,294782:0:0:0:0:
192,192,294705,128,0,294801:0:0:0:0:
448,192,294705,128,0,294878:0:0:0:0:
192,192,294878,128,0,294955:0:0:0:0:
64,192,294878,128,0,294955:0:0:0:0:
320,192,294878,128,0,295022:0:0:0:0:
64,192,295051,1,0,0:0:0:0:
192,192,295051,1,0,0:0:0:0:
320,192,295138,128,0,295253:0:0:0:0:
192,192,295138,128,0,295253:0:0:0:0:
448,192,295138,128,0,295253:0:0:0:0:
64,192,295311,128,0,295441:0:0:0:0:
192,192,295311,128,0,295426:0:0:0:0:
320,192,295311,128,0,295412:0:0:0:0:
64,192,295484,128,0,295585:0:0:0:0:
320,192,295484,128,0,295614:0:0:0:0:
448,192,295484,128,0,295585:0:0:0:0:
64,192,295657,128,0,295801:0:0:0:0:
448,192,295657,1,0,0:0:0:0:
192,192,295657,1,0,0:0:0:0:
448,192,295744,1,0,0:0:0:0:
320,192,295744,128,0,295816:0:0:0:0:
64,192,295917,1,0,0:0:0:0:
192,192,295917,128,0,296003:0:0:0:0:
448,192,295917,128,0,296003:0:0:0:0:
320,192,296003,1,0,0:0:0:0:
64,192,296003,1,0,0:0:0:0:
192,192,296147,1,0,0:0:0:0:
448,192,296176,128,0,296292:0:0:0:0:
64,192,296176,128,0,296292:0:0:0:0:
320,192,296176,128,0,296234:0:0:0:0:
64,192,296349,1,0,0:0:0:0:
320,192,296349,1,0,0:0:0:0:
448,192,296349,1,0,0:0:0:0:
192,192,296349,128,0,296494:0:0:0:0:
320,192,296522,1,0,0:0:0:0:
448,192,296522,1,0,0:0:0:0:
64,192,296522,1,0,0:0:0:0:
192,192,296609,1,0,0:0:0:0:
64,192,296695,1,0,0:0:0:0:
192,192,296695,1,0,0:0:0:0:
448,192,296695,1,0,0:0:0:0:
320,192,296782,1,0,0:0:0:0:
64,192,296782,128,0,296926:0:0:0:0:
448,192,296840,128,0,296955:0:0:0:0:
192,192,296869,128,0,296955:0:0:0:0:
320,192,296955,128,0,296984:0:0:0:0:
64,192,297042,128,0,297128:0:0:0:0:
448,192,297042,128,0,297128:0:0:0:0:
320,192,297042,128,0,297186:0:0:0:0:
64,192,297186,128,0,297272:0:0:0:0:
448,192,297186,128,0,297272:0:0:0:0:
192,192,297186,128,0,297359:0:0:0:0:
320,192,297359,128,0,297474:0:0:0:0:
448,192,297359,128,0,297474:0:0:0:0:
64,192,297359,128,0,297561:0:0:0:0:
192,192,297460,1,0,0:0:0:0:
320,192,297546,1,0,0:0:0:0:
448,192,297561,1,0,0:0:0:0:
192,192,297647,128,0,297763:0:0:0:0:
320,192,297647,128,0,297734:0:0:0:0:
64,192,297647,128,0,297792:0:0:0:0:
448,192,297820,1,0,0:0:0:0:
320,192,297820,1,0,0:0:0:0:
448,192,297907,128,0,298080:0:0:0:0:
192,192,297907,128,0,298022:0:0:0:0:
64,192,297907,128,0,297994:0:0:0:0:
192,192,298080,1,0,0:0:0:0:
64,192,298080,1,0,0:0:0:0:
64,192,298167,128,0,298282:0:0:0:0:
320,192,298167,128,0,298282:0:0:0:0:
448,192,298167,128,0,298340:0:0:0:0:
192,192,298340,1,0,0:0:0:0:
64,192,298340,1,0,0:0:0:0:
64,192,298426,128,0,298542:0:0:0:0:
192,192,298426,128,0,298513:0:0:0:0:
320,192,298426,128,0,298484:0:0:0:0:
448,192,298599,128,0,298686:0:0:0:0:
320,192,298599,128,0,298686:0:0:0:0:
192,192,298599,128,0,298686:0:0:0:0:
192,192,298744,128,0,298801:0:0:0:0:
64,192,298744,128,0,298801:0:0:0:0:
320,192,298744,128,0,298801:0:0:0:0:
448,192,298844,128,0,298945:0:0:0:0:
64,192,298859,128,0,299032:0:0:0:0:
192,192,298859,128,0,298945:0:0:0:0:
320,192,299032,1,0,0:0:0:0:
448,192,299032,1,0,0:0:0:0:
64,192,299119,128,0,299176:0:0:0:0:
320,192,299119,128,0,299234:0:0:0:0:
448,192,299119,128,0,299234:0:0:0:0:
64,192,299292,1,0,0:0:0:0:
192,192,299292,1,0,0:0:0:0:
64,192,299378,128,0,299494:0:0:0:0:
448,192,299378,128,0,299465:0:0:0:0:
320,192,299378,128,0,299479:0:0:0:0:
320,192,299551,128,0,299695:0:0:0:0:
64,192,299551,128,0,299609:0:0:0:0:
192,192,299551,128,0,299609:0:0:0:0:
64,192,299724,1,0,0:0:0:0:
192,192,299724,1,0,0:0:0:0:
192,192,299811,128,0,299897:0:0:0:0:
320,192,299811,128,0,299926:0:0:0:0:
448,192,299811,128,0,299955:0:0:0:0:
320,192,299984,128,0,300157:0:0:0:0:
192,192,299984,128,0,300070:0:0:0:0:
64,192,299984,128,0,300070:0:0:0:0:
64,192,300157,1,0,0:0:0:0:
192,192,300157,1,0,0:0:0:0:
192,192,300229,128,0,300316:0:0:0:0:
320,192,300244,128,0,300330:0:0:0:0:
448,192,300244,128,0,300359:0:0:0:0:
64,192,300388,128,0,300532:0:0:0:0:
192,192,300388,128,0,300503:0:0:0:0:
320,192,300388,128,0,300474:0:0:0:0:
64,192,300590,1,0,0:0:0:0:
320,192,300590,1,0,0:0:0:0:
192,192,300676,128,0,300792:0:0:0:0:
448,192,300676,128,0,300792:0:0:0:0:
320,192,300676,128,0,300792:0:0:0:0:
64,192,300734,1,0,0:0:0:0:
320,192,300849,128,0,300936:0:0:0:0:
64,192,300849,128,0,300936:0:0:0:0:
192,192,300849,128,0,300965:0:0:0:0:
448,192,300994,128,0,301109:0:0:0:0:
320,192,300994,128,0,301051:0:0:0:0:
64,192,300994,128,0,301051:0:0:0:0:
192,192,301109,1,0,0:0:0:0:
320,192,301195,128,0,301224:0:0:0:0:
448,192,301195,128,0,301224:0:0:0:0:
64,192,301195,128,0,301224:0:0:0:0:
320,192,301282,128,0,301340:0:0:0:0:
64,192,301282,128,0,301369:0:0:0:0:
192,192,301282,128,0,301369:0:0:0:0:
320,192,301426,1,0,0:0:0:0:
64,192,301426,1,0,0:0:0:0:
448,192,301426,1,0,0:0:0:0:
192,192,301513,128,0,301599:0:0:0:0:
320,192,301513,128,0,301570:0:0:0:0:
448,192,301513,128,0,301599:0:0:0:0:
320,192,301614,128,0,301657:0:0:0:0:
64,192,301628,128,0,301657:0:0:0:0:
448,192,301700,128,0,301772:0:0:0:0:
64,192,301715,128,0,301888:0:0:0:0:
192,192,301715,128,0,301830:0:0:0:0:
320,192,301888,128,0,302003:0:0:0:0:
448,192,301888,128,0,302003:0:0:0:0:
192,192,301888,128,0,301945:0:0:0:0:
320,192,302061,1,0,0:0:0:0:
448,192,302061,1,0,0:0:0:0:
64,192,302090,1,0,0:0:0:0:
192,192,302119,1,0,0:0:0:0:
448,192,302147,1,0,0:0:0:0:
320,192,302176,1,0,0:0:0:0:
64,192,302205,1,0,0:0:0:0:
192,192,302234,1,0,0:0:0:0:
320,192,302263,1,0,0:0:0:0:
448,192,302292,1,0,0:0:0:0:
192,192,302320,128,0,302494:0:0:0:0:
64,192,302320,128,0,302349:0:0:0:0:
64,192,302436,128,0,302465:0:0:0:0:
320,192,302551,128,0,302667:0:0:0:0:
448,192,302551,128,0,302638:0:0:0:0:
64,192,302551,128,0,302580:0:0:0:0:
64,192,302667,128,0,302695:0:0:0:0:
64,192,302753,128,0,302782:0:0:0:0:
448,192,302753,128,0,302782:0:0:0:0:
192,192,302753,128,0,302782:0:0:0:0:
192,192,302840,128,0,302869:0:0:0:0:
320,192,302840,128,0,302869:0:0:0:0:
320,192,302926,128,0,302955:0:0:0:0:
448,192,302926,1,0,0:0:0:0:
64,192,302984,128,0,303070:0:0:0:0:
448,192,303013,128,0,303070:0:0:0:0:
192,192,303013,128,0,303070:0:0:0:0:
320,192,303042,128,0,303070:0:0:0:0:
192,192,303128,128,0,303157:0:0:0:0:
64,192,303157,128,0,303186:0:0:0:0:
448,192,303157,128,0,303186:0:0:0:0:
320,192,303272,128,0,303301:0:0:0:0:
192,192,303272,128,0,303301:0:0:0:0:
448,192,303359,128,0,303388:0:0:0:0:
64,192,303359,128,0,303388:0:0:0:0:
64,192,303445,128,0,303503:0:0:0:0:
192,192,303445,128,0,303503:0:0:0:0:
448,192,303445,128,0,303503:0:0:0:0:
192,192,303575,128,0,303633:0:0:0:0:
320,192,303590,128,0,303647:0:0:0:0:
448,192,303590,128,0,303647:0:0:0:0:
320,192,303705,1,0,0:0:0:0:
448,192,303705,128,0,303734:0:0:0:0:
64,192,303705,128,0,303792:0:0:0:0:
320,192,303792,128,0,303878:0:0:0:0:
448,192,303878,128,0,303907:0:0:0:0:
192,192,303878,128,0,304051:0:0:0:0:
64,192,303878,128,0,303994:0:0:0:0:
448,192,303994,128,0,304022:0:0:0:0:
448,192,304109,128,0,304138:0:0:0:0:
192,192,304109,128,0,304138:0:0:0:0:
64,192,304109,128,0,304138:0:0:0:0:
320,192,304224,128,0,304253:0:0:0:0:
192,192,304224,128,0,304253:0:0:0:0:
448,192,304311,128,0,304340:0:0:0:0:
320,192,304311,128,0,304340:0:0:0:0:
64,192,304311,128,0,304340:0:0:0:0:
192,192,304369,128,0,304455:0:0:0:0:
320,192,304397,128,0,304455:0:0:0:0:
64,192,304397,128,0,304455:0:0:0:0:
448,192,304426,128,0,304455:0:0:0:0:
192,192,304484,128,0,304513:0:0:0:0:
64,192,304484,128,0,304513:0:0:0:0:
192,192,304599,128,0,304628:0:0:0:0:
320,192,304599,128,0,304628:0:0:0:0:
448,192,304715,128,0,304744:0:0:0:0:
64,192,304715,128,0,304744:0:0:0:0:
320,192,304715,128,0,304801:0:0:0:0:
192,192,304801,128,0,304830:0:0:0:0:
448,192,304888,128,0,304974:0:0:0:0:
320,192,304888,128,0,304945:0:0:0:0:
64,192,304888,128,0,304917:0:0:0:0:
192,192,304974,128,0,305003:0:0:0:0:
320,192,305090,128,0,305119:0:0:0:0:
448,192,305090,1,0,0:0:0:0:
64,192,305090,128,0,305205:0:0:0:0:
192,192,305147,1,0,0:0:0:0:
320,192,305205,128,0,305234:0:0:0:0:
320,192,305320,128,0,305349:0:0:0:0:
192,192,305320,128,0,305436:0:0:0:0:
64,192,305320,128,0,305378:0:0:0:0:
320,192,305436,128,0,305465:0:0:0:0:
192,192,305522,1,0,0:0:0:0:
64,192,305522,1,0,0:0:0:0:
320,192,305522,128,0,305551:0:0:0:0:
192,192,305609,128,0,305638:0:0:0:0:
64,192,305609,128,0,305638:0:0:0:0:
448,192,305695,128,0,305782:0:0:0:0:
320,192,305724,128,0,305782:0:0:0:0:
192,192,305753,128,0,305782:0:0:0:0:
64,192,305782,1,0,0:0:0:0:
320,192,305811,128,0,305840:0:0:0:0:
192,192,305869,128,0,305897:0:0:0:0:
64,192,305955,128,0,305984:0:0:0:0:
320,192,305955,128,0,306042:0:0:0:0:
448,192,305955,128,0,306013:0:0:0:0:
192,192,306042,128,0,306070:0:0:0:0:
448,192,306128,128,0,306157:0:0:0:0:
64,192,306128,128,0,306157:0:0:0:0:
320,192,306128,128,0,306157:0:0:0:0:
320,192,306215,128,0,306244:0:0:0:0:
448,192,306272,128,0,306359:0:0:0:0:
192,192,306272,128,0,306301:0:0:0:0:
64,192,306272,128,0,306359:0:0:0:0:
320,192,306388,128,0,306474:0:0:0:0:
64,192,306388,128,0,306445:0:0:0:0:
448,192,306503,128,0,306532:0:0:0:0:
192,192,306503,128,0,306532:0:0:0:0:
64,192,306503,128,0,306532:0:0:0:0:
192,192,306619,128,0,306705:0:0:0:0:
320,192,306619,128,0,306647:0:0:0:0:
320,192,306705,1,0,0:0:0:0:
448,192,306705,1,0,0:0:0:0:
64,192,306705,1,0,0:0:0:0:
192,192,306792,128,0,306820:0:0:0:0:
64,192,306792,128,0,306820:0:0:0:0:
192,192,306878,128,0,306907:0:0:0:0:
320,192,306878,128,0,306907:0:0:0:0:
448,192,306878,128,0,306907:0:0:0:0:
448,192,306965,128,0,306994:0:0:0:0:
320,192,306965,128,0,307051:0:0:0:0:
192,192,307080,1,0,0:0:0:0:
64,192,307080,1,0,0:0:0:0:
320,192,307138,128,0,307167:0:0:0:0:
192,192,307167,128,0,307195:0:0:0:0:
64,192,307167,128,0,307195:0:0:0:0:
448,192,307195,128,0,307253:0:0:0:0:
192,192,307311,128,0,307369:0:0:0:0:
320,192,307311,128,0,307340:0:0:0:0:
320,192,307397,1,0,0:0:0:0:
448,192,307397,1,0,0:0:0:0:
64,192,307397,128,0,307455:0:0:0:0:
192,192,307455,128,0,307513:0:0:0:0:
320,192,307513,1,0,0:0:0:0:
448,192,307513,1,0,0:0:0:0:
192,192,307599,1,0,0:0:0:0:
64,192,307599,128,0,307628:0:0:0:0:
448,192,307599,128,0,307628:0:0:0:0:
320,192,307715,1,0,0:0:0:0:
448,192,307715,128,0,307744:0:0:0:0:
64,192,307715,128,0,307744:0:0:0:0:
64,192,307859,128,0,307888:0:0:0:0:
448,192,307859,128,0,307888:0:0:0:0:
192,192,307859,128,0,307888:0:0:0:0:
448,192,307974,128,0,308003:0:0:0:0:
64,192,307974,128,0,308003:0:0:0:0:
320,192,307974,128,0,308003:0:0:0:0:
320,192,308090,128,0,308119:0:0:0:0:
64,192,308090,128,0,308119:0:0:0:0:
192,192,308090,128,0,308133:0:0:0:0:
448,192,308205,128,0,308234:0:0:0:0:
320,192,308205,128,0,308234:0:0:0:0:
64,192,308205,128,0,308234:0:0:0:0:
64,192,308292,128,0,308320:0:0:0:0:
192,192,308292,128,0,308320:0:0:0:0:
448,192,308378,128,0,308407:0:0:0:0:
320,192,308378,128,0,308407:0:0:0:0:
192,192,308378,128,0,308407:0:0:0:0:
320,192,308465,1,0,0:0:0:0:
64,192,308522,128,0,308580:0:0:0:0:
192,192,308551,128,0,308580:0:0:0:0:
448,192,308551,128,0,308580:0:0:0:0:
320,192,308580,1,0,0:0:0:0:
448,192,308695,128,0,308753:0:0:0:0:
64,192,308695,128,0,308753:0:0:0:0:
320,192,308811,128,0,308869:0:0:0:0:
192,192,308811,128,0,308897:0:0:0:0:
448,192,308897,1,0,0:0:0:0:
64,192,308897,1,0,0:0:0:0:
64,192,308984,128,0,309042:0:0:0:0:
192,192,308984,128,0,309042:0:0:0:0:
448,192,308984,128,0,309042:0:0:0:0:
192,192,309114,128,0,309171:0:0:0:0:
320,192,309128,128,0,309186:0:0:0:0:
448,192,309128,128,0,309186:0:0:0:0:
448,192,309244,1,0,0:0:0:0:
64,192,309244,1,0,0:0:0:0:
320,192,309244,128,0,309272:0:0:0:0:
320,192,309330,128,0,309359:0:0:0:0:
448,192,309417,1,0,0:0:0:0:
192,192,309417,128,0,309445:0:0:0:0:
64,192,309417,128,0,309445:0:0:0:0:
320,192,309532,128,0,309561:0:0:0:0:
448,192,309532,128,0,309561:0:0:0:0:
192,192,309590,128,0,309619:0:0:0:0:
64,192,309590,128,0,309619:0:0:0:0:
320,192,309647,128,0,309763:0:0:0:0:
448,192,309647,128,0,309705:0:0:0:0:
192,192,309763,128,0,309792:0:0:0:0:
64,192,309763,128,0,309792:0:0:0:0:
320,192,309849,128,0,309878:0:0:0:0:
448,192,309849,128,0,309907:0:0:0:0:
192,192,309907,128,0,309994:0:0:0:0:
320,192,309936,128,0,309994:0:0:0:0:
64,192,309936,128,0,309994:0:0:0:0:
448,192,309965,128,0,309994:0:0:0:0:
64,192,310051,128,0,310080:0:0:0:0:
192,192,310051,128,0,310080:0:0:0:0:
192,192,310167,128,0,310195:0:0:0:0:
320,192,310167,128,0,310195:0:0:0:0:
448,192,310282,128,0,310311:0:0:0:0:
320,192,310282,128,0,310311:0:0:0:0:
64,192,310282,128,0,310311:0:0:0:0:
192,192,310369,128,0,310426:0:0:0:0:
64,192,310426,1,0,0:0:0:0:
448,192,310426,128,0,310455:0:0:0:0:
320,192,310426,128,0,310455:0:0:0:0:
192,192,310513,128,0,310542:0:0:0:0:
64,192,310628,128,0,310859:0:0:0:0:
320,192,310628,128,0,310657:0:0:0:0:
448,192,310628,128,0,310657:0:0:0:0:
192,192,310744,128,0,310801:0:0:0:0:
320,192,310744,128,0,310772:0:0:0:0:
320,192,310859,128,0,310888:0:0:0:0:
448,192,310974,1,0,0:0:0:0:
64,192,310974,1,0,0:0:0:0:
320,192,310974,128,0,311003:0:0:0:0:
192,192,311061,1,0,0:0:0:0:
320,192,311061,128,0,311090:0:0:0:0:
64,192,311147,128,0,311176:0:0:0:0:
192,192,311147,128,0,311176:0:0:0:0:
448,192,311147,128,0,311176:0:0:0:0:
320,192,311263,128,0,311292:0:0:0:0:
192,192,311292,128,0,311320:0:0:0:0:
64,192,311320,128,0,311349:0:0:0:0:
448,192,311320,128,0,311349:0:0:0:0:
320,192,311349,128,0,311378:0:0:0:0:
192,192,311407,128,0,311436:0:0:0:0:
448,192,311494,128,0,311522:0:0:0:0:
320,192,311494,128,0,311522:0:0:0:0:
64,192,311494,128,0,311551:0:0:0:0:
64,192,311580,128,0,311609:0:0:0:0:
192,192,311580,128,0,311609:0:0:0:0:
192,192,311667,128,0,311695:0:0:0:0:
320,192,311667,128,0,311695:0:0:0:0:
448,192,311667,128,0,311695:0:0:0:0:
320,192,311753,128,0,311811:0:0:0:0:
448,192,311811,128,0,311840:0:0:0:0:
192,192,311811,128,0,311840:0:0:0:0:
64,192,311811,128,0,311840:0:0:0:0:
320,192,311926,128,0,311984:0:0:0:0:
448,192,311926,128,0,311984:0:0:0:0:
192,192,311984,128,0,312042:0:0:0:0:
64,192,311984,128,0,312042:0:0:0:0:
448,192,312042,1,0,0:0:0:0:
320,192,312042,1,0,0:0:0:0:
320,192,312157,128,0,312186:0:0:0:0:
192,192,312157,128,0,312186:0:0:0:0:
320,192,312244,128,0,312272:0:0:0:0:
448,192,312244,128,0,312272:0:0:0:0:
64,192,312244,128,0,312272:0:0:0:0:
64,192,312330,128,0,312359:0:0:0:0:
192,192,312330,128,0,312359:0:0:0:0:
448,192,312330,128,0,312359:0:0:0:0:
320,192,312445,128,0,312474:0:0:0:0:
192,192,312445,128,0,312474:0:0:0:0:
64,192,312445,128,0,312474:0:0:0:0:
320,192,312532,128,0,312561:0:0:0:0:
448,192,312532,128,0,312561:0:0:0:0:
192,192,312619,128,0,312647:0:0:0:0:
64,192,312619,128,0,312647:0:0:0:0:
320,192,312676,128,0,312734:0:0:0:0:
192,192,312705,128,0,312734:0:0:0:0:
64,192,312705,128,0,312734:0:0:0:0:
448,192,312734,1,0,0:0:0:0:
320,192,312849,128,0,312878:0:0:0:0:
192,192,312849,128,0,312878:0:0:0:0:
64,192,312936,128,0,313051:0:0:0:0:
320,192,312936,128,0,312994:0:0:0:0:
448,192,312936,128,0,312994:0:0:0:0:
192,192,312994,128,0,313051:0:0:0:0:
448,192,313051,128,0,313080:0:0:0:0:
320,192,313051,128,0,313109:0:0:0:0:
192,192,313138,128,0,313167:0:0:0:0:
64,192,313138,128,0,313167:0:0:0:0:
448,192,313138,128,0,313167:0:0:0:0:
320,192,313253,128,0,313282:0:0:0:0:
448,192,313253,128,0,313282:0:0:0:0:
64,192,313253,128,0,313282:0:0:0:0:
192,192,313397,1,0,0:0:0:0:
64,192,313397,1,0,0:0:0:0:
448,192,313397,128,0,313570:0:0:0:0:
320,192,313436,1,0,0:0:0:0:
192,192,313474,128,0,313513:0:0:0:0:
64,192,313513,128,0,313686:0:0:0:0:
320,192,313551,128,0,313782:0:0:0:0:
192,192,313590,128,0,313667:0:0:0:0:
448,192,313628,128,0,313705:0:0:0:0:
64,192,313744,128,0,313801:0:0:0:0:
192,192,313744,128,0,313801:0:0:0:0:
448,192,313801,128,0,313917:0:0:0:0:
192,192,313859,128,0,313917:0:0:0:0:
320,192,313859,128,0,313917:0:0:0:0:
64,192,313917,128,0,314032:0:0:0:0:
448,192,313974,128,0,314032:0:0:0:0:
320,192,313974,128,0,314147:0:0:0:0:
192,192,314032,128,0,314090:0:0:0:0:
448,192,314090,128,0,314147:0:0:0:0:
64,192,314090,128,0,314205:0:0:0:0:
192,192,314147,128,0,314378:0:0:0:0:
448,192,314205,128,0,314378:0:0:0:0:
320,192,314205,128,0,314378:0:0:0:0:
64,192,314263,128,0,314320:0:0:0:0:
320,192,314436,128,0,314494:0:0:0:0:
448,192,314436,128,0,314494:0:0:0:0:
192,192,314436,1,0,0:0:0:0:
64,192,314494,128,0,314609:0:0:0:0:
192,192,314551,128,0,314609:0:0:0:0:
320,192,314551,128,0,314609:0:0:0:0:
448,192,314609,128,0,314724:0:0:0:0:
192,192,314667,128,0,314724:0:0:0:0:
64,192,314667,128,0,314724:0:0:0:0:
320,192,314724,1,0,0:0:0:0:
64,192,314782,128,0,314820:0:0:0:0:
192,192,314782,128,0,314897:0:0:0:0:
448,192,314782,128,0,314840:0:0:0:0:
320,192,314840,128,0,315056:0:0:0:0:
64,192,314897,128,0,315085:0:0:0:0:
448,192,314897,128,0,315042:0:0:0:0:
192,192,314955,128,0,315070:0:0:0:0:
320,192,315128,1,0,0:0:0:0:
64,192,315128,128,0,315186:0:0:0:0:
192,192,315128,128,0,315186:0:0:0:0:
448,192,315186,128,0,315301:0:0:0:0:
192,192,315244,128,0,315301:0:0:0:0:
320,192,315244,128,0,315301:0:0:0:0:
64,192,315301,128,0,315417:0:0:0:0:
448,192,315359,128,0,315417:0:0:0:0:
320,192,315359,128,0,315474:0:0:0:0:
192,192,315417,128,0,315532:0:0:0:0:
64,192,315474,128,0,315647:0:0:0:0:
448,192,315474,128,0,315763:0:0:0:0:
320,192,315532,128,0,315763:0:0:0:0:
192,192,315590,128,0,315705:0:0:0:0:
64,192,315705,128,0,315763:0:0:0:0:
192,192,315763,1,0,0:0:0:0:
448,192,315820,128,0,315907:0:0:0:0:
320,192,315820,128,0,315878:0:0:0:0:
64,192,315878,128,0,315994:0:0:0:0:
192,192,315936,128,0,315994:0:0:0:0:
320,192,315936,128,0,316022:0:0:0:0:
448,192,315994,128,0,316109:0:0:0:0:
64,192,316051,128,0,316109:0:0:0:0:
192,192,316051,128,0,316138:0:0:0:0:
320,192,316109,128,0,316224:0:0:0:0:
64,192,316167,128,0,316224:0:0:0:0:
448,192,316167,128,0,316282:0:0:0:0:
192,192,316224,128,0,316455:0:0:0:0:
64,192,316282,128,0,316455:0:0:0:0:
320,192,316282,128,0,316455:0:0:0:0:
448,192,316340,128,0,316397:0:0:0:0:
448,192,316455,1,0,0:0:0:0:
192,192,316513,128,0,316570:0:0:0:0:
320,192,316513,1,0,0:0:0:0:
64,192,316513,128,0,316599:0:0:0:0:
448,192,316570,128,0,316686:0:0:0:0:
320,192,316628,128,0,316686:0:0:0:0:
192,192,316628,128,0,316715:0:0:0:0:
64,192,316686,128,0,316801:0:0:0:0:
448,192,316744,128,0,316801:0:0:0:0:
320,192,316744,128,0,316830:0:0:0:0:
192,192,316801,128,0,316859:0:0:0:0:
448,192,316859,128,0,317032:0:0:0:0:
64,192,316859,128,0,317032:0:0:0:0:
320,192,316917,128,0,317051:0:0:0:0:
192,192,316936,128,0,317090:0:0:0:0:
448,192,317090,128,0,317147:0:0:0:0:
64,192,317090,128,0,317147:0:0:0:0:
320,192,317128,128,0,317205:0:0:0:0:
192,192,317167,128,0,317263:0:0:0:0:
64,192,317205,128,0,317263:0:0:0:0:
448,192,317205,128,0,317378:0:0:0:0:
320,192,317263,128,0,317320:0:0:0:0:
192,192,317320,128,0,317436:0:0:0:0:
64,192,317320,128,0,317378:0:0:0:0:
320,192,317378,128,0,317494:0:0:0:0:
448,192,317436,128,0,317494:0:0:0:0:
64,192,317436,128,0,317494:0:0:0:0:
192,192,317494,1,0,0:0:0:0:
64,192,317551,128,0,317667:0:0:0:0:
320,192,317551,128,0,317609:0:0:0:0:
448,192,317551,128,0,317609:0:0:0:0:
192,192,317609,128,0,317724:0:0:0:0:
448,192,317667,128,0,317840:0:0:0:0:
320,192,317667,128,0,317840:0:0:0:0:
64,192,317724,1,0,0:0:0:0:
192,192,317782,128,0,317840:0:0:0:0:
320,192,317897,128,0,317955:0:0:0:0:
448,192,317897,128,0,318013:0:0:0:0:
192,192,317897,128,0,317955:0:0:0:0:
64,192,317955,128,0,318070:0:0:0:0:
320,192,318013,128,0,318070:0:0:0:0:
192,192,318013,128,0,318128:0:0:0:0:
448,192,318070,128,0,318186:0:0:0:0:
64,192,318128,128,0,318186:0:0:0:0:
320,192,318128,128,0,318186:0:0:0:0:
192,192,318186,128,0,318244:0:0:0:0:
448,192,318244,128,0,318417:0:0:0:0:
320,192,318244,128,0,318417:0:0:0:0:
64,192,318244,128,0,318359:0:0:0:0:
192,192,318301,128,0,318474:0:0:0:0:
64,192,318417,1,0,0:0:0:0:
448,192,318474,128,0,318532:0:0:0:0:
320,192,318474,128,0,318590:0:0:0:0:
192,192,318532,128,0,318647:0:0:0:0:
64,192,318590,128,0,318705:0:0:0:0:
448,192,318590,128,0,318647:0:0:0:0:
320,192,318647,128,0,318763:0:0:0:0:
192,192,318705,128,0,318763:0:0:0:0:
448,192,318705,128,0,318820:0:0:0:0:
64,192,318763,128,0,318878:0:0:0:0:
192,192,318820,128,0,318878:0:0:0:0:
320,192,318820,128,0,318878:0:0:0:0:
448,192,318878,128,0,318936:0:0:0:0:
320,192,318936,128,0,319109:0:0:0:0:
192,192,318936,128,0,319051:0:0:0:0:
64,192,318936,128,0,318994:0:0:0:0:
448,192,318994,128,0,319051:0:0:0:0:
64,192,319051,1,0,0:0:0:0:
192,192,319109,1,0,0:0:0:0:
320,192,319167,128,0,319224:0:0:0:0:
448,192,319167,128,0,319224:0:0:0:0:
64,192,319167,128,0,319311:0:0:0:0:
448,192,319282,128,0,319369:0:0:0:0:
320,192,319311,128,0,319369:0:0:0:0:
192,192,319340,128,0,319397:0:0:0:0:
64,192,319369,128,0,319570:0:0:0:0:
320,192,319426,128,0,319455:0:0:0:0:
192,192,319455,128,0,319484:0:0:0:0:
448,192,319484,128,0,319657:0:0:0:0:
320,192,319513,128,0,319628:0:0:0:0:
192,192,319570,128,0,319599:0:0:0:0:
64,192,319628,128,0,319686:0:0:0:0:
192,192,319657,128,0,319715:0:0:0:0:
320,192,319686,128,0,319744:0:0:0:0:
448,192,319715,128,0,319772:0:0:0:0:
64,192,319744,128,0,319801:0:0:0:0:
192,192,319744,128,0,319801:0:0:0:0:
64,192,319859,128,0,320032:0:0:0:0:
320,192,319859,128,0,319917:0:0:0:0:
448,192,319859,128,0,320032:0:0:0:0:
320,192,319974,128,0,320032:0:0:0:0:
192,192,319974,128,0,320032:0:0:0:0:
64,192,320090,128,0,320147:0:0:0:0:
320,192,320090,128,0,320263:0:0:0:0:
192,192,320090,128,0,320205:0:0:0:0:
448,192,320147,128,0,320263:0:0:0:0:
64,192,320205,1,0,0:0:0:0:
192,192,320263,1,0,0:0:0:0:
64,192,320320,128,0,320378:0:0:0:0:
320,192,320320,128,0,320378:0:0:0:0:
448,192,320320,128,0,320378:0:0:0:0:
320,192,320436,128,0,320494:0:0:0:0:
64,192,320436,128,0,320609:0:0:0:0:
192,192,320436,128,0,320494:0:0:0:0:
320,192,320551,128,0,320667:0:0:0:0:
448,192,320551,128,0,320609:0:0:0:0:
192,192,320609,128,0,320724:0:0:0:0:
64,192,320667,128,0,320724:0:0:0:0:
448,192,320667,128,0,320840:0:0:0:0:
320,192,320724,128,0,320782:0:0:0:0:
192,192,320782,128,0,320840:0:0:0:0:
64,192,320782,128,0,320897:0:0:0:0:
320,192,320840,128,0,320955:0:0:0:0:
192,192,320897,128,0,320955:0:0:0:0:
448,192,320897,128,0,321013:0:0:0:0:
64,192,320955,128,0,321070:0:0:0:0:
192,192,321013,128,0,321070:0:0:0:0:
320,192,321013,128,0,321128:0:0:0:0:
448,192,321070,128,0,321186:0:0:0:0:
192,192,321128,128,0,321244:0:0:0:0:
64,192,321128,128,0,321186:0:0:0:0:
320,192,321186,128,0,321301:0:0:0:0:
448,192,321244,128,0,321301:0:0:0:0:
64,192,321244,128,0,321417:0:0:0:0:
192,192,321301,128,0,321359:0:0:0:0:
320,192,321359,128,0,321474:0:0:0:0:
448,192,321359,128,0,321417:0:0:0:0:
192,192,321417,128,0,321532:0:0:0:0:
64,192,321474,128,0,321532:0:0:0:0:
448,192,321474,128,0,321647:0:0:0:0:
320,192,321532,128,0,321590:0:0:0:0:
192,192,321561,1,0,0:0:0:0:
64,192,321590,128,0,321763:0:0:0:0:
320,192,321647,128,0,321763:0:0:0:0:
192,192,321705,128,0,321763:0:0:0:0:
448,192,321705,128,0,321763:0:0:0:0:
320,192,321820,128,0,321936:0:0:0:0:
192,192,321820,128,0,321878:0:0:0:0:
448,192,321820,128,0,321994:0:0:0:0:
64,192,321878,1,0,0:0:0:0:
192,192,321936,1,0,0:0:0:0:
320,192,321994,1,0,0:0:0:0:
448,192,322051,1,0,0:0:0:0:
64,192,322051,128,0,322109:0:0:0:0:
192,192,322051,128,0,322109:0:0:0:0:
64,192,322167,128,0,322340:0:0:0:0:
192,192,322167,128,0,322282:0:0:0:0:
320,192,322167,128,0,322224:0:0:0:0:
448,192,322224,1,0,0:0:0:0:
320,192,322282,1,0,0:0:0:0:
192,192,322340,1,0,0:0:0:0:
64,192,322397,1,0,0:0:0:0:
320,192,322397,128,0,322455:0:0:0:0:
448,192,322397,128,0,322455:0:0:0:0:
64,192,322513,128,0,322686:0:0:0:0:
320,192,322513,1,0,0:0:0:0:
448,192,322513,1,0,0:0:0:0:
192,192,322570,128,0,322686:0:0:0:0:
320,192,322628,128,0,322686:0:0:0:0:
448,192,322628,128,0,322686:0:0:0:0:
192,192,322744,1,0,0:0:0:0:
64,192,322744,1,0,0:0:0:0:
448,192,322744,1,0,0:0:0:0:
64,192,322859,128,0,322974:0:0:0:0:
448,192,322859,128,0,322917:0:0:0:0:
192,192,322859,128,0,322917:0:0:0:0:
320,192,322917,1,0,0:0:0:0:
192,192,322974,1,0,0:0:0:0:
64,192,323032,1,0,0:0:0:0:
192,192,323090,128,0,323147:0:0:0:0:
320,192,323090,128,0,323205:0:0:0:0:
448,192,323090,128,0,323263:0:0:0:0:
64,192,323147,1,0,0:0:0:0:
192,192,323205,1,0,0:0:0:0:
320,192,323263,1,0,0:0:0:0:
64,192,323320,128,0,323378:0:0:0:0:
192,192,323320,128,0,323436:0:0:0:0:
448,192,323378,128,0,323494:0:0:0:0:
320,192,323436,128,0,323551:0:0:0:0:
64,192,323436,128,0,323494:0:0:0:0:
192,192,323494,128,0,323609:0:0:0:0:
64,192,323551,128,0,323609:0:0:0:0:
448,192,323551,128,0,323782:0:0:0:0:
320,192,323609,128,0,323667:0:0:0:0:
192,192,323667,128,0,323724:0:0:0:0:
64,192,323667,128,0,323724:0:0:0:0:
320,192,323724,128,0,323840:0:0:0:0:
192,192,323782,128,0,323897:0:0:0:0:
64,192,323782,128,0,323955:0:0:0:0:
448,192,323840,128,0,323955:0:0:0:0:
320,192,323897,128,0,323955:0:0:0:0:
192,192,323955,128,0,324013:0:0:0:0:
448,192,324013,128,0,324128:0:0:0:0:
320,192,324013,128,0,324070:0:0:0:0:
64,192,324013,128,0,324128:0:0:0:0:
192,192,324070,128,0,324128:0:0:0:0:
320,192,324128,1,0,0:0:0:0:
192,192,324157,1,0,0:0:0:0:
64,192,324186,1,0,0:0:0:0:
448,192,324215,1,0,0:0:0:0:
320,192,324244,1,0,0:0:0:0:
192,192,324301,1,0,0:0:0:0:
64,192,324359,1,0,0:0:0:0:
320,192,324359,1,0,0:0:0:0:
