osu file format v14

[General]
AudioFilename: audio.ogg
AudioLeadIn: 0
PreviewTime: 255478
Countdown: 0
SampleSet: None
StackLeniency: 0.7
Mode: 3
LetterboxInBreaks: 0
SpecialStyle: 0
WidescreenStoryboard: 1

[Editor]
DistanceSpacing: 1.5
BeatDivisor: 8
GridSize: 32
TimelineZoom: 3.799998

[Metadata]
Title:<> ~Truth in Uncertainty~ LN Training
TitleUnicode:《/nttld.:beings》 ~Truth in Uncertainty~ LN Training
Artist:GTS Sound Team
ArtistUnicode:GTS Sound Team
Creator:ytGrapeFrootZ34
Version:12
Source:Expert Global Taiko Showdown 2022
Tags:LN, ena, ezmmr, upan, castella, suddendeath, onta, Hylotl, SoraIro-' , Marathon, Cicada, Longnote, stream, jack, speed, tech, burst
BeatmapID:4556960
BeatmapSetID:2160950

[Difficulty]
HPDrainRate:6
CircleSize:4
OverallDifficulty:6.6
ApproachRate:5
SliderMultiplier:1.4
SliderTickRate:1

[Events]
//Background and Video events
0,0,"bgggg.jpg",0,0
//Break Periods
//Storyboard Layer 0 (Background)
//Storyboard Layer 1 (Fail)
//Storyboard Layer 2 (Pass)
//Storyboard Layer 3 (Foreground)
//Storyboard Layer 4 (Overlay)
//Storyboard Sound Samples

[TimingPoints]
1073,272.727272727273,5,1,0,50,1,8
1073,-84.7457627118644,5,1,0,50,0,8
2164,272.727272727273,4,1,0,50,1,0
2164,-84.7457627118644,4,1,0,50,0,0
63232,272.727272727273,4,1,0,50,1,0
63232,-84.7457627118644,4,1,0,50,0,0
78505,272.727272727273,4,1,0,50,1,0
78505,-84.7457627118644,4,1,0,50,0,0
98141,272.727272727273,4,1,0,50,1,0
98141,-84.7457627118644,4,1,0,50,0,0
124322,266.666666666667,4,1,0,50,1,0
124322,-86.2068965517241,4,1,0,50,0,0
125388,250,4,1,0,50,1,0
125388,-92.5925925925926,4,1,0,50,0,0
126388,235.294117647059,4,1,0,50,1,0
126388,-98.0392156862745,4,1,0,50,0,0
127329,222.222222222222,4,1,0,50,1,0
127329,-104.166666666667,4,1,0,50,0,0
128217,210.526315789474,4,1,0,50,1,0
128217,-109.89010989011,4,1,0,50,0,0
129059,200,4,1,0,50,1,0
129059,-114.942528735632,4,1,0,50,0,0
130659,230.769230769231,5,1,0,50,1,0
130659,-100,5,1,0,50,0,0
131725,526.315789473684,727,1,0,50,1,0
131725,-43.859649122807,727,1,0,50,0,0
140124,523.331879633668,8,1,0,50,1,0
140124,-44.0528634361233,8,1,0,50,0,0
148497,523.331879633668,8,1,0,50,1,8
148497,-44.0528634361233,8,1,0,50,0,8
149282,545.454545454546,4,1,0,50,1,0
149282,-42.3728813559322,4,1,0,50,0,0
156907,272.727272727273,4,1,0,50,1,0
156907,-84.7457627118644,4,1,0,50,0,0
157997,300,4,1,0,50,1,0
157997,-76.9230769230769,4,1,0,50,0,0
179597,300,4,1,0,50,1,0
179597,-76.9230769230769,4,1,0,50,0,0
196397,300,4,1,0,50,1,0
196397,-76.9230769230769,4,1,0,50,0,0
220397,400,4,1,0,50,1,8
220397,-57.8034682080925,4,1,0,50,0,8
220418,400,3,1,0,50,1,0
220418,-57.8034682080925,3,1,0,50,0,0
227318,400,6,1,0,50,1,0
227318,-57.8034682080925,6,1,0,50,0,0
229418,400,3,1,0,50,1,0
229418,-57.8034682080925,3,1,0,50,0,0
234218,400,6,1,0,50,1,0
234218,-57.8034682080925,6,1,0,50,0,0
236318,400,3,1,0,50,1,0
236318,-57.8034682080925,3,1,0,50,0,0
237218,400,3,1,0,50,1,8
237218,-57.8034682080925,3,1,0,50,0,8
238418,333.333333333334,4,1,0,50,1,0
238418,-69.4444444444444,4,1,0,50,0,0
238751,300,4,1,0,50,1,8
238751,-76.9230769230769,4,1,0,50,0,8
239051,272.727272727273,4,1,0,50,1,8
239051,-84.7457627118644,4,1,0,50,0,8
239596,260.869565217391,4,1,0,50,1,0
239596,-88.495575221239,4,1,0,50,0,0
239856,272.727272727273,4,1,0,50,1,8
239856,-84.7457627118644,4,1,0,50,0,8
240128,260.869565217391,4,1,0,50,1,8
240128,-88.495575221239,4,1,0,50,0,8
240649,260.869565217391,4,1,0,50,1,0
240649,-88.495575221239,4,1,0,50,0,0
240910,250,4,1,0,50,1,8
240910,-92.5925925925926,4,1,0,50,0,8
241160,244.897959183673,4,1,0,50,1,8
241160,-94.3396226415094,4,1,0,50,0,8
241404,240,4,1,0,50,1,8
241404,-96.1538461538461,4,1,0,50,0,8
241644,235.294117647059,4,1,0,50,1,0
241644,-98.0392156862745,4,1,0,50,0,0
242555,230.769230769231,4,1,0,50,1,0
242555,-100,4,1,0,50,0,0
255478,230.769230769231,5,1,0,50,1,0
255478,-100,5,1,0,50,0,0
256631,230.769230769231,4,1,0,50,1,0
256631,-100,4,1,0,50,0,0
281554,230.769230769231,5,1,0,50,1,0
281554,-100,5,1,0,50,0,0
282707,230.769230769231,4,1,0,50,1,0
282707,-100,4,1,0,50,0,0
283630,230.769230769231,5,1,0,50,1,0
283630,-100,5,1,0,50,0,0
284783,230.769230769231,4,1,0,50,1,0
284783,-100,4,1,0,50,0,0
288475,230.769230769231,6,1,0,50,1,0
288475,-100,6,1,0,50,0,0
291244,230.769230769231,6,1,0,50,1,0
291244,-100,6,1,0,50,0,0
324474,230.769230769231,8,1,0,50,1,0
324474,-100,8,1,0,50,0,0
326320,230.769230769231,4,1,0,50,1,0
326320,-100,4,1,0,50,0,0
370627,224.299065420561,4,1,0,50,1,0
370627,-103.092783505155,4,1,0,50,0,0
372421,218.181818181818,4,1,0,50,1,0
372421,-105.263157894737,4,1,0,50,0,0
374166,212.389380530973,4,1,0,50,1,0
374166,-108.695652173913,4,1,0,50,0,0
375865,206.896551724138,4,1,0,50,1,0
375865,-111.111111111111,4,1,0,50,0,0
377520,206.896551724138,4,1,0,50,1,0
377520,-111.111111111111,4,1,0,50,0,0
410623,413.793103448276,4,1,0,50,1,0
410623,-55.8659217877095,4,1,0,50,0,0

[Colours]
Combo1 : 255,121,124
Combo2 : 255,255,255
Combo3 : 170,170,170

[HitObjects]
64,192,198797,128,0,199397:0:0:0:0:
448,192,198797,128,0,199022:0:0:0:0:
320,192,198797,128,0,199022:0:0:0:0:
192,192,198797,128,0,199097:0:0:0:0:
320,192,199097,128,0,199172:0:0:0:0:
448,192,199097,128,0,199247:0:0:0:0:
192,192,199172,128,0,199322:0:0:0:0:
320,192,199247,128,0,199322:0:0:0:0:
448,192,199322,128,0,199697:0:0:0:0:
320,192,199397,128,0,199547:0:0:0:0:
192,192,199397,128,0,199472:0:0:0:0:
64,192,199472,128,0,199622:0:0:0:0:
192,192,199547,128,0,199622:0:0:0:0:
320,192,199622,128,0,199772:0:0:0:0:
64,192,199697,128,0,200222:0:0:0:0:
192,192,199697,128,0,199847:0:0:0:0:
448,192,199772,128,0,199922:0:0:0:0:
320,192,199847,128,0,199922:0:0:0:0:
192,192,199922,128,0,200072:0:0:0:0:
448,192,199997,128,0,200372:0:0:0:0:
320,192,200015,128,0,200053:0:0:0:0:
320,192,200147,128,0,200372:0:0:0:0:
192,192,200165,128,0,200203:0:0:0:0:
192,192,200297,128,0,200522:0:0:0:0:
64,192,200315,128,0,200503:0:0:0:0:
320,192,200447,128,0,200672:0:0:0:0:
448,192,200465,128,0,200822:0:0:0:0:
64,192,200597,128,0,200972:0:0:0:0:
192,192,200615,128,0,200653:0:0:0:0:
192,192,200747,128,0,200972:0:0:0:0:
320,192,200765,128,0,200803:0:0:0:0:
320,192,200897,128,0,201122:0:0:0:0:
448,192,200915,128,0,201122:0:0:0:0:
192,192,201047,128,0,201122:0:0:0:0:
64,192,201065,128,0,201122:0:0:0:0:
320,192,201197,128,0,201347:0:0:0:0:
448,192,201197,128,0,201272:0:0:0:0:
64,192,201197,128,0,201234:0:0:0:0:
192,192,201272,128,0,201422:0:0:0:0:
64,192,201309,128,0,201609:0:0:0:0:
448,192,201347,128,0,201384:0:0:0:0:
320,192,201422,128,0,201459:0:0:0:0:
448,192,201497,128,0,201647:0:0:0:0:
192,192,201497,128,0,201534:0:0:0:0:
320,192,201572,128,0,201759:0:0:0:0:
192,192,201647,128,0,201722:0:0:0:0:
64,192,201684,128,0,201722:0:0:0:0:
448,192,201722,128,0,201797:0:0:0:0:
192,192,201797,128,0,201872:0:0:0:0:
64,192,201797,128,0,201834:0:0:0:0:
320,192,201834,128,0,202022:0:0:0:0:
448,192,201872,128,0,201984:0:0:0:0:
64,192,201909,128,0,201947:0:0:0:0:
192,192,201984,128,0,202059:0:0:0:0:
64,192,202022,128,0,202059:0:0:0:0:
448,192,202059,128,0,202097:0:0:0:0:
64,192,202097,128,0,202322:0:0:0:0:
192,192,202097,128,0,202172:0:0:0:0:
320,192,202134,128,0,202172:0:0:0:0:
448,192,202172,128,0,202247:0:0:0:0:
320,192,202247,128,0,202322:0:0:0:0:
192,192,202247,128,0,202322:0:0:0:0:
448,192,202322,128,0,202359:0:0:0:0:
320,192,202397,128,0,202472:0:0:0:0:
192,192,202397,128,0,202547:0:0:0:0:
64,192,202397,128,0,202434:0:0:0:0:
448,192,202472,128,0,202622:0:0:0:0:
64,192,202509,128,0,202809:0:0:0:0:
320,192,202547,128,0,202622:0:0:0:0:
192,192,202622,128,0,202659:0:0:0:0:
320,192,202697,128,0,202847:0:0:0:0:
448,192,202697,128,0,202772:0:0:0:0:
192,192,202772,128,0,202922:0:0:0:0:
448,192,202847,128,0,202884:0:0:0:0:
64,192,202884,128,0,202922:0:0:0:0:
320,192,202922,128,0,202959:0:0:0:0:
192,192,202997,128,0,203147:0:0:0:0:
64,192,202997,128,0,203072:0:0:0:0:
448,192,202997,128,0,203034:0:0:0:0:
320,192,203072,128,0,203222:0:0:0:0:
448,192,203109,128,0,203447:0:0:0:0:
64,192,203147,128,0,203184:0:0:0:0:
192,192,203222,128,0,203259:0:0:0:0:
320,192,203297,128,0,203447:0:0:0:0:
64,192,203297,128,0,203334:0:0:0:0:
192,192,203372,128,0,203522:0:0:0:0:
64,192,203447,128,0,203522:0:0:0:0:
320,192,203522,128,0,203559:0:0:0:0:
448,192,203522,1,0,0:0:0:0:
448,192,203597,128,0,203747:0:0:0:0:
192,192,203597,128,0,203672:0:0:0:0:
64,192,203597,128,0,203709:0:0:0:0:
320,192,203672,128,0,203822:0:0:0:0:
192,192,203747,128,0,203822:0:0:0:0:
64,192,203784,128,0,203822:0:0:0:0:
448,192,203822,128,0,203859:0:0:0:0:
64,192,203897,128,0,204047:0:0:0:0:
320,192,203897,128,0,203972:0:0:0:0:
192,192,203897,128,0,204009:0:0:0:0:
448,192,203972,128,0,204122:0:0:0:0:
320,192,204047,128,0,204122:0:0:0:0:
192,192,204084,128,0,204122:0:0:0:0:
64,192,204122,128,0,204159:0:0:0:0:
192,192,204197,128,0,204347:0:0:0:0:
448,192,204197,128,0,204272:0:0:0:0:
320,192,204197,128,0,204309:0:0:0:0:
64,192,204272,128,0,204422:0:0:0:0:
448,192,204347,128,0,204422:0:0:0:0:
320,192,204384,128,0,204422:0:0:0:0:
192,192,204422,128,0,204459:0:0:0:0:
320,192,204497,128,0,204647:0:0:0:0:
64,192,204497,128,0,204572:0:0:0:0:
448,192,204497,128,0,204609:0:0:0:0:
192,192,204572,128,0,204722:0:0:0:0:
64,192,204647,128,0,204722:0:0:0:0:
448,192,204684,128,0,204722:0:0:0:0:
320,192,204722,128,0,204759:0:0:0:0:
192,192,204797,128,0,204834:0:0:0:0:
448,192,204797,128,0,204872:0:0:0:0:
64,192,204797,128,0,204909:0:0:0:0:
320,192,204872,128,0,205059:0:0:0:0:
192,192,204909,128,0,204947:0:0:0:0:
448,192,204947,128,0,205022:0:0:0:0:
64,192,204984,128,0,205097:0:0:0:0:
192,192,205022,128,0,205134:0:0:0:0:
448,192,205097,128,0,205172:0:0:0:0:
320,192,205134,128,0,205209:0:0:0:0:
64,192,205172,128,0,205284:0:0:0:0:
192,192,205209,128,0,205247:0:0:0:0:
448,192,205247,128,0,205322:0:0:0:0:
320,192,205284,128,0,205340:0:0:0:0:
192,192,205322,128,0,205359:0:0:0:0:
320,192,205397,128,0,205434:0:0:0:0:
64,192,205397,128,0,205472:0:0:0:0:
448,192,205397,128,0,205509:0:0:0:0:
192,192,205472,128,0,205659:0:0:0:0:
320,192,205509,128,0,205547:0:0:0:0:
64,192,205547,128,0,205622:0:0:0:0:
448,192,205584,128,0,205697:0:0:0:0:
320,192,205622,128,0,205734:0:0:0:0:
64,192,205697,128,0,205772:0:0:0:0:
192,192,205734,128,0,205809:0:0:0:0:
448,192,205772,128,0,205884:0:0:0:0:
320,192,205809,128,0,205847:0:0:0:0:
64,192,205847,128,0,205922:0:0:0:0:
192,192,205884,128,0,205940:0:0:0:0:
320,192,205922,128,0,205959:0:0:0:0:
64,192,205997,128,0,206072:0:0:0:0:
448,192,205997,128,0,206072:0:0:0:0:
192,192,205997,128,0,206072:0:0:0:0:
320,192,206072,128,0,206222:0:0:0:0:
64,192,206147,128,0,206222:0:0:0:0:
448,192,206147,128,0,206222:0:0:0:0:
192,192,206147,1,0,0:0:0:0:
192,192,206222,128,0,206259:0:0:0:0:
64,192,206297,128,0,206372:0:0:0:0:
448,192,206297,128,0,206372:0:0:0:0:
320,192,206297,128,0,206372:0:0:0:0:
192,192,206372,128,0,206597:0:0:0:0:
448,192,206447,128,0,206522:0:0:0:0:
64,192,206447,128,0,206522:0:0:0:0:
320,192,206447,1,0,0:0:0:0:
320,192,206522,128,0,206559:0:0:0:0:
448,192,206597,128,0,206747:0:0:0:0:
64,192,206597,128,0,206634:0:0:0:0:
320,192,206634,128,0,206709:0:0:0:0:
192,192,206672,1,0,0:0:0:0:
64,192,206709,128,0,206859:0:0:0:0:
192,192,206747,128,0,206822:0:0:0:0:
320,192,206784,1,0,0:0:0:0:
448,192,206822,128,0,206972:0:0:0:0:
320,192,206859,128,0,206934:0:0:0:0:
192,192,206897,1,0,0:0:0:0:
64,192,206934,128,0,207084:0:0:0:0:
192,192,206972,128,0,207084:0:0:0:0:
320,192,207009,128,0,207084:0:0:0:0:
448,192,207047,128,0,207084:0:0:0:0:
192,192,207122,128,0,207384:0:0:0:0:
320,192,207197,128,0,207309:0:0:0:0:
448,192,207197,128,0,207234:0:0:0:0:
64,192,207197,128,0,207459:0:0:0:0:
448,192,207347,128,0,207384:0:0:0:0:
320,192,207422,128,0,207459:0:0:0:0:
448,192,207422,128,0,207759:0:0:0:0:
320,192,207497,128,0,207684:0:0:0:0:
192,192,207497,128,0,207609:0:0:0:0:
64,192,207497,128,0,207534:0:0:0:0:
64,192,207647,128,0,207684:0:0:0:0:
192,192,207722,128,0,207759:0:0:0:0:
64,192,207722,128,0,207909:0:0:0:0:
448,192,207797,1,0,0:0:0:0:
320,192,207797,128,0,207834:0:0:0:0:
192,192,207797,128,0,207872:0:0:0:0:
448,192,207872,128,0,207947:0:0:0:0:
320,192,207909,128,0,207984:0:0:0:0:
192,192,207947,128,0,208022:0:0:0:0:
64,192,207984,128,0,208022:0:0:0:0:
448,192,208022,128,0,208097:0:0:0:0:
320,192,208059,1,0,0:0:0:0:
64,192,208097,128,0,208134:0:0:0:0:
192,192,208097,128,0,208172:0:0:0:0:
320,192,208134,128,0,208209:0:0:0:0:
448,192,208172,128,0,208247:0:0:0:0:
64,192,208209,128,0,208303:0:0:0:0:
192,192,208247,128,0,208322:0:0:0:0:
320,192,208284,128,0,208340:0:0:0:0:
448,192,208322,128,0,208359:0:0:0:0:
64,192,208397,128,0,208547:0:0:0:0:
192,192,208397,128,0,208472:0:0:0:0:
320,192,208397,128,0,208472:0:0:0:0:
448,192,208472,128,0,208622:0:0:0:0:
192,192,208547,128,0,208622:0:0:0:0:
320,192,208547,128,0,208622:0:0:0:0:
64,192,208622,128,0,208659:0:0:0:0:
192,192,208697,128,0,208772:0:0:0:0:
320,192,208697,128,0,208772:0:0:0:0:
448,192,208697,128,0,208847:0:0:0:0:
64,192,208772,128,0,208922:0:0:0:0:
192,192,208847,128,0,208922:0:0:0:0:
320,192,208847,128,0,208922:0:0:0:0:
448,192,208922,128,0,208959:0:0:0:0:
64,192,208997,128,0,209147:0:0:0:0:
192,192,208997,128,0,209072:0:0:0:0:
320,192,208997,128,0,209072:0:0:0:0:
448,192,209072,128,0,209222:0:0:0:0:
320,192,209147,128,0,209222:0:0:0:0:
192,192,209147,128,0,209222:0:0:0:0:
64,192,209222,128,0,209259:0:0:0:0:
192,192,209297,128,0,209372:0:0:0:0:
320,192,209297,128,0,209372:0:0:0:0:
448,192,209297,128,0,209447:0:0:0:0:
64,192,209372,128,0,209522:0:0:0:0:
192,192,209447,128,0,209522:0:0:0:0:
320,192,209447,128,0,209522:0:0:0:0:
448,192,209522,128,0,209559:0:0:0:0:
64,192,209597,1,0,0:0:0:0:
192,192,209597,128,0,209634:0:0:0:0:
320,192,209597,128,0,209634:0:0:0:0:
64,192,209672,128,0,209747:0:0:0:0:
448,192,209672,128,0,209747:0:0:0:0:
192,192,209747,128,0,209784:0:0:0:0:
320,192,209747,128,0,209784:0:0:0:0:
448,192,209822,128,0,209897:0:0:0:0:
64,192,209822,128,0,209897:0:0:0:0:
192,192,209897,128,0,209934:0:0:0:0:
320,192,209897,128,0,209934:0:0:0:0:
64,192,209972,128,0,210047:0:0:0:0:
448,192,209972,128,0,210047:0:0:0:0:
192,192,210047,128,0,210084:0:0:0:0:
320,192,210047,128,0,210084:0:0:0:0:
64,192,210122,128,0,210159:0:0:0:0:
448,192,210122,128,0,210159:0:0:0:0:
64,192,210197,128,0,210309:0:0:0:0:
192,192,210197,128,0,210272:0:0:0:0:
448,192,210197,128,0,210309:0:0:0:0:
320,192,210197,128,0,210272:0:0:0:0:
64,192,210347,128,0,210459:0:0:0:0:
192,192,210347,128,0,210422:0:0:0:0:
320,192,210347,128,0,210422:0:0:0:0:
448,192,210347,128,0,210459:0:0:0:0:
192,192,210497,128,0,210534:0:0:0:0:
64,192,210497,128,0,210534:0:0:0:0:
448,192,210497,128,0,210534:0:0:0:0:
448,192,210572,128,0,210609:0:0:0:0:
320,192,210572,128,0,210609:0:0:0:0:
192,192,210647,128,0,210684:0:0:0:0:
64,192,210647,128,0,210684:0:0:0:0:
448,192,210722,128,0,210759:0:0:0:0:
320,192,210722,128,0,210759:0:0:0:0:
192,192,210722,128,0,210759:0:0:0:0:
64,192,210797,128,0,210872:0:0:0:0:
320,192,210797,128,0,210947:0:0:0:0:
448,192,210797,128,0,210834:0:0:0:0:
192,192,210872,128,0,211022:0:0:0:0:
448,192,210909,128,0,211209:0:0:0:0:
64,192,210947,128,0,211022:0:0:0:0:
320,192,211022,128,0,211059:0:0:0:0:
64,192,211097,128,0,211247:0:0:0:0:
192,192,211097,128,0,211172:0:0:0:0:
320,192,211172,128,0,211322:0:0:0:0:
192,192,211247,128,0,211359:0:0:0:0:
448,192,211284,128,0,211322:0:0:0:0:
64,192,211322,128,0,211397:0:0:0:0:
320,192,211397,128,0,211472:0:0:0:0:
448,192,211397,128,0,211434:0:0:0:0:
192,192,211434,128,0,211622:0:0:0:0:
64,192,211472,128,0,211584:0:0:0:0:
448,192,211509,128,0,211547:0:0:0:0:
320,192,211584,128,0,211659:0:0:0:0:
448,192,211622,128,0,211659:0:0:0:0:
64,192,211659,128,0,211697:0:0:0:0:
320,192,211697,128,0,211772:0:0:0:0:
448,192,211697,128,0,211922:0:0:0:0:
192,192,211734,128,0,211772:0:0:0:0:
64,192,211772,128,0,211847:0:0:0:0:
192,192,211847,128,0,211922:0:0:0:0:
320,192,211847,128,0,211922:0:0:0:0:
64,192,211922,128,0,211959:0:0:0:0:
192,192,211997,128,0,212147:0:0:0:0:
320,192,211997,128,0,212072:0:0:0:0:
448,192,211997,128,0,212034:0:0:0:0:
64,192,212072,128,0,212222:0:0:0:0:
448,192,212109,128,0,212409:0:0:0:0:
320,192,212147,128,0,212184:0:0:0:0:
192,192,212222,128,0,212259:0:0:0:0:
320,192,212297,128,0,212447:0:0:0:0:
64,192,212297,128,0,212372:0:0:0:0:
192,192,212372,128,0,212522:0:0:0:0:
64,192,212447,128,0,212522:0:0:0:0:
448,192,212484,128,0,212522:0:0:0:0:
320,192,212522,128,0,212559:0:0:0:0:
448,192,212597,128,0,212747:0:0:0:0:
192,192,212597,128,0,212672:0:0:0:0:
64,192,212597,128,0,212634:0:0:0:0:
320,192,212672,128,0,212822:0:0:0:0:
64,192,212709,128,0,213009:0:0:0:0:
192,192,212747,128,0,212822:0:0:0:0:
448,192,212822,128,0,212859:0:0:0:0:
320,192,212897,128,0,213047:0:0:0:0:
192,192,212897,128,0,212972:0:0:0:0:
448,192,212972,128,0,213122:0:0:0:0:
192,192,213047,128,0,213122:0:0:0:0:
64,192,213084,128,0,213122:0:0:0:0:
320,192,213122,128,0,213159:0:0:0:0:
64,192,213197,128,0,213272:0:0:0:0:
448,192,213197,128,0,213272:0:0:0:0:
192,192,213197,128,0,213459:0:0:0:0:
320,192,213272,128,0,213309:0:0:0:0:
448,192,213347,128,0,213459:0:0:0:0:
64,192,213347,128,0,213459:0:0:0:0:
320,192,213422,128,0,213459:0:0:0:0:
64,192,213497,128,0,213572:0:0:0:0:
320,192,213497,128,0,213759:0:0:0:0:
448,192,213497,128,0,213572:0:0:0:0:
192,192,213572,128,0,213609:0:0:0:0:
64,192,213647,128,0,213759:0:0:0:0:
448,192,213647,128,0,213759:0:0:0:0:
192,192,213722,128,0,213759:0:0:0:0:
192,192,213797,128,0,213909:0:0:0:0:
64,192,213797,128,0,213909:0:0:0:0:
448,192,213797,128,0,213909:0:0:0:0:
320,192,213872,128,0,213909:0:0:0:0:
192,192,213947,128,0,214059:0:0:0:0:
448,192,213947,128,0,214059:0:0:0:0:
64,192,213947,128,0,214059:0:0:0:0:
320,192,214022,128,0,214059:0:0:0:0:
64,192,214097,128,0,214209:0:0:0:0:
448,192,214097,128,0,214209:0:0:0:0:
192,192,214134,128,0,214209:0:0:0:0:
320,192,214172,128,0,214509:0:0:0:0:
64,192,214247,128,0,214659:0:0:0:0:
192,192,214247,128,0,214509:0:0:0:0:
448,192,214247,128,0,214509:0:0:0:0:
192,192,214547,128,0,214659:0:0:0:0:
320,192,214547,128,0,214659:0:0:0:0:
448,192,214547,128,0,214809:0:0:0:0:
192,192,214697,128,0,214809:0:0:0:0:
64,192,214697,128,0,214809:0:0:0:0:
320,192,214697,128,0,214959:0:0:0:0:
448,192,214847,128,0,214959:0:0:0:0:
64,192,214847,128,0,214959:0:0:0:0:
192,192,214847,128,0,215109:0:0:0:0:
320,192,214997,128,0,215109:0:0:0:0:
448,192,214997,128,0,215109:0:0:0:0:
64,192,214997,128,0,215259:0:0:0:0:
320,192,215147,128,0,215259:0:0:0:0:
448,192,215147,128,0,215259:0:0:0:0:
192,192,215147,128,0,215259:0:0:0:0:
192,192,215297,128,0,215409:0:0:0:0:
320,192,215297,128,0,215409:0:0:0:0:
448,192,215297,128,0,215372:0:0:0:0:
64,192,215297,128,0,215372:0:0:0:0:
64,192,215447,128,0,215522:0:0:0:0:
448,192,215447,128,0,215522:0:0:0:0:
192,192,215447,128,0,215559:0:0:0:0:
320,192,215447,128,0,215559:0:0:0:0:
448,192,215597,128,0,215672:0:0:0:0:
64,192,215597,128,0,215822:0:0:0:0:
192,192,215634,128,0,215747:0:0:0:0:
320,192,215672,128,0,215709:0:0:0:0:
448,192,215747,128,0,215972:0:0:0:0:
320,192,215784,128,0,215897:0:0:0:0:
192,192,215822,128,0,215859:0:0:0:0:
64,192,215897,128,0,216122:0:0:0:0:
192,192,215934,128,0,216047:0:0:0:0:
320,192,215972,128,0,216009:0:0:0:0:
448,192,216047,128,0,216197:0:0:0:0:
320,192,216084,128,0,216122:0:0:0:0:
192,192,216122,128,0,216197:0:0:0:0:
320,192,216197,128,0,216272:0:0:0:0:
64,192,216197,128,0,216422:0:0:0:0:
192,192,216272,128,0,216347:0:0:0:0:
448,192,216272,128,0,216309:0:0:0:0:
320,192,216347,128,0,216384:0:0:0:0:
448,192,216422,128,0,216572:0:0:0:0:
192,192,216422,128,0,216459:0:0:0:0:
64,192,216497,128,0,216534:0:0:0:0:
320,192,216497,128,0,216684:0:0:0:0:
192,192,216572,128,0,216684:0:0:0:0:
448,192,216647,128,0,216684:0:0:0:0:
64,192,216647,128,0,216684:0:0:0:0:
320,192,216722,128,0,216984:0:0:0:0:
192,192,216797,128,0,216909:0:0:0:0:
64,192,216797,128,0,216834:0:0:0:0:
448,192,216797,128,0,217059:0:0:0:0:
64,192,216947,128,0,216984:0:0:0:0:
192,192,217022,128,0,217059:0:0:0:0:
64,192,217022,128,0,217359:0:0:0:0:
192,192,217097,128,0,217284:0:0:0:0:
320,192,217097,128,0,217209:0:0:0:0:
448,192,217097,128,0,217134:0:0:0:0:
448,192,217247,128,0,217284:0:0:0:0:
320,192,217322,128,0,217359:0:0:0:0:
448,192,217322,128,0,217509:0:0:0:0:
64,192,217397,1,0,0:0:0:0:
192,192,217397,128,0,217434:0:0:0:0:
320,192,217397,128,0,217472:0:0:0:0:
64,192,217472,128,0,217547:0:0:0:0:
192,192,217509,128,0,217584:0:0:0:0:
320,192,217547,128,0,217622:0:0:0:0:
448,192,217584,128,0,217622:0:0:0:0:
64,192,217622,128,0,217697:0:0:0:0:
192,192,217659,1,0,0:0:0:0:
448,192,217697,128,0,217734:0:0:0:0:
320,192,217697,128,0,217772:0:0:0:0:
192,192,217734,128,0,217809:0:0:0:0:
64,192,217772,128,0,217847:0:0:0:0:
448,192,217809,128,0,217903:0:0:0:0:
320,192,217847,128,0,217922:0:0:0:0:
192,192,217884,128,0,217940:0:0:0:0:
64,192,217922,128,0,217959:0:0:0:0:
192,192,217997,128,0,218072:0:0:0:0:
320,192,217997,128,0,218072:0:0:0:0:
448,192,217997,128,0,218147:0:0:0:0:
64,192,218072,128,0,218222:0:0:0:0:
192,192,218147,128,0,218222:0:0:0:0:
320,192,218147,128,0,218222:0:0:0:0:
448,192,218222,128,0,218259:0:0:0:0:
320,192,218297,128,0,218372:0:0:0:0:
192,192,218297,128,0,218372:0:0:0:0:
64,192,218297,128,0,218447:0:0:0:0:
448,192,218372,128,0,218522:0:0:0:0:
320,192,218447,128,0,218522:0:0:0:0:
192,192,218447,128,0,218522:0:0:0:0:
64,192,218522,128,0,218559:0:0:0:0:
192,192,218597,128,0,218672:0:0:0:0:
320,192,218597,128,0,218672:0:0:0:0:
448,192,218597,128,0,218747:0:0:0:0:
64,192,218672,128,0,218822:0:0:0:0:
192,192,218747,128,0,218822:0:0:0:0:
320,192,218747,128,0,218822:0:0:0:0:
448,192,218822,128,0,218859:0:0:0:0:
64,192,218897,128,0,219047:0:0:0:0:
192,192,218897,128,0,218972:0:0:0:0:
320,192,218897,128,0,218972:0:0:0:0:
448,192,218972,128,0,219122:0:0:0:0:
320,192,219047,128,0,219122:0:0:0:0:
192,192,219047,128,0,219122:0:0:0:0:
64,192,219122,128,0,219159:0:0:0:0:
448,192,219197,1,0,0:0:0:0:
192,192,219197,128,0,219234:0:0:0:0:
320,192,219197,128,0,219234:0:0:0:0:
448,192,219272,128,0,219347:0:0:0:0:
64,192,219272,128,0,219347:0:0:0:0:
192,192,219347,128,0,219384:0:0:0:0:
320,192,219347,128,0,219384:0:0:0:0:
64,192,219422,128,0,219497:0:0:0:0:
448,192,219422,128,0,219497:0:0:0:0:
320,192,219497,128,0,219534:0:0:0:0:
192,192,219497,128,0,219534:0:0:0:0:
64,192,219572,128,0,219647:0:0:0:0:
448,192,219572,128,0,219647:0:0:0:0:
192,192,219647,128,0,219684:0:0:0:0:
320,192,219647,128,0,219684:0:0:0:0:
448,192,219722,128,0,219759:0:0:0:0:
64,192,219722,128,0,219759:0:0:0:0:
192,192,219797,128,0,219872:0:0:0:0:
320,192,219797,128,0,219872:0:0:0:0:
448,192,219797,128,0,219909:0:0:0:0:
64,192,219797,128,0,219909:0:0:0:0:
448,192,219947,128,0,220022:0:0:0:0:
320,192,219947,128,0,220022:0:0:0:0:
192,192,219947,128,0,220022:0:0:0:0:
64,192,219947,128,0,220022:0:0:0:0:
320,192,220097,128,0,220134:0:0:0:0:
448,192,220097,128,0,220134:0:0:0:0:
64,192,220097,128,0,220134:0:0:0:0:
192,192,220172,128,0,220209:0:0:0:0:
64,192,220172,128,0,220209:0:0:0:0:
448,192,220247,128,0,220284:0:0:0:0:
320,192,220247,128,0,220284:0:0:0:0:
320,192,220322,128,0,220359:0:0:0:0:
64,192,220322,128,0,220359:0:0:0:0:
192,192,220322,128,0,220359:0:0:0:0:
