osu file format v14

[General]
AudioFilename: audio.mp3
AudioLeadIn: 0
PreviewTime: 57050
Countdown: 0
SampleSet: Soft
StackLeniency: 0.7
Mode: 0
LetterboxInBreaks: 0
EpilepsyWarning: 1
WidescreenStoryboard: 1

[Editor]
Bookmarks: 19325,38525,96125
DistanceSpacing: 1.5
BeatDivisor: 4
GridSize: 4
TimelineZoom: 1.2

[Metadata]
Title:Red Lips (Mendus Remix)
TitleUnicode:Red Lips (Mendus Remix)
Artist:GTA feat. Sam Bruno
ArtistUnicode:GTA feat. Sam Bruno
Creator:Shmiklak
Version:BoatKrab's Advanced
Source:
Tags:marvollo m_a_r_v_o_l_l_o zlodeuka- makisokk deadpon3 wajinshu boatkrab venix alphabet trap liuth short version venax
BeatmapID:1531396
BeatmapSetID:721240

[Difficulty]
HPDrainRate:6
CircleSize:4
OverallDifficulty:6
ApproachRate:7
SliderMultiplier:2.19999990463257
SliderTickRate:2

[Events]
//Background and Video events
0,0,"wallhaven-313313.jpg",0,0
//Break Periods
//Storyboard Layer 0 (Background)
Sprite,Background,Centre,"sb\Lhighlight.png",320,0 F,0,0,,0 F,0,0,,0 F,0,0,,0 F,0,0,,0 R,0,74525,,1.5708 MY,0,74525,,249 V,0,74525,,2,4 F,0,74525,74825,1,0 R,0,75125,,1.5708 MY,0,75125,,320 V,0,75125,,2,4 F,0,75125,75425,1,0 R,0,75725,,1.5708 MY,0,75725,,256 V,0,75725,,2,4 F,0,75725,76025,1,0 R,0,76325,,1.5708 MY,0,76325,,348 V,0,76325,,2,4 F,0,76325,76625,1,0
Sprite,Background,Centre,"sb\Lhighlight.png",320,0 F,0,0,,0 F,0,0,,0 F,0,0,,0 F,0,0,,0 R,0,74825,,1.5708 MY,0,74825,,316 V,0,74825,,2,4 F,0,74825,75125,1,0 R,0,75425,,1.5708 MY,0,75425,,160 V,0,75425,,2,4 F,0,75425,75725,1,0 R,0,76025,,1.5708 MY,0,76025,,208 V,0,76025,,2,4 F,0,76025,76325,1,0 R,0,76625,,1.5708 MY,0,76625,,300 V,0,76625,,2,4 F,0,76625,76925,1,0
Sprite,Background,Centre,"sb\highlight.png",476,136 C,0,48125,,231,1,1 F,2,48125,48325,1,0 S,2,48125,48325,1,0.2 P,0,48125,48325,A
Sprite,Background,Centre,"sb\highlight.png",0,0 C,0,48425,,231,1,1 M,0,48425,48500,476,136,455.4274,137.4695 F,2,48425,48925,1,0 S,2,48425,48925,1,0.2 P,0,48425,48925,A M,0,48500,48575,455.4274,137.4695,434.8548,138.9389 M,0,48575,48650,434.8548,138.9389,455.4274,137.4695 M,0,48650,48725,455.4274,137.4695,476,136
Sprite,Background,Centre,"sb\highlight.png",0,0 C,0,49025,,231,1,1 M,0,49025,49100,320,172,299.4679,170.0446 F,2,49025,49525,1,0 S,2,49025,49525,1,0.2 P,0,49025,49525,A M,0,49100,49175,299.4679,170.0446,278.9358,168.0891 M,0,49175,49250,278.9358,168.0891,299.4679,170.0446 M,0,49250,49325,299.4679,170.0446,320,172
Sprite,Background,Centre,"sb\highlight.png",0,0 C,0,49625,,231,1,1 M,0,49625,49700,188,88,167.4274,89.46947 F,2,49625,50125,1,0 S,2,49625,50125,1,0.2 P,0,49625,50125,A M,0,49700,49775,167.4274,89.46947,146.8548,90.93894 M,0,49775,49850,146.8548,90.93894,167.4274,89.46947 M,0,49850,49925,167.4274,89.46947,188,88
Sprite,Background,Centre,"sb\highlight.png",0,0 C,0,50225,,231,1,1 M,0,50225,50300,120,228,140.5275,225.9973 F,2,50225,50725,1,0 S,2,50225,50725,1,0.2 P,0,50225,50725,A M,0,50300,50375,140.5275,225.9973,161,224 M,0,50375,50450,161,224,140.5275,225.9973 M,0,50450,50525,140.5275,225.9973,120,228
Sprite,Background,Centre,"sb\highlight.png",0,0 C,0,50825,,254,18,95 M,0,50825,50900,115,383,132.6447,393.5616 F,2,50825,51325,1,0 S,2,50825,51325,1,0.2 P,0,50825,51325,A M,0,50900,50975,132.6447,393.5616,151.8475,400.9534 M,0,50975,51050,151.8475,400.9534,132.6447,393.5616 M,0,51050,51125,132.6447,393.5616,115,383
Sprite,Background,Centre,"sb\highlight.png",0,0 C,0,51425,,254,18,95 M,0,51425,51500,272,380,291.2393,372.676 F,2,51425,51925,1,0 S,2,51425,51925,1,0.2 P,0,51425,51925,A M,0,51500,51575,291.2393,372.676,309,363 M,0,51575,51650,309,363,291.2393,372.676 M,0,51650,51725,291.2393,372.676,272,380
Sprite,Background,Centre,"sb\highlight.png",0,0 C,0,52025,,254,18,95 M,0,52025,52100,369,257,375.6826,237.5199 F,2,52025,52525,1,0 S,2,52025,52525,1,0.2 P,0,52025,52525,A M,0,52100,52175,375.6826,237.5199,379.9423,217.3648 M,0,52175,52250,379.9423,217.3648,375.6826,237.5199 M,0,52250,52325,375.6826,237.5199,369,257
Sprite,Background,Centre,"sb\highlight.png",0,0 C,0,52625,,254,18,95 M,0,52625,52700,337,103,327.2777,84.9338 F,2,52625,52975,1,0 S,2,52625,52975,1,0.2 P,0,52625,52975,A M,0,52700,52775,327.2777,84.9338,313.6359,69.58411
Sprite,Background,Centre,"sb\highlight.png",0,0 C,0,52925,,231,1,1 M,0,52925,53000,240,96,219.3983,96.98103 F,2,52925,53425,1,0 S,2,52925,53425,1,0.2 P,0,52925,53425,A M,0,53000,53075,219.3983,96.98103,198.7967,97.96207 M,0,53075,53150,198.7967,97.96207,178.195,98.94309 M,0,53150,53225,178.195,98.94309,157.5934,99.92413
Sprite,Background,Centre,"sb\highlight.png",0,0 C,0,53525,,231,1,1 M,0,53525,53600,292,180,271.3885,180.745 F,2,53525,54025,1,0 S,2,53525,54025,1,0.2 P,0,53525,54025,A M,0,53600,53675,271.3885,180.745,250.7769,181.49 M,0,53675,53750,250.7769,181.49,230.1654,182.235 M,0,53750,53825,230.1654,182.235,209.5538,182.98
Sprite,Background,Centre,"sb\highlight.png",0,0 C,0,54125,,254,18,95 M,0,54125,54200,224,360,244.6005,358.9951 F,2,54125,54625,1,0 S,2,54125,54625,1,0.2 P,0,54125,54625,A M,0,54200,54275,244.6005,358.9951,265.201,357.9902 M,0,54275,54350,265.201,357.9902,285.8015,356.9853 M,0,54350,54425,285.8015,356.9853,306,356
Sprite,Background,Centre,"sb\highlight.png",0,0 C,0,54725,,254,18,95 M,0,54725,54800,172,275,192.6005,273.9951 F,2,54725,55225,1,0 S,2,54725,55225,1,0.2 P,0,54725,55225,A M,0,54800,54875,192.6005,273.9951,213.201,272.9902 M,0,54875,54950,213.201,272.9902,233.8015,271.9853 M,0,54950,55025,233.8015,271.9853,254,271
Sprite,Background,Centre,"sb\highlight.png",320,248 C,0,55325,,254,18,95 F,2,55325,57287,1,0 S,2,55325,57287,1,0.2 P,0,55325,57287,A
Sprite,Background,Centre,"sb\Lhighlight.png",320,0 F,0,0,,0 F,0,0,,0 F,0,0,,0 F,0,0,,0 F,0,0,,0 R,0,93725,,1.5708 MY,0,93725,,400 V,0,93725,,2,4 F,0,93725,94025,1,0 R,0,94175,,1.5708 MY,0,94175,,232 V,0,94175,,2,4 F,0,94175,94475,1,0 R,0,94625,,1.5708 MY,0,94625,,140 V,0,94625,,2,4 F,0,94625,94925,1,0 R,0,95075,,1.5708 MY,0,95075,,140 V,0,95075,,2,4 F,0,95075,95375,1,0 R,0,95525,,1.5708 MY,0,95525,,240 V,0,95525,,2,4 F,0,95525,95825,1,0
Sprite,Background,Centre,"sb\Lhighlight.png",320,0 F,0,0,,0 F,0,0,,0 F,0,0,,0 R,0,94025,,1.5708 MY,0,94025,,292 V,0,94025,,2,4 F,0,94025,94325,1,0 R,0,94925,,1.5708 MY,0,94925,,188 V,0,94925,,2,4 F,0,94925,95225,1,0 R,0,95825,,1.5708 MY,0,95825,,308 V,0,95825,,2,4 F,0,95825,96125,1,0
//Storyboard Layer 1 (Fail)
//Storyboard Layer 2 (Pass)
//Storyboard Layer 3 (Foreground)
//Storyboard Sound Samples

[TimingPoints]
125,600,4,2,1,69,1,0
19325,-100,4,2,1,69,0,0
38525,-133.333333333333,4,2,2,69,0,0
48125,-133.333333333333,4,2,2,39,0,0
50525,-133.333333333333,4,2,2,49,0,0
52925,-133.333333333333,4,2,2,59,0,0
57125,-133.333333333333,4,2,44,69,0,0
57725,-100,4,2,1,69,0,1
74525,-100,4,2,2,45,0,0
76625,-80,4,2,2,45,0,0
76925,-100,4,2,1,69,0,1
95825,-80,4,2,1,69,0,1
96125,-100,4,2,44,69,0,0

[Colours]
Combo1 : 254,18,95
Combo2 : 231,1,1
SliderTrackOverride : 100,100,100

[HitObjects]
236,304,19025,6,0,L|180:300,1,54.9999976158143,0|0,0:0|0:0,0:0:0:0:
116,352,19325,2,0,B|132:300|132:300|117:190,1,164.999992847443,4|0,0:1|0:0,0:0:0:0:
55,132,19925,2,0,P|104:108|158:117,1,109.999995231629,8|8,0:0|3:0,0:0:0:0:
300,200,20525,1,0,0:0:0:0:
197,185,20825,1,0,0:0:0:0:
220,60,21125,2,0,L|332:52,1,109.999995231629,8|0,0:0|0:0,0:0:0:0:
396,192,21725,6,0,P|329:234|326:314,1,164.999992847443,8|0,3:0|0:0,0:0:0:0:
396,360,22325,2,0,L|505:352,1,109.999995231628,8|8,0:0|3:0,0:0:0:0:
505,184,22925,2,0,L|396:192,1,109.999995231628,0|8,0:0|3:0,0:0:0:0:
256,280,23525,2,0,L|365:272,1,109.999995231628,8|8,0:0|3:0,0:0:0:0:
224,356,24125,6,0,P|176:293|204:219,1,164.999992847443,8|0,3:0|0:0,0:0:0:0:
272,172,24725,2,0,P|292:121|277:69,1,109.999995231628,8|8,0:0|3:0,0:0:0:0:
124,20,25325,6,0,L|12:28,1,109.999995231628,0|0,0:0|0:0,0:0:0:0:
152,116,25925,2,0,L|40:124,1,109.999995231628,8|0,0:0|0:0,0:0:0:0:
180,212,26525,2,0,L|70:219,2,109.999995231628,8|0|8,3:0|0:0|0:0,0:0:0:0:
320,128,27425,1,8,3:0:0:0:
323,292,27725,2,0,L|432:299,2,109.999995231628,0|8|8,0:0|3:0|0:0,0:0:0:0:
160,292,28625,2,0,P|128:300|104:316,1,54.9999976158142,8|0,3:0|0:0,0:0:0:0:
48,364,28925,6,0,L|55:254,1,109.999995231628,8|0,3:0|0:0,0:0:0:0:
160,124,29525,1,8,0:0:0:0:
36,16,29825,1,8,3:0:0:0:
160,124,30125,2,0,B|236:120|236:120|304:148|304:148|374:144,1,219.999990463257,0|8,0:0|0:0,0:0:0:0:
476,12,31025,2,0,P|452:40|444:68,1,54.9999976158142,0|0,0:0|0:0,0:0:0:0:
460,140,31325,6,0,B|476:196|476:196|456:252,1,109.999995231628,8|0,3:0|0:0,0:0:0:0:
348,368,31925,1,8,0:0:0:0:
280,216,32225,2,0,P|199:195|142:257,1,164.999992847443,8|0,3:0|0:0,0:0:0:0:
180,324,32825,2,0,B|236:328|236:328|283:302,1,109.999995231628,8|8,3:0|0:0,0:0:0:0:
328,144,33425,2,0,P|305:128|280:117,1,54.9999976158142,8|0,3:0|0:0,0:0:0:0:
228,180,33725,6,0,P|174:192|122:176,1,109.999995231628,8|0,3:0|0:0,0:0:0:0:
28,44,34325,1,8,0:0:0:0:
180,108,34625,1,8,3:0:0:0:
28,44,34925,2,0,B|32:120|32:120|4:188|4:188|8:258,1,219.999990463257,0|8,0:0|3:0,0:0:0:0:
128,372,35825,2,0,P|135:345|135:318,1,54.9999976158142,0|0,0:0|0:0,0:0:0:0:
87,251,36125,6,0,P|140:237|190:257,1,109.999995231628,8|0,3:0|0:0,0:0:0:0:
316,364,36725,1,8,0:0:0:0:
324,200,37025,2,0,P|271:259|188:256,1,164.999992847443,8|0,3:0|0:0,0:0:0:0:
144,188,37625,2,0,L|152:76,1,109.999995231628,8|8,3:0|0:0,0:0:0:0:
312,44,38225,2,0,L|366:46,1,54.9999976158142
252,96,38525,6,0,P|235:156|248:217,1,123.74999935627,4|8,1:0|0:0,0:0:0:0:
324,212,39125,2,0,L|406:215,1,82.4999995708466,8|8,0:0|0:0,0:0:0:0:
383,366,39725,2,0,L|342:364,2,41.2499997854233,8|8|8,3:0|0:0|0:0,0:0:0:0:
436,292,40325,2,0,L|353:288,1,82.4999995708466,8|8,0:0|0:0,0:0:0:0:
211,356,40925,6,0,P|240:301|241:240,1,123.74999935627,8|8,3:0|0:0,0:0:0:0:
188,180,41525,2,0,L|105:187,1,82.4999995708466,8|8,0:0|0:0,0:0:0:0:
128,32,42125,2,0,L|122:72,2,41.2499997854233,8|8|8,3:0|0:0|0:0,0:0:0:0:
40,224,42725,2,0,P|31:184|42:145,1,82.4999995708466,8|8,0:0|0:0,0:0:0:0:
100,92,43175,1,8,0:0:0:0:
100,92,43325,6,0,L|223:98,1,123.74999935627,8|8,3:0|0:0,0:0:0:0:
284,48,43925,2,0,P|299:85|295:126,1,82.4999995708466,8|8,0:0|0:0,0:0:0:0:
204,252,44525,2,0,L|162:254,1,41.2499997854233,8|8,3:0|0:0,0:0:0:0:
92,292,44825,1,8,0:0:0:0:
44,144,45125,2,0,L|126:148,1,82.4999995708466,8|8,0:0|0:0,0:0:0:0:
219,276,45725,6,0,P|271:244|331:255,1,123.74999935627,8|8,3:0|0:0,0:0:0:0:
388,312,46325,2,0,P|427:321|468:308,1,82.4999995708466,8|8,0:0|0:0,0:0:0:0:
416,160,46925,2,0,L|419:201,1,41.2499997854233,8|8,3:0|0:0,0:0:0:0:
352,240,47225,1,8,0:0:0:0:
256,116,47525,2,0,L|262:33,1,82.4999995708466,8|8,0:0|0:0,0:0:0:0:
412,80,48125,5,8,3:0:0:0:
412,80,48425,2,0,L|370:83,2,41.2499997854233,8|8|8,0:0|0:0|3:0,0:0:0:0:
256,116,49025,2,0,L|214:112,2,41.2499997854233,8|0|8,0:0|0:0|3:0,0:0:0:0:
124,32,49625,2,0,L|82:35,2,41.2499997854233,8|0|8,0:0|0:0|3:0,0:0:0:0:
56,172,50225,2,0,L|97:168,2,41.2499997854233,8|8|8,0:0|0:0|3:0,0:0:0:0:
51,327,50825,6,0,P|69:338|88:345,2,41.2499997854233,8|8|8,0:0|0:0|3:0,0:0:0:0:
208,324,51425,2,0,P|227:317|245:307,2,41.2499997854233,8|0|8,0:0|0:0|3:0,0:0:0:0:
305,201,52025,2,0,P|312:181|316:161,2,41.2499997854233,8|0|8,0:0|0:0|3:0,0:0:0:0:
273,47,52625,2,0,P|263:28|249:13,1,41.2499997854233,8|8,0:0|0:0,0:0:0:0:
176,40,52925,6,0,L|92:44,1,82.4999995708466,8|8,3:0|3:2,0:0:0:0:
228,124,53525,2,0,L|145:127,1,82.4999995708466,8|8,3:0|3:2,0:0:0:0:
160,304,54125,6,0,L|242:300,1,82.4999995708466,8|8,3:0|3:2,0:0:0:0:
108,219,54725,2,0,L|190:215,1,82.4999995708466,8|8,3:0|3:2,0:0:0:0:
256,192,55325,12,14,57125,0:0:0:0:
472,112,57725,6,0,P|420:95|366:112,1,109.999995231628,4|0,0:1|0:0,0:0:0:0:
304,161,58175,1,0,0:0:0:0:
304,161,58325,2,0,P|252:176|200:160,1,109.999995231628,10|8,0:0|3:0,0:0:0:0:
64,68,58925,2,0,L|67:122,1,54.9999976158142,0|0,0:0|0:0,0:0:0:0:
124,180,59225,2,0,L|120:234,1,54.9999976158142,8|0,3:0|0:0,0:0:0:0:
60,292,59525,2,0,P|108:316|164:303,1,109.999995231628,10|0,0:0|0:0,0:0:0:0:
292,204,60125,6,0,P|344:236|360:284,1,109.999995231628,8|0,3:0|0:0,0:0:0:0:
332,356,60575,1,0,0:0:0:0:
332,356,60725,2,0,L|212:356,1,109.999995231628,10|8,0:0|3:0,0:0:0:0:
127,204,61325,1,0,0:0:0:0:
127,204,61475,2,0,L|292:204,1,164.999992847443,8|10,3:0|0:0,0:0:0:0:
436,284,62225,1,8,3:0:0:0:
432,120,62525,6,0,P|380:104|326:116,1,109.999995231628,8|0,3:0|0:0,0:0:0:0:
268,172,62975,1,0,0:0:0:0:
268,172,63125,2,0,L|268:62,1,109.999995231628,10|8,0:0|3:0,0:0:0:0:
112,112,63725,2,0,L|120:172,1,54.9999976158142,0|0,0:0|0:0,0:0:0:0:
68,232,64025,2,0,L|75:286,1,54.9999976158142,8|0,3:0|0:0,0:0:0:0:
128,352,64325,1,10,0:0:0:0:
192,200,64625,1,0,0:0:0:0:
291,331,64925,6,0,L|400:325,1,109.999995231628,8|0,3:0|0:0,0:0:0:0:
472,368,65375,1,0,0:0:0:0:
472,368,65525,1,10,0:0:0:0:
480,205,65825,2,0,P|411:246|400:325,2,164.999992847443,8|12|10,3:0|3:0|0:0,0:0:0:0:
324,148,67025,1,12,3:0:0:0:
452,44,67325,5,8,3:0:0:0:
452,43,67625,2,0,P|426:53|398:56,1,54.9999976158142,0|0,0:0|0:0,0:0:0:0:
320,32,67925,1,10,0:0:0:0:
216,160,68225,1,8,3:0:0:0:
60,104,68525,2,0,L|56:49,1,54.9999976158142,0|0,0:0|0:0,0:0:0:0:
132,144,68825,2,0,L|135:198,1,54.9999976158142,8|0,3:0|0:0,0:0:0:0:
76,260,69125,1,10,0:0:0:0:
206,350,69425,1,0,0:0:0:0:
220,192,69725,6,0,L|213:82,1,109.999995231628,8|0,3:0|0:0,0:0:0:0:
284,36,70175,1,0,0:0:0:0:
283,35,70325,2,0,P|331:62|385:60,1,109.999995231628,10|8,0:0|3:0,0:0:0:0:
424,220,70925,1,0,0:0:0:0:
423,220,71075,2,0,P|350:253|325:329,1,164.999992847443,12|10,3:0|0:0,0:0:0:0:
488,360,71825,1,8,3:0:0:0:
448,200,72125,6,0,L|338:192,1,109.999995231628,8|0,3:0|0:0,0:0:0:0:
268,236,72575,1,0,0:0:0:0:
268,236,72725,2,0,L|158:244,1,109.999995231628,10|8,0:0|3:0,0:0:0:0:
32,352,73325,2,0,L|25:297,1,54.9999976158142,0|0,0:0|0:0,0:0:0:0:
80,236,73625,2,0,L|86:181,1,54.9999976158142,8|0,3:0|0:0,0:0:0:0:
36,116,73925,1,10,0:0:0:0:
176,28,74225,1,0,0:0:0:0:
182,193,74525,6,0,L|127:185,1,54.9999976158142,2|2,0:0|0:0,0:0:0:0:
96,260,74825,2,0,L|150:267,1,54.9999976158142,2|10,0:0|0:0,0:0:0:0:
232,264,75125,1,10,0:0:0:0:
275,104,75425,6,0,P|263:128|259:155,1,54.9999976158142,2|2,0:0|0:0,0:0:0:0:
352,71,75725,2,0,P|348:44|335:20,1,54.9999976158142,0|8,0:0|0:0,0:0:0:0:
344,152,76025,1,10,0:0:0:0:
256,292,76325,2,0,L|259:346,1,54.9999976158142,8|0,0:0|0:0,0:0:0:0:
188,244,76625,6,0,L|190:209,2,34.3749985098839,8|8|8,0:0|0:0|0:0,0:0:0:0:
112,172,76925,6,0,L|118:62,1,109.999995231628,4|0,0:1|0:0,0:0:0:0:
188,16,77375,1,8,0:3:0:0:
216,92,77525,2,0,P|243:94|270:89,1,54.9999976158142,10|0,0:0|0:0,0:0:0:0:
348,56,77825,1,8,3:0:0:0:
436,196,78125,2,0,L|490:192,1,54.9999976158142
409,275,78425,2,0,L|464:272,1,54.9999976158142,8|0,3:0|0:0,0:0:0:0:
436,352,78725,2,0,L|326:358,1,109.999995231628,10|0,0:0|0:0,0:0:0:0:
172,296,79325,6,0,P|196:283|223:278,1,54.9999976158142,8|0,3:0|0:0,0:0:0:0:
240,196,79625,2,0,P|217:180|199:159,1,54.9999976158142,0|0,0:0|0:0,0:0:0:0:
224,80,79925,1,10,0:0:0:0:
372,152,80225,2,0,L|369:261,1,109.999995231628,8|0,3:0|0:0,0:0:0:0:
452,272,80675,2,0,L|454:162,1,109.999995231628,8|0,3:0|0:0,0:0:0:0:
424,84,81125,2,0,P|372:68|320:84,1,109.999995231628,10|8,0:0|3:0,0:0:0:0:
164,136,81725,6,0,L|170:190,1,54.9999976158142,8|0,3:0|0:0,0:0:0:0:
96,224,82025,2,0,L|89:169,1,54.9999976158142,0|8,0:0|3:0,0:0:0:0:
163,272,82325,1,10,0:0:0:0:
304,360,82625,1,8,3:0:0:0:
312,196,82925,2,0,P|284:195|257:201,1,54.9999976158142,0|0,0:0|0:0,0:0:0:0:
217,277,83225,2,0,P|189:277|162:271,1,54.9999976158142,8|0,3:0|0:0,0:0:0:0:
96,224,83525,1,10,0:0:0:0:
168,368,83825,1,0,0:0:0:0:
304,276,84125,6,0,L|358:272,1,54.9999976158142,8|0,3:0|0:0,0:0:0:0:
396,196,84425,2,0,L|341:192,1,54.9999976158142,0|0,0:0|0:0,0:0:0:0:
260,184,84725,1,10,0:0:0:0:
200,32,85025,2,0,B|309:28,1,109.999995231628,8|0,3:0|0:0,0:0:0:0:
288,108,85475,2,0,B|178:111,1,109.999995231628,12|0,3:0|0:0,0:0:0:0:
205,186,85925,2,0,L|260:184,1,54.9999976158142,10|0,0:0|0:0,0:0:0:0:
320,240,86225,2,0,L|375:238,1,54.9999976158142,12|0,3:0|0:0,0:0:0:0:
444,192,86525,5,8,0:2:0:0:
443,192,86825,2,0,P|454:166|455:139,1,54.9999976158142,0|8,0:0|3:0,0:0:0:0:
380,104,87125,2,0,P|369:78|368:51,1,54.9999976158142,10|0,0:0|0:0,0:0:0:0:
436,4,87425,1,8,3:0:0:0:
276,48,87725,2,0,L|221:41,1,54.9999976158142,0|0,0:0|0:0,0:0:0:0:
160,96,88025,2,0,L|105:89,1,54.9999976158142,8|0,3:0|0:0,0:0:0:0:
24,76,88325,1,10,0:0:0:0:
140,192,88625,1,0,0:0:0:0:
47,328,88925,6,0,P|97:304|151:308,1,109.999995231628,8|0,3:0|0:0,0:0:0:0:
212,364,89375,1,0,0:0:0:0:
212,364,89525,2,0,L|208:254,1,109.999995231628,10|8,0:0|3:0,0:0:0:0:
348,163,90125,2,0,P|337:189|319:209,1,54.9999976158142,0|12,0:0|3:0,0:0:0:0:
244,172,90425,2,0,L|240:62,2,109.999995231628,0|10|10,0:0|0:0|0:0,0:0:0:0:
252,336,91325,5,8,0:0:0:0:
252,336,91625,2,0,P|225:329|197:327,1,54.9999976158142,0|8,0:0|3:0,0:0:0:0:
136,272,91925,2,0,P|109:278|81:280,1,54.9999976158142,10|0,0:0|0:0,0:0:0:0:
16,228,92225,1,8,3:0:0:0:
116,96,92525,2,0,L|119:150,1,54.9999976158142,0|0,0:0|0:0,0:0:0:0:
196,117,92825,2,0,L|200:172,1,54.9999976158142,8|0,3:0|0:0,0:0:0:0:
276,138,93125,2,0,L|283:247,1,109.999995231628,10|0,0:0|0:0,0:0:0:0:
419,344,93725,6,0,P|431:318|432:284,1,54.9999976158142,2|2,0:0|0:0,0:0:0:0:
357,183,94025,2,0,P|360:211|372:236,1,54.9999976158142
440,188,94325,1,2,0:0:0:0:
332,64,94625,6,0,L|277:67,1,54.9999976158142,2|2,0:0|0:0,0:0:0:0:
212,116,94925,2,0,L|157:113,1,54.9999976158142,2|2,0:0|0:0,0:0:0:0:
92,64,95225,1,0,0:0:0:0:
60,223,95525,6,0,P|52:250|55:277,1,54.9999976158142
140,336,95825,2,0,L|174:338,4,34.3749985098839,8|8|8|8|8,0:0|0:0|0:0|0:0|0:0,0:0:0:0:
