osu file format v14

[General]
AudioFilename: audio.mp3
AudioLeadIn: 0
PreviewTime: 57050
Countdown: 0
SampleSet: Soft
StackLeniency: 0.7
Mode: 0
LetterboxInBreaks: 0
EpilepsyWarning: 1
WidescreenStoryboard: 1

[Editor]
Bookmarks: 19325,38525,48125,57725,68525,93725,96125
DistanceSpacing: 0.1
BeatDivisor: 16
GridSize: 16
TimelineZoom: 3.299999

[Metadata]
Title:Red Lips (Mendus Remix)
TitleUnicode:Red Lips (Mendus Remix)
Artist:GTA feat. Sam Bruno
ArtistUnicode:GTA feat. Sam Bruno
Creator:Shmiklak
Version:Alphabet's Insane
Source:
Tags:marvollo m_a_r_v_o_l_l_o zlodeuka- makisokk deadpon3 wajinshu boatkrab venix alphabet trap liuth short version venax
BeatmapID:1537449
BeatmapSetID:721240

[Difficulty]
HPDrainRate:5.5
CircleSize:4.2
OverallDifficulty:8
ApproachRate:9
SliderMultiplier:2.49999990463257
SliderTickRate:2

[Events]
//Background and Video events
0,0,"wallhaven-313313.jpg",0,0
//Break Periods
//Storyboard Layer 0 (Background)
Sprite,Background,Centre,"sb\Lhighlight.png",320,0 F,0,0,,0 F,0,0,,0 F,0,0,,0 F,0,0,,0 R,0,74525,,1.5708 MY,0,74525,,102 V,0,74525,,2,4 F,0,74525,74825,1,0 R,0,75425,,1.5708 MY,0,75425,,170 V,0,75425,,2,4 F,0,75425,75725,1,0 R,0,76325,,1.5708 MY,0,76325,,237 V,0,76325,,2,4 F,0,76325,76625,1,0 R,0,76775,,1.5708 MY,0,76775,,327 V,0,76775,,2,4 F,0,76775,77075,1,0
Sprite,Background,Centre,"sb\Lhighlight.png",320,0 F,0,0,,0 R,0,76625,,1.5708 MY,0,76625,,317 V,0,76625,,2,4 F,0,76625,76925,1,0
Sprite,Background,Centre,"sb\highlight.png",0,0 C,0,48125,,231,1,1 M,0,48125,48200,335,265,303.8172,267.0485 F,2,48125,48625,1,0 S,2,48125,48625,1,0.2 P,0,48125,48625,A M,0,48200,48275,303.8172,267.0485,272.6344,269.097 M,0,48275,48350,272.6344,269.097,241.4516,271.1455 M,0,48350,48425,241.4516,271.1455,210.2689,273.194
Sprite,Background,Centre,"sb\highlight.png",131,280 C,0,48575,,231,1,1 F,2,48575,48775,1,0 S,2,48575,48775,1,0.2 P,0,48575,48775,A
Sprite,Background,Centre,"sb\highlight.png",0,0 C,0,48725,,254,18,95 M,0,48725,48800,341,259,312.9355,260.8437 F,2,48725,49224,1,0 S,2,48725,49224,1,0.2 P,0,48725,49224,A M,0,48800,48875,312.9355,260.8437,284.871,262.6873 M,0,48875,48950,284.871,262.6873,256.8065,264.5309 M,0,48950,49024,256.8065,264.5309,228.742,266.3746
Sprite,Background,Centre,"sb\highlight.png",131,280 C,0,49175,,254,18,95 F,2,49175,49375,1,0 S,2,49175,49375,1,0.2 P,0,49175,49375,A
Sprite,Background,Centre,"sb\highlight.png",0,0 C,0,49325,,231,1,1 M,0,49325,49400,347,253,323.6129,254.5364 F,2,49325,49825,1,0 S,2,49325,49825,1,0.2 P,0,49325,49825,A M,0,49400,49475,323.6129,254.5364,300.2258,256.0728 M,0,49475,49550,300.2258,256.0728,276.8387,257.6091 M,0,49550,49625,276.8387,257.6091,253.4516,259.1455
Sprite,Background,Centre,"sb\highlight.png",131,280 C,0,49775,,231,1,1 F,2,49775,49975,1,0 S,2,49775,49975,1,0.2 P,0,49775,49975,A
Sprite,Background,Centre,"sb\highlight.png",0,0 C,0,49925,,254,18,95 M,0,49925,50000,355,247,354.1162,223.5792 F,2,49925,50275,1,0 S,2,49925,50275,1,0.2 P,0,49925,50275,A M,0,50000,50075,354.1162,223.5792,353.2324,200.1583
Sprite,Background,Centre,"sb\highlight.png",0,0 C,0,50225,,231,1,1 M,0,50225,50300,264,125 F,2,50225,50500,1,0 S,2,50225,50500,1,0.2 P,0,50225,50500,A
Sprite,Background,Centre,"sb\highlight.png",0,0 C,0,50375,,231,1,1 M,0,50375,50450,251,111 F,2,50375,50650,1,0 S,2,50375,50650,1,0.2 P,0,50375,50650,A
Sprite,Background,Centre,"sb\highlight.png",0,0 C,0,50525,,254,18,95 M,0,50525,50600,355,247,382.9662,260.5007 F,2,50525,51025,1,0 S,2,50525,51025,1,0.2 P,0,50525,51025,A M,0,50600,50675,382.9662,260.5007,413.6854,264.733 M,0,50675,50750,413.6854,264.733,444.1813,258.9509 M,0,50750,50825,444.1813,258.9509,471,244
Sprite,Background,Centre,"sb\highlight.png",411,170 C,0,50975,,254,18,95 F,2,50975,51175,1,0 S,2,50975,51175,1,0.2 P,0,50975,51175,A
Sprite,Background,Centre,"sb\highlight.png",0,0 C,0,51125,,231,1,1 M,0,51125,51200,367,267,394.5056,272.1958 F,2,51125,51624,1,0 S,2,51125,51624,1,0.2 P,0,51125,51624,A M,0,51200,51275,394.5056,272.1958,422.3383,269.579 M,0,51275,51350,422.3383,269.579,448.4315,259.5304 M,0,51350,51424,448.4315,259.5304,470.4473,242.281
Sprite,Background,Centre,"sb\highlight.png",396,160 C,0,51575,,231,1,1 F,2,51575,51775,1,0 S,2,51575,51775,1,0.2 P,0,51575,51775,A
Sprite,Background,Centre,"sb\highlight.png",0,0 C,0,51725,,254,18,95 M,0,51725,51800,387,277,410.3111,275.929 F,2,51725,52225,1,0 S,2,51725,52225,1,0.2 P,0,51725,52225,A M,0,51800,51875,410.3111,275.929,432.7302,269.6021 M,0,51875,51950,432.7302,269.6021,452.9619,258.0345 M,0,51950,52025,452.9619,258.0345,469.8054,241.9053
Sprite,Background,Centre,"sb\highlight.png",379,149 C,0,52175,,254,18,95 F,2,52175,52375,1,0 S,2,52175,52375,1,0.2 P,0,52175,52375,A
Sprite,Background,Centre,"sb\highlight.png",0,0 C,0,52325,,231,1,1 M,0,52325,52400,387,277,388.2538,300.4039 F,2,52325,52675,1,0 S,2,52325,52675,1,0.2 P,0,52325,52675,A M,0,52400,52475,388.2538,300.4039,389.5076,323.8079
Sprite,Background,Centre,"sb\highlight.png",0,0 C,0,52625,,231,1,1 M,0,52625,52700,485,398 F,2,52625,52900,1,0 S,2,52625,52900,1,0.2 P,0,52625,52900,A
Sprite,Background,Centre,"sb\highlight.png",0,0 C,0,52775,,231,1,1 M,0,52775,52850,496,387 F,2,52775,53050,1,0 S,2,52775,53050,1,0.2 P,0,52775,53050,A
Sprite,Background,Centre,"sb\highlight.png",0,0 C,0,52925,,254,18,95 M,0,52925,53000,387,277,355.7832,275.5592 F,2,52925,53275,1,0 S,2,52925,53275,1,0.2 P,0,52925,53275,A M,0,53000,53075,355.7832,275.5592,324.5665,274.1185
Sprite,Background,Centre,"sb\highlight.png",0,0 C,0,53225,,254,18,95 M,0,53225,53300,214,320 F,2,53225,53500,1,0 S,2,53225,53500,1,0.2 P,0,53225,53500,A
Sprite,Background,Centre,"sb\highlight.png",0,0 C,0,53375,,254,18,95 M,0,53375,53450,201,335 F,2,53375,53650,1,0 S,2,53375,53650,1,0.2 P,0,53375,53650,A
Sprite,Background,Centre,"sb\highlight.png",0,0 C,0,53525,,231,1,1 M,0,53525,53600,324,274,325.4408,242.7832 F,2,53525,53875,1,0 S,2,53525,53875,1,0.2 P,0,53525,53875,A M,0,53600,53675,325.4408,242.7832,326.8816,211.5665
Sprite,Background,Centre,"sb\highlight.png",0,0 C,0,53825,,231,1,1 M,0,53825,53900,281,101 F,2,53825,54100,1,0 S,2,53825,54100,1,0.2 P,0,53825,54100,A
Sprite,Background,Centre,"sb\highlight.png",0,0 C,0,53975,,231,1,1 M,0,53975,54050,266,88 F,2,53975,54250,1,0 S,2,53975,54250,1,0.2 P,0,53975,54250,A
Sprite,Background,Centre,"sb\highlight.png",0,0 C,0,54125,,254,18,95 M,0,54125,54200,326,211,357.2168,212.4408 F,2,54125,54475,1,0 S,2,54125,54475,1,0.2 P,0,54125,54475,A M,0,54200,54275,357.2168,212.4408,388.4335,213.8815
Sprite,Background,Centre,"sb\highlight.png",0,0 C,0,54425,,254,18,95 M,0,54425,54500,499,168 F,2,54425,54700,1,0 S,2,54425,54700,1,0.2 P,0,54425,54700,A
Sprite,Background,Centre,"sb\highlight.png",0,0 C,0,54575,,254,18,95 M,0,54575,54650,512,153 F,2,54575,54850,1,0 S,2,54575,54850,1,0.2 P,0,54575,54850,A
Sprite,Background,Centre,"sb\highlight.png",0,0 C,0,54725,,231,1,1 M,0,54725,54800,388,213,386.5592,244.2168 F,2,54725,55075,1,0 S,2,54725,55075,1,0.2 P,0,54725,55075,A M,0,54800,54875,386.5592,244.2168,385.1184,275.4335
Sprite,Background,Centre,"sb\highlight.png",0,0 C,0,55025,,231,1,1 M,0,55025,55100,431,386 F,2,55025,55300,1,0 S,2,55025,55300,1,0.2 P,0,55025,55300,A
Sprite,Background,Centre,"sb\highlight.png",0,0 C,0,55175,,231,1,1 M,0,55175,55250,446,399 F,2,55175,55450,1,0 S,2,55175,55450,1,0.2 P,0,55175,55450,A
Sprite,Background,Centre,"sb\highlight.png",251,235 C,0,55325,,254,18,95 F,2,55325,55525,1,0 S,2,55325,55525,1,0.2 P,0,55325,55525,A
Sprite,Background,Centre,"sb\highlight.png",133,263 C,0,55475,,254,18,95 F,2,55475,55675,1,0 S,2,55475,55675,1,0.2 P,0,55475,55675,A
Sprite,Background,Centre,"sb\highlight.png",0,0 C,0,55625,,254,18,95 M,0,55625,55700,273,228 F,2,55625,55900,1,0 S,2,55625,55900,1,0.2 P,0,55625,55900,A
Sprite,Background,Centre,"sb\highlight.png",0,0 C,0,55775,,254,18,95 M,0,55775,55850,121,268 F,2,55775,56050,1,0 S,2,55775,56050,1,0.2 P,0,55775,56050,A
Sprite,Background,Centre,"sb\highlight.png",203,309 C,0,55925,,231,1,1 F,2,55925,56125,1,0 S,2,55925,56125,1,0.2 P,0,55925,56125,A
Sprite,Background,Centre,"sb\highlight.png",175,191 C,0,56075,,231,1,1 F,2,56075,56275,1,0 S,2,56075,56275,1,0.2 P,0,56075,56275,A
Sprite,Background,Centre,"sb\highlight.png",0,0 C,0,56225,,231,1,1 M,0,56225,56300,210,331 F,2,56225,56500,1,0 S,2,56225,56500,1,0.2 P,0,56225,56500,A
Sprite,Background,Centre,"sb\highlight.png",0,0 C,0,56375,,231,1,1 M,0,56375,56450,170,179 F,2,56375,56650,1,0 S,2,56375,56650,1,0.2 P,0,56375,56650,A
Sprite,Background,Centre,"sb\highlight.png",297,344 C,0,56525,,254,18,95 F,2,56525,56725,1,0 S,2,56525,56725,1,0.2 P,0,56525,56725,A
Sprite,Background,Centre,"sb\highlight.png",325,226 C,0,56675,,254,18,95 F,2,56675,56875,1,0 S,2,56675,56875,1,0.2 P,0,56675,56875,A
Sprite,Background,Centre,"sb\highlight.png",0,0 C,0,56825,,254,18,95 M,0,56825,56900,290,366 F,2,56825,57100,1,0 S,2,56825,57100,1,0.2 P,0,56825,57100,A
Sprite,Background,Centre,"sb\highlight.png",0,0 C,0,56975,,254,18,95 M,0,56975,57050,330,214 F,2,56975,57250,1,0 S,2,56975,57250,1,0.2 P,0,56975,57250,A
Sprite,Background,Centre,"sb\Lhighlight.png",320,0 F,0,0,,0 F,0,0,,0 F,0,0,,0 F,0,0,,0 F,0,0,,0 F,0,0,,0 R,0,93725,,1.5708 MY,0,93725,,349 V,0,93725,,2,4 F,0,93725,94025,1,0 R,0,94175,,1.5708 MY,0,94175,,349 V,0,94175,,2,4 F,0,94175,94475,1,0 R,0,94625,,1.5708 MY,0,94625,,255 V,0,94625,,2,4 F,0,94625,94925,1,0 R,0,95075,,1.5708 MY,0,95075,,255 V,0,95075,,2,4 F,0,95075,95375,1,0 R,0,95525,,1.5708 MY,0,95525,,189 V,0,95525,,2,4 F,0,95525,95825,1,0 R,0,95937,,1.5708 MY,0,95937,,87 V,0,95937,,2,4 F,0,95937,96237,1,0
Sprite,Background,Centre,"sb\Lhighlight.png",320,0 F,0,0,,0 F,0,0,,0 F,0,0,,0 F,0,0,,0 F,0,0,,0 R,0,93875,,1.5708 MY,0,93875,,205 V,0,93875,,2,4 F,0,93875,94175,1,0 R,0,94325,,1.5708 MY,0,94325,,179 V,0,94325,,2,4 F,0,94325,94625,1,0 R,0,94775,,1.5708 MY,0,94775,,399 V,0,94775,,2,4 F,0,94775,95075,1,0 R,0,95225,,1.5708 MY,0,95225,,427 V,0,95225,,2,4 F,0,95225,95525,1,0 R,0,95825,,1.5708 MY,0,95825,,69 V,0,95825,,2,4 F,0,95825,96125,1,0
Sprite,Background,Centre,"sb\Lhighlight.png",320,0 F,0,0,,0 F,0,0,,0 F,0,0,,0 R,0,94025,,1.5708 MY,0,94025,,225 V,0,94025,,2,4 F,0,94025,94325,1,0 R,0,94925,,1.5708 MY,0,94925,,379 V,0,94925,,2,4 F,0,94925,95225,1,0 R,0,96125,,1.5708 MY,0,96125,,255 V,0,96125,,2,4 F,0,96125,96425,1,0
//Storyboard Layer 1 (Fail)
//Storyboard Layer 2 (Pass)
//Storyboard Layer 3 (Foreground)
//Storyboard Sound Samples

[TimingPoints]
125,600,4,2,1,55,1,0
19325,-200,4,2,1,55,0,0
20525,-400,4,2,1,55,0,0
21725,-200,4,2,1,55,0,0
22925,-400,4,2,1,55,0,0
25325,-200,4,2,1,55,0,0
26525,-400,4,2,1,55,0,0
28925,-200,4,2,1,55,0,0
29975,-200,4,2,1,5,0,0
30125,-400,4,2,1,55,0,0
30575,-400,4,2,1,5,0,0
30725,-400,4,2,1,55,0,0
31025,-200,4,2,1,55,0,0
31925,-400,4,2,1,55,0,0
33725,-200,4,2,1,55,0,0
34775,-200,4,2,1,5,0,0
34925,-400,4,2,1,55,0,0
35375,-400,4,2,1,5,0,0
35525,-400,4,2,1,55,0,0
36125,-200,4,2,1,55,0,0
37025,-400,4,2,1,55,0,0
38525,-100,4,2,2,65,0,0
38975,-133.333333333333,4,2,2,65,0,0
48125,-100,4,2,2,65,0,0
48725,-111.111111111111,4,2,2,65,0,0
49325,-133.333333333333,4,2,2,65,0,0
50525,-100,4,2,2,65,0,0
51125,-111.111111111111,4,2,2,65,0,0
51725,-133.333333333333,4,2,2,65,0,0
52925,-100,4,2,2,65,0,0
57125,-100,4,2,44,65,0,0
57200,-100,4,2,44,5,0,0
57725,-80,4,2,1,83,0,1
57950,-80,4,2,1,5,0,1
58025,-80,4,2,1,83,0,1
58475,-80,4,2,1,5,0,1
58625,-80,4,2,1,83,0,1
58775,-80,4,2,1,5,0,1
58925,-80,4,2,1,83,0,1
59525,-400,4,2,1,83,0,1
59675,-400,4,2,1,5,0,1
59825,-400,4,2,1,83,0,1
59975,-400,4,2,1,5,0,1
60125,-80,4,2,1,83,0,1
60350,-80,4,2,1,5,0,1
60425,-80,4,2,1,83,0,1
60875,-80,4,2,1,5,0,1
61025,-200,4,2,1,83,0,1
61325,-200,4,2,1,5,0,1
61475,-100,4,2,1,83,0,1
61775,-100,4,2,1,5,0,1
61925,-100,4,2,1,83,0,1
62075,-100,4,2,1,5,0,1
62225,-100,4,2,1,83,0,1
62375,-100,4,2,1,5,0,1
62525,-100,4,2,1,85,0,1
62750,-100,4,2,1,5,0,1
62825,-100,4,2,1,83,0,1
63275,-100,4,2,1,5,0,1
63425,-100,4,2,1,83,0,1
64325,-400,4,2,1,83,0,1
64475,-400,4,2,1,5,0,1
64625,-400,4,2,1,83,0,1
64925,-80,4,2,1,83,0,1
65150,-80,4,2,1,5,0,1
65225,-80,4,2,1,83,0,1
65675,-80,4,2,1,5,0,1
65825,-200,4,2,1,83,0,1
66125,-200,4,2,1,5,0,1
66275,-66.6666666666667,4,2,1,83,0,1
66575,-66.6666666666667,4,2,1,5,0,1
66725,-100,4,2,1,83,0,1
66875,-100,4,2,1,5,0,1
67025,-100,4,2,1,83,0,1
67175,-100,4,2,1,5,0,1
67325,-80,4,2,1,83,0,1
67550,-80,4,2,1,5,0,1
67625,-80,4,2,1,83,0,1
68075,-80,4,2,1,5,0,1
68225,-80,4,2,1,83,0,1
68375,-80,4,2,1,5,0,1
68525,-80,4,2,1,83,0,1
69275,-80,4,2,1,5,0,1
69425,-80,4,2,1,83,0,1
69575,-80,4,2,1,5,0,1
69725,-80,4,2,1,83,0,1
69950,-80,4,2,1,5,0,1
70025,-80,4,2,1,83,0,1
70475,-80,4,2,1,5,0,1
70625,-200,4,2,1,83,0,1
70925,-200,4,2,1,5,0,1
71075,-100,4,2,1,83,0,1
71375,-100,4,2,1,5,0,1
71525,-100,4,2,1,83,0,1
71675,-100,4,2,1,5,0,1
71825,-100,4,2,1,83,0,1
71975,-100,4,2,1,5,0,1
72125,-80,4,2,1,83,0,1
72350,-80,4,2,1,5,0,1
72425,-80,4,2,1,83,0,1
72875,-80,4,2,1,5,0,1
73025,-80,4,2,1,83,0,1
73175,-80,4,2,1,5,0,1
73325,-80,4,2,1,83,0,1
74150,-80,4,2,1,5,0,1
74225,-80,4,2,1,83,0,1
74525,-66.6666666666667,4,2,2,83,0,0
75425,-100,4,2,2,83,0,0
76325,-200,4,2,2,83,0,0
76625,-100,4,2,2,83,0,0
76925,-66.6666666666667,4,2,1,83,0,1
77825,-200,4,2,1,83,0,1
78125,-66.6666666666667,4,2,1,83,0,1
79025,-200,4,2,1,83,0,1
79325,-66.6666666666667,4,2,1,83,0,1
80225,-200,4,2,1,83,0,1
80525,-200,4,2,1,5,0,1
80675,-100,4,2,1,83,0,1
80975,-100,4,2,1,5,0,1
81125,-66.6666666666667,4,2,1,83,0,1
82625,-200,4,2,1,83,0,1
82925,-66.6666666666667,4,2,1,83,0,1
83825,-200,4,2,1,83,0,1
84125,-66.6666666666667,4,2,1,83,0,1
85025,-200,4,2,1,83,0,1
85325,-200,4,2,1,5,0,1
85475,-50,4,2,1,83,0,1
85775,-50,4,2,1,5,0,1
85925,-66.6666666666667,4,2,1,83,0,1
87425,-200,4,2,1,83,0,1
87725,-66.6666666666667,4,2,1,83,0,1
88625,-200,4,2,1,83,0,1
88925,-66.6666666666667,4,2,1,83,0,1
89825,-200,4,2,1,83,0,1
90125,-200,4,2,1,5,0,1
90275,-100,4,2,1,83,0,1
90575,-100,4,2,1,5,0,1
90725,-66.6666666666667,4,2,1,83,0,1
92225,-200,4,2,1,83,0,1
92525,-66.6666666666667,4,2,1,83,0,1
93425,-200,4,2,1,83,0,1
93725,-200,4,2,2,83,0,1
95525,-66.6666666666667,4,2,2,83,0,1
96125,-66.6666666666667,4,2,44,83,0,0

[Colours]
Combo1 : 254,18,95
Combo2 : 231,1,1
SliderTrackOverride : 100,100,100

[HitObjects]
23,129,19325,6,0,L|113:135,1,62.4999976158142,4|0,0:1|0:0,0:0:0:0:
159,192,19775,1,0,0:0:0:0:
159,192,19925,2,0,L|249:186,1,62.4999976158142,8|8,0:0|3:0,0:0:0:0:
221,187,20525,6,0,P|225:152|216:119,1,62.4999976158143,0|8,0:0|0:0,0:0:0:0:
219,126,21725,6,0,B|197:121|197:121|168:123,2,41.6666650772095,8|0|0,3:0|0:0|0:0,0:0:0:0:
299,169,22325,2,0,L|379:166,1,62.4999976158143,8|8,0:0|3:0,0:0:0:0:
423,164,22925,6,0,L|343:167,1,62.4999976158143,0|8,0:0|0:0,0:0:0:0:
288,169,23825,1,8,3:0:0:0:
288,169,24125,6,0,P|279:203|285:238,1,62.4999976158143,8|8,3:0|0:0,0:0:0:0:
287,242,25025,1,8,3:0:0:0:
353,300,25325,6,0,L|430:297,1,62.4999976158143,0|0,0:0|0:0,0:0:0:0:
287,242,25925,2,0,L|210:245,1,62.4999976158143,8|0,0:0|0:0,0:0:0:0:
148,278,26525,6,0,P|141:253|145:218,1,62.4999976158143,8|8,3:0|0:0,0:0:0:0:
224,244,27425,1,8,3:0:0:0:
213,324,27725,1,0,0:0:0:0:
148,278,28025,1,8,3:0:0:0:
289,296,28325,1,8,0:0:0:0:
213,324,28625,2,0,L|217:295,1,15.6249994039536,8|0,3:0|0:0,0:0:0:0:
236,166,28925,6,0,L|247:81,1,62.4999976158143,8|0,3:0|0:0,0:0:0:0:
328,46,29525,2,0,L|336:107,1,62.4999976158143,8|8,0:0|0:3,0:0:0:0:
417,158,30125,6,0,P|430:124|429:91,1,62.4999976158143,0|8,0:0|0:0,0:0:0:0:
336,107,31025,2,0,L|292:108,1,31.2499988079071
294,114,31325,5,8,0:3:0:0:
417,158,31625,1,0,0:0:0:0:
336,202,31925,1,8,0:0:0:0:
418,254,32225,2,0,P|426:290|416:328,1,62.4999976158143,8|8,0:3|0:3,0:0:0:0:
365,375,33125,1,8,0:0:0:0:
339,283,33425,2,0,L|315:280,1,15.6249994039536,8|0,3:0|0:0,0:0:0:0:
186,332,33725,6,0,L|108:336,1,62.4999976158143,8|0,3:0|0:0,0:0:0:0:
33,242,34325,2,0,L|109:247,1,62.4999976158143,8|8,0:0|0:3,0:0:0:0:
209,210,34925,6,0,P|214:190|209:148,1,62.4999976158143,0|8,0:0|0:0,0:0:0:0:
201,136,35825,2,0,L|176:140,1,15.6249994039536,0|0,0:0|0:0,0:0:0:0:
268,67,36125,6,0,L|345:70,1,62.4999976158143,8|0,3:0|0:0,0:0:0:0:
406,113,36725,1,8,0:0:0:0:
406,113,37025,6,0,P|417:73|410:40,1,62.4999976158143,8|8,3:0|3:0,0:0:0:0:
300,161,37925,1,8,0:0:0:0:
308,170,38225,2,0,L|334:171,1,15.6249994039536,8|0,3:0|0:0,0:0:0:0:
440,265,38525,6,0,P|380:249|319:264,1,124.999995231629,4|0,1:0|0:0,0:0:0:0:
257,319,38975,1,8,0:0:0:0:
241,334,39125,6,0,L|244:217,1,93.7500000000001,8|0,0:0|0:0,0:0:0:0:
249,70,39725,2,0,L|248:121,2,46.875,8|8|8,3:0|0:0|0:0,0:0:0:0:
249,70,40325,1,8,0:0:0:0:
125,102,40625,2,0,L|188:106,1,46.875,8|0,0:0|0:0,0:0:0:0:
322,155,40925,6,0,P|379:144|429:162,1,93.7500000000001,8|0,3:0|0:0,0:0:0:0:
480,204,41375,1,8,0:0:0:0:
495,224,41525,2,0,L|493:122,1,93.7500000000001,8|8,0:0|0:0,0:0:0:0:
369,228,42125,2,0,L|373:279,2,46.875,8|8|8,3:0|0:0|0:0,0:0:0:0:
367,210,42725,1,8,0:0:0:0:
283,264,43025,1,8,0:0:0:0:
283,264,43175,1,8,0:0:0:0:
464,292,43325,6,0,P|415:281|372:294,1,93.7500000000001,8|0,3:0|0:0,0:0:0:0:
303,354,43775,1,8,0:0:0:0:
193,263,43925,2,0,P|242:252|285:265,1,93.7500000000001,8|8,0:0|0:0,0:0:0:0:
149,334,44525,2,0,L|95:337,2,46.875,8|8|8,3:0|0:0|0:0,0:0:0:0:
168,333,45125,1,8,0:0:0:0:
101,257,45425,2,0,P|97:217|102:200,1,46.875,8|0,0:0|0:0,0:0:0:0:
169,126,45725,6,0,B|222:125|222:125|229:128|229:128|277:127,1,93.7500000000001,8|0,3:0|0:0,0:0:0:0:
330,79,46175,1,8,0:0:0:0:
256,32,46325,1,8,0:0:0:0:
347,245,46625,1,8,0:0:0:0:
347,245,46775,1,0,0:0:0:0:
403,114,46925,2,0,L|456:112,2,46.875,8|8|8,3:0|0:0|0:0,0:0:0:0:
271,209,47525,2,0,L|328:214,1,46.875,8|0,0:0|0:0,0:0:0:0:
421,264,47825,6,0,L|443:266,2,11.71875,8|0|0,0:0|0:0|0:0,0:0:0:0:
433,282,47975,2,0,L|455:284,2,11.71875,8|0|0,0:0|0:0|0:0,0:0:0:0:
271,209,48125,6,0,L|134:218,1,124.999995231629,8|8,3:0|0:0,0:0:0:0:
67,224,48575,1,8,0:0:0:0:
277,203,48725,6,0,L|140:212,1,112.499992275238,8|8,3:0|0:0,0:0:0:0:
67,224,49175,1,0,0:0:0:0:
283,197,49325,6,0,L|146:206,1,93.7500000000001,8|8,3:0|0:0,0:0:0:0:
67,224,49775,1,0,0:0:0:0:
291,191,49925,6,0,L|289:138,1,46.875,8|0,3:0|0:0,0:0:0:0:
200,69,50225,6,0,L|197:51,2,11.71875,8|0|0,0:0|0:0|0:0,0:0:0:0:
187,55,50375,2,0,L|184:37,2,11.71875,8|0|0,0:0|0:0|0:0,0:0:0:0:
291,191,50525,6,0,P|344:209|407:188,1,124.999995231629,8|8,3:0|0:0,0:0:0:0:
347,114,50975,1,8,0:0:0:0:
303,211,51125,6,0,P|358:214|414:178,1,112.499992275238,8|8,3:0|0:0,0:0:0:0:
332,104,51575,1,0,0:0:0:0:
323,221,51725,6,0,P|377:210|421:160,1,93.7500000000001,8|8,3:0|0:0,0:0:0:0:
315,93,52175,1,0,0:0:0:0:
323,221,52325,6,0,L|326:277,1,46.875,8|0,3:0|0:0,0:0:0:0:
421,342,52625,2,0,L|441:340,2,11.71875,8|0|0,0:0|0:0|0:0,0:0:0:0:
437,329,52775,2,0,L|457:327,2,11.71875,8|0|0,0:0|0:0|0:0,0:0:0:0:
323,221,52925,6,0,L|258:218,1,62.4999976158143,8|0,3:0|0:0,0:0:0:0:
150,264,53225,2,0,L|123:266,2,15.6249994039536,8|0|0,3:2|0:0|0:0,0:0:0:0:
137,279,53375,2,0,L|110:281,2,15.6249994039536,8|0|0,0:0|0:0|0:0,0:0:0:0:
260,218,53525,6,0,L|263:153,1,62.4999976158143,8|0,3:0|0:0,0:0:0:0:
217,45,53825,2,0,L|215:18,2,15.6249994039536,8|0|0,3:2|0:0|0:0,0:0:0:0:
202,32,53975,2,0,L|200:5,2,15.6249994039536,8|0|0,0:0|0:0|0:0,0:0:0:0:
262,155,54125,6,0,L|327:158,1,62.4999976158143,8|0,3:0|0:0,0:0:0:0:
435,112,54425,2,0,L|462:110,2,15.6249994039536,8|0|0,3:2|0:0|0:0,0:0:0:0:
448,97,54575,2,0,L|475:95,2,15.6249994039536,8|0|0,0:0|0:0|0:0,0:0:0:0:
324,157,54725,6,0,L|321:222,1,62.4999976158143,8|0,3:0|0:0,0:0:0:0:
367,330,55025,2,0,L|369:357,2,15.6249994039536,8|0|0,3:2|0:0|0:0,0:0:0:0:
382,343,55175,2,0,L|384:370,2,15.6249994039536,8|0|0,0:0|0:0|0:0,0:0:0:0:
187,179,55325,5,8,3:0:0:0:
69,207,55475,1,8,3:0:0:0:
209,172,55625,2,0,L|236:165,2,15.6249994039536,8|0|0,3:2|0:0|0:0,0:0:0:0:
57,212,55775,2,0,L|30:219,2,15.6249994039536,8|0|0,3:2|0:0|0:0,0:0:0:0:
139,253,55925,5,8,3:0:0:0:
111,135,56075,1,8,3:0:0:0:
146,275,56225,2,0,L|153:302,2,15.6249994039536,8|0|0,3:2|0:0|0:0,0:0:0:0:
106,123,56375,2,0,L|99:96,2,15.6249994039536,8|0|0,3:2|0:0|0:0,0:0:0:0:
233,288,56525,5,8,3:0:0:0:
261,170,56675,1,8,3:0:0:0:
226,310,56825,2,0,L|219:337,2,15.6249994039536,8|0|0,3:2|0:0|0:0,0:0:0:0:
266,158,56975,2,0,L|273:131,2,15.6249994039536,8|0|0,3:2|0:0|0:0,0:0:0:0:
266,158,57725,5,4,0:1:0:0:
273,169,58025,1,0,0:0:0:0:
381,181,58175,1,0,0:0:0:0:
489,193,58325,1,10,0:0:0:0:
496,204,58625,1,8,3:0:0:0:
259,146,58925,5,0,0:0:0:0:
367,159,59075,1,0,0:0:0:0:
253,135,59225,5,8,3:0:0:0:
377,150,59375,1,0,0:0:0:0:
498,171,59525,1,10,0:0:0:0:
507,182,59825,1,0,0:0:0:0:
286,47,60125,5,8,3:0:0:0:
281,60,60425,1,0,0:0:0:0:
173,77,60575,1,0,0:0:0:0:
65,95,60725,2,0,P|59:146|77:187,1,78.1249970197678,10|0,0:0|0:0,0:0:0:0:
124,301,61025,6,0,P|130:250|117:218,1,62.4999976158143,8|0,3:0|0:0,0:0:0:0:
149,202,61475,6,0,P|162:263|149:324,1,124.999995231629,8|0,3:0|0:0,0:0:0:0:
4,176,61925,2,0,L|92:168,1,62.4999976158143,10|0,0:0|0:0,0:0:0:0:
301,244,62225,2,0,L|213:252,1,62.4999976158143,8|0,3:0|0:0,0:0:0:0:
194,101,62525,5,8,3:0:0:0:
202,110,62825,1,0,0:0:0:0:
311,105,62975,1,0,0:0:0:0:
419,100,63125,1,10,0:0:0:0:
428,110,63425,1,8,3:0:0:0:
185,90,63725,5,0,0:0:0:0:
293,86,63875,1,0,0:0:0:0:
177,80,64025,5,8,3:0:0:0:
302,75,64175,1,0,0:0:0:0:
427,71,64325,1,10,0:0:0:0:
437,83,64625,1,0,0:0:0:0:
318,308,64925,5,8,3:0:0:0:
307,295,65225,1,0,0:0:0:0:
305,185,65375,1,0,0:0:0:0:
302,75,65525,1,10,0:0:0:0:
293,65,65825,6,0,L|204:71,1,62.4999976158143,8|0,3:0|0:0,0:0:0:0:
76,119,66275,6,0,B|114:101|174:101|206:140|206:140|190:152|157:159,1,187.5,12|0,3:0|0:0,0:0:0:0:
70,220,66725,6,0,L|0:213,1,62.4999976158143,10|0,0:0|0:0,0:0:0:0:
215,303,67025,2,0,L|285:296,1,62.4999976158143,12|0,3:0|0:0,0:0:0:0:
403,160,67325,5,8,3:0:0:0:
413,172,67625,1,0,0:0:0:0:
288,164,67775,1,0,0:0:0:0:
163,157,67925,1,10,0:0:0:0:
173,169,68225,1,8,3:0:0:0:
292,48,68525,5,0,0:0:0:0:
288,164,68675,1,0,0:0:0:0:
284,34,68825,5,8,3:0:0:0:
279,175,68975,1,0,0:0:0:0:
274,316,69125,1,10,0:0:0:0:
283,305,69425,1,0,0:0:0:0:
81,278,69725,5,8,3:0:0:0:
89,291,70025,1,0,0:0:0:0:
102,166,70175,1,0,0:0:0:0:
115,41,70325,2,0,L|23:33,1,78.1249970197678,10|0,0:0|0:0,0:0:0:0:
216,110,70625,6,0,B|250:107|250:107|258:110|258:110|299:107,1,62.4999976158143,8|0,3:0|0:0,0:0:0:0:
374,50,71075,6,0,P|346:109|382:175,1,124.999995231629,12|0,3:0|0:0,0:0:0:0:
446,209,71525,2,0,P|458:170|453:134,1,62.4999976158143,10|0,0:0|0:0,0:0:0:0:
277,108,71825,2,0,P|278:143|292:177,1,62.4999976158143,8|0,3:0|0:0,0:0:0:0:
378,288,72125,5,8,3:0:0:0:
384,303,72425,1,0,0:0:0:0:
260,324,72575,1,0,0:0:0:0:
137,300,72725,1,10,0:0:0:0:
143,285,73025,1,8,3:0:0:0:
260,203,73325,5,0,0:0:0:0:
260,324,73475,1,0,0:0:0:0:
269,190,73625,5,8,3:0:0:0:
269,336,73775,1,0,0:0:0:0:
279,174,73925,5,10,0:0:0:0:
279,349,74225,1,0,0:0:0:0:
149,46,74525,6,0,L|55:53,4,93.7500000000001,2|2|2|10|10,0:0|0:0|0:0|0:0|0:0,0:0:0:0:
218,114,75425,6,0,L|294:120,4,62.4999976158143,2|2|2|10|10,0:0|0:0|0:0|0:0|0:0,0:0:0:0:
174,181,76325,6,0,L|136:184,1,31.2499988079071,8|0,0:0|0:0,0:0:0:0:
53,261,76625,2,0,L|33:261,2,15.6249994039536,8|8|8,0:0|0:0|0:0,0:0:0:0:
40,271,76775,2,0,L|20:271,2,15.6249994039536,8|8|8,0:0|0:0|0:0,0:0:0:0:
183,296,76925,6,0,P|257:276|336:362,1,187.5,4|0,0:1|0:0,0:0:0:0:
241,371,77375,1,8,0:3:0:0:
357,227,77525,2,0,L|471:233,1,93.7500000000001,10|0,0:0|0:0,0:0:0:0:
315,119,77825,6,0,L|261:123,1,31.2499988079071,8|0,3:0|0:0,0:0:0:0:
183,296,78125,5,0,0:0:0:0:
178,160,78275,1,0,0:0:0:0:
109,78,78425,5,8,3:0:0:0:
114,214,78575,1,0,0:0:0:0:
242,104,78725,5,10,0:0:0:0:
51,271,79025,2,0,L|-5:269,1,31.2499988079071,0|0,0:0|0:0,0:0:0:0:
251,242,79325,6,0,B|330:238|330:238|369:249|369:249|466:243,1,187.5,8|0,3:0|0:0,0:0:0:0:
379,148,79775,1,2,0:0:0:0:
238,316,79925,2,0,L|353:310,1,93.7500000000001,10|0,0:0|0:0,0:0:0:0:
185,195,80225,6,0,P|171:228|177:264,1,62.4999976158143,8|0,3:0|0:0,0:0:0:0:
287,178,80675,6,0,P|253:119|175:95,1,124.999995231629,8|0,3:0|0:0,0:0:0:0:
258,269,81125,6,0,P|326:269|385:213,1,93.7500000000001,10|0,0:0|0:0,0:0:0:0:
185,195,81425,2,0,P|150:253|169:332,1,93.7500000000001,8|0,3:0|0:0,0:0:0:0:
409,326,81725,6,0,P|440:254|375:170,1,187.5,8|0,3:0|0:0,0:0:0:0:
347,258,82175,1,8,3:0:0:0:
432,97,82325,2,0,P|379:80|335:93,1,93.7500000000001,10|0,0:0|0:0,0:0:0:0:
258,269,82625,6,0,L|262:314,1,31.2499988079071,8|0,3:0|0:0,0:0:0:0:
71,344,82925,5,0,0:0:0:0:
166,307,83075,1,0,0:0:0:0:
94,184,83225,5,8,3:0:0:0:
258,269,83375,1,0,0:0:0:0:
240,104,83525,5,10,0:0:0:0:
71,344,83825,2,0,L|76:390,1,31.2499988079071,0|0,0:0|0:0,0:0:0:0:
258,269,84125,6,0,B|307:247|357:270|357:270|415:299|477:250,1,187.5,8|0,3:0|0:0,0:0:0:0:
401,193,84575,1,0,0:0:0:0:
214,340,84725,2,0,P|270:351|314:333,1,93.7500000000001,10|0,0:0|0:0,0:0:0:0:
299,175,85025,6,0,L|221:168,1,62.4999976158143,8|0,3:0|0:0,0:0:0:0:
145,289,85475,6,0,B|155:215|155:215|115:132|115:132|127:38,1,249.999990463257,12|0,3:0|0:0,0:0:0:0:
219,10,85925,2,0,L|206:116,1,93.7500000000001,10|0,0:0|0:0,0:0:0:0:
27,142,86225,2,0,L|40:36,1,93.7500000000001,12|0,3:0|0:0,0:0:0:0:
287,89,86525,6,0,P|350:126|463:77,1,187.5,8|0,3:0|0:0,0:0:0:0:
369,20,86975,1,8,3:0:0:0:
215,160,87125,2,0,L|222:274,1,93.7500000000001,10|0,0:0|0:0,0:0:0:0:
362,350,87425,6,0,L|367:295,1,31.2499988079071,8|0,3:0|0:0,0:0:0:0:
143,301,87725,5,0,0:0:0:0:
294,282,87875,1,0,0:0:0:0:
366,179,88025,5,8,3:0:0:0:
215,160,88175,1,0,0:0:0:0:
228,377,88325,5,10,0:0:0:0:
297,119,88625,2,0,P|300:101|298:85,1,31.2499988079071,0|0,0:0|0:0,0:0:0:0:
62,126,88925,6,0,P|114:99|218:172,1,187.5,8|0,3:0|0:0,0:0:0:0:
125,204,89375,1,0,0:0:0:0:
112,26,89525,2,0,P|155:27|203:43,1,93.7500000000001,10|0,0:0|0:0,0:0:0:0:
298,219,89825,6,0,L|293:285,1,62.4999976158143,8|0,3:0|0:0,0:0:0:0:
380,149,90275,6,0,L|370:281,1,124.999995231629,12|0,3:0|0:0,0:0:0:0:
230,136,90725,6,0,L|220:268,1,93.7500000000001,8|0,0:0|0:0,0:0:0:0:
311,44,91025,2,0,L|301:176,1,93.7500000000001,8|0,0:3|0:0,0:0:0:0:
207,329,91325,6,0,P|147:297|133:180,1,187.5,8|0,0:3|0:0,0:0:0:0:
261,130,91775,1,8,3:0:0:0:
312,224,91925,2,0,P|273:237|207:220,1,93.7500000000001,10|0,0:0|0:0,0:0:0:0:
175,72,92225,6,0,L|183:17,1,31.2499988079071,8|0,3:0|0:0,0:0:0:0:
392,88,92525,5,0,0:0:0:0:
261,130,92675,1,0,0:0:0:0:
351,186,92825,5,8,3:0:0:0:
175,72,92975,1,0,0:0:0:0:
455,171,93125,5,10,0:0:0:0:
112,32,93425,2,0,P|103:50|103:77,1,31.2499988079071,0|0,0:0|0:0,0:0:0:0:
141,293,93725,5,2,0:0:0:0:
202,149,93875,1,2,0:0:0:0:
47,169,94025,1,2,0:0:0:0:
141,293,94175,1,10,0:0:0:0:
120,123,94325,1,10,0:0:0:0:
273,199,94625,5,2,0:0:0:0:
212,343,94775,1,2,0:0:0:0:
367,323,94925,1,2,0:0:0:0:
273,199,95075,1,10,0:0:0:0:
294,371,95225,1,10,0:0:0:0:
341,133,95525,6,0,P|353:96|326:24,1,93.7500000000001,8|0,0:0|0:0,0:0:0:0:
186,13,95825,2,0,L|149:11,2,23.4375,8|8|0,0:0|0:0|0:0,0:0:0:0:
161,31,95975,2,0,L|124:29,2,23.4375,8|8|0,0:0|0:0|0:0,0:0:0:0:
273,199,96125,5,8,0:0:0:0:
