osu file format v14

[General]
AudioFilename: audio.mp3
AudioLeadIn: 0
PreviewTime: 86385
Countdown: 0
SampleSet: None
StackLeniency: 0.3
Mode: 0
LetterboxInBreaks: 0
WidescreenStoryboard: 0

[Editor]
Bookmarks: 12463,25209,37758,50307,62856,75405,87954,100503,113052,125601,138150,150699,163248,175797,188346,200895,213444,225993
DistanceSpacing: 1
BeatDivisor: 4
GridSize: 32
TimelineZoom: 2.1

[Metadata]
Title:Avtomat
TitleUnicode:Автомат
Artist:GSPD
ArtistUnicode:GSPD
Creator:Vad2009
Version:Russian ElectroPunk
Source:
Tags:gspd retrowave rave russian lyrics
BeatmapID:1857037
BeatmapSetID:888453

[Difficulty]
HPDrainRate:6
CircleSize:3.5
OverallDifficulty:8.5
ApproachRate:9
SliderMultiplier:2
SliderTickRate:1

[Events]
//Background and Video events
0,0,"JessicaJones.jpg",0,0
//Break Periods
2,175599,181466
//Storyboard Layer 0 (Background)
//Storyboard Layer 1 (Fail)
//Storyboard Layer 2 (Pass)
//Storyboard Layer 3 (Foreground)
//Storyboard Sound Samples

[TimingPoints]
106,392.156862745098,4,2,1,30,1,0
106,-142.857142857143,4,2,1,30,0,0
12655,-83.3333333333334,4,2,1,50,0,0
12753,-83.3333333333334,4,2,1,5,0,0
12851,-83.3333333333334,4,2,1,50,0,0
12949,-83.3333333333334,4,2,1,5,0,0
13047,-83.3333333333334,4,2,1,50,0,0
13145,-83.3333333333334,4,2,1,5,0,0
13243,-83.3333333333334,4,2,1,50,0,0
13341,-83.3333333333334,4,2,1,5,0,0
13439,-166.666666666667,4,2,1,50,0,0
14223,-83.3333333333334,4,2,1,50,0,0
14321,-83.3333333333334,4,2,1,5,0,0
14419,-83.3333333333334,4,2,1,50,0,0
14517,-83.3333333333334,4,2,1,5,0,0
14615,-83.3333333333334,4,2,1,50,0,0
14713,-83.3333333333334,4,2,1,5,0,0
14811,-83.3333333333334,4,2,1,50,0,0
14909,-83.3333333333334,4,2,1,5,0,0
15007,-125,4,2,1,50,0,0
15302,-125,4,2,1,5,0,0
15400,-125,4,2,1,50,0,0
15792,-83.3333333333334,4,2,1,50,0,0
15890,-83.3333333333334,4,2,1,5,0,0
15988,-83.3333333333334,4,2,1,50,0,0
16086,-83.3333333333334,4,2,1,5,0,0
16184,-83.3333333333334,4,2,1,50,0,0
16282,-83.3333333333334,4,2,1,5,0,0
16380,-83.3333333333334,4,2,1,50,0,0
16478,-83.3333333333334,4,2,1,5,0,0
16576,-166.666666666667,4,2,1,50,0,0
17360,-83.3333333333334,4,2,1,50,0,0
17458,-83.3333333333334,4,2,1,5,0,0
17556,-83.3333333333334,4,2,1,50,0,0
17654,-83.3333333333334,4,2,1,5,0,0
17752,-83.3333333333334,4,2,1,50,0,0
17850,-83.3333333333334,4,2,1,5,0,0
17948,-83.3333333333334,4,2,1,50,0,0
18046,-83.3333333333334,4,2,1,5,0,0
18144,-250.000000000001,4,2,1,50,0,0
18929,-83.3333333333334,4,2,1,50,0,0
19027,-83.3333333333334,4,2,1,5,0,0
19125,-83.3333333333334,4,2,1,50,0,0
19223,-83.3333333333334,4,2,1,5,0,0
19321,-83.3333333333334,4,2,1,50,0,0
19419,-83.3333333333334,4,2,1,5,0,0
19517,-83.3333333333334,4,2,1,50,0,0
19615,-83.3333333333334,4,2,1,5,0,0
19713,-166.666666666667,4,2,1,50,0,0
20498,-83.3333333333334,4,2,1,50,0,0
20596,-83.3333333333334,4,2,1,5,0,0
20694,-83.3333333333334,4,2,1,50,0,0
20792,-83.3333333333334,4,2,1,5,0,0
20890,-83.3333333333334,4,2,1,50,0,0
20988,-83.3333333333334,4,2,1,5,0,0
21086,-83.3333333333334,4,2,1,50,0,0
21184,-83.3333333333334,4,2,1,5,0,0
21282,-166.666666666667,4,2,1,50,0,0
21380,-166.666666666667,4,2,1,5,0,0
21674,-166.666666666667,4,2,1,50,0,0
21772,-166.666666666667,4,2,1,5,0,0
21870,-166.666666666667,4,2,1,50,0,0
22066,-83.3333333333334,4,2,1,50,0,0
22164,-83.3333333333334,4,2,1,5,0,0
22262,-83.3333333333334,4,2,1,50,0,0
22360,-83.3333333333334,4,2,1,5,0,0
22458,-83.3333333333334,4,2,1,50,0,0
22556,-83.3333333333334,4,2,1,5,0,0
22654,-83.3333333333334,4,2,1,50,0,0
22752,-83.3333333333334,4,2,1,5,0,0
22851,-83.3333333333334,4,2,1,50,0,0
22949,-83.3333333333334,4,2,1,5,0,0
23047,-83.3333333333334,4,2,1,50,0,0
23145,-83.3333333333334,4,2,1,5,0,0
23243,-83.3333333333334,4,2,1,50,0,0
23341,-83.3333333333334,4,2,1,5,0,0
23439,-83.3333333333334,4,2,1,50,0,0
23537,-83.3333333333334,4,2,1,5,0,0
23635,-83.3333333333334,4,2,1,50,0,0
23733,-83.3333333333334,4,2,1,5,0,0
23831,-83.3333333333334,4,2,1,50,0,0
23929,-83.3333333333334,4,2,1,5,0,0
24027,-83.3333333333334,4,2,1,50,0,0
24125,-83.3333333333334,4,2,1,5,0,0
24223,-83.3333333333334,4,2,1,50,0,0
24321,-83.3333333333334,4,2,1,5,0,0
24419,-166.666666666667,4,2,1,50,0,0
24713,-166.666666666667,4,2,1,5,0,0
24811,-38.4615384615385,4,2,1,50,0,0
25204,-83.3333333333333,4,2,1,60,0,0
26380,-125,4,2,1,60,0,0
26772,-83.3333333333333,4,2,1,60,0,0
28341,-125,4,2,1,60,0,0
31478,-83.3333333333333,4,2,1,60,0,0
32655,-125,4,2,1,60,0,0
33047,-83.3333333333333,4,2,1,60,0,0
34615,-125,4,2,1,60,0,0
37753,-66.6666666666667,4,2,1,60,0,0
47164,-100,4,2,1,60,0,0
65596,-50,4,2,1,60,0,0
65988,-100,4,2,1,60,0,0
75400,-166.666666666667,4,2,1,60,0,0
75498,-166.666666666667,4,2,1,5,0,0
75596,-166.666666666667,4,2,1,60,0,0
75694,-166.666666666667,4,2,1,5,0,0
75792,-166.666666666667,4,2,1,60,0,0
75890,-166.666666666667,4,2,1,5,0,0
75988,-100,4,2,1,60,0,0
76282,-100,4,2,1,5,0,0
76380,-100,4,2,1,60,0,0
76674,-100,4,2,1,5,0,0
76772,-100,4,2,1,60,0,0
77066,-100,4,2,1,5,0,0
77164,-100,4,2,1,60,0,0
77458,-100,4,2,1,5,0,0
77556,-100,4,2,1,60,0,0
77850,-100,4,2,1,5,0,0
77949,-66.6666666666667,4,2,1,60,0,0
78047,-66.6666666666667,4,2,1,5,0,0
78145,-66.6666666666667,4,2,1,60,0,0
78243,-66.6666666666667,4,2,1,5,0,0
78537,-166.666666666667,4,2,1,60,0,0
78635,-166.666666666667,4,2,1,5,0,0
78733,-166.666666666667,4,2,1,60,0,0
78831,-166.666666666667,4,2,1,5,0,0
78929,-166.666666666667,4,2,1,60,0,0
79027,-166.666666666667,4,2,1,5,0,0
79125,-100,4,2,1,60,0,0
79419,-100,4,2,1,5,0,0
79517,-100,4,2,1,60,0,0
79811,-100,4,2,1,5,0,0
79909,-100,4,2,1,60,0,0
80203,-100,4,2,1,5,0,0
80301,-100,4,2,1,60,0,0
80595,-100,4,2,1,5,0,0
80693,-100,4,2,1,60,0,0
80987,-100,4,2,1,5,0,0
81086,-66.6666666666667,4,2,1,60,0,0
81184,-66.6666666666667,4,2,1,5,0,0
81282,-66.6666666666667,4,2,1,60,0,0
81380,-66.6666666666667,4,2,1,5,0,0
81674,-166.666666666667,4,2,1,60,0,0
81772,-166.666666666667,4,2,1,5,0,0
81870,-166.666666666667,4,2,1,60,0,0
81968,-166.666666666667,4,2,1,5,0,0
82066,-166.666666666667,4,2,1,60,0,0
82164,-166.666666666667,4,2,1,5,0,0
82262,-100,4,2,1,60,0,0
82556,-100,4,2,1,5,0,0
82654,-100,4,2,1,60,0,0
82948,-100,4,2,1,5,0,0
83046,-100,4,2,1,60,0,0
83340,-100,4,2,1,5,0,0
83438,-100,4,2,1,60,0,0
83732,-100,4,2,1,5,0,0
83830,-100,4,2,1,60,0,0
84124,-100,4,2,1,5,0,0
84223,-66.6666666666667,4,2,1,60,0,0
84321,-66.6666666666667,4,2,1,5,0,0
84419,-66.6666666666667,4,2,1,60,0,0
84517,-66.6666666666667,4,2,1,5,0,0
84811,-166.666666666667,4,2,1,60,0,0
84909,-166.666666666667,4,2,1,5,0,0
85007,-166.666666666667,4,2,1,60,0,0
85105,-166.666666666667,4,2,1,5,0,0
85203,-166.666666666667,4,2,1,60,0,0
85301,-166.666666666667,4,2,1,5,0,0
85399,-100,4,2,1,60,0,0
85693,-100,4,2,1,5,0,0
85791,-100,4,2,1,60,0,0
86085,-100,4,2,1,5,0,0
86184,-100,4,2,1,60,0,0
86282,-100,4,2,1,5,0,0
86380,-100,4,2,1,60,0,0
88831,-100,4,2,1,5,0,0
88929,-100,4,2,1,60,0,0
89223,-100,4,2,1,5,0,0
89321,-100,4,2,1,60,0,0
89615,-100,4,2,1,5,0,0
89713,-100,4,2,1,60,0,0
90007,-100,4,2,1,5,0,0
90105,-100,4,2,1,60,0,0
90400,-100,4,2,1,5,0,0
90498,-66.6666666666667,4,2,1,60,0,0
90596,-66.6666666666667,4,2,1,5,0,0
90694,-66.6666666666667,4,2,1,60,0,0
90792,-66.6666666666667,4,2,1,5,0,0
90890,-66.6666666666667,4,2,1,60,0,0
90988,-66.6666666666667,4,2,1,5,0,0
91086,-100,4,2,1,60,0,0
91968,-100,4,2,1,5,0,0
92066,-100,4,2,1,60,0,0
92360,-100,4,2,1,5,0,0
92458,-100,4,2,1,60,0,0
92753,-100,4,2,1,5,0,0
92851,-100,4,2,1,60,0,0
93145,-100,4,2,1,5,0,0
93243,-100,4,2,1,60,0,0
93537,-100,4,2,1,5,0,0
93635,-66.6666666666667,4,2,1,60,0,0
93733,-66.6666666666667,4,2,1,5,0,0
93831,-66.6666666666667,4,2,1,60,0,0
93929,-66.6666666666667,4,2,1,5,0,0
94027,-66.6666666666667,4,2,1,60,0,0
94125,-66.6666666666667,4,2,1,5,0,0
94223,-100,4,2,1,60,0,0
95105,-100,4,2,1,5,0,0
95203,-100,4,2,1,60,0,0
95497,-100,4,2,1,5,0,0
95595,-100,4,2,1,60,0,0
95890,-100,4,2,1,5,0,0
95988,-100,4,2,1,60,0,0
96282,-100,4,2,1,5,0,0
96380,-100,4,2,1,60,0,0
96674,-100,4,2,1,5,0,0
96772,-66.6666666666667,4,2,1,60,0,0
96870,-66.6666666666667,4,2,1,5,0,0
96968,-66.6666666666667,4,2,1,60,0,0
97066,-66.6666666666667,4,2,1,5,0,0
97164,-66.6666666666667,4,2,1,60,0,0
97262,-66.6666666666667,4,2,1,5,0,0
97360,-100,4,2,1,60,0,0
98243,-100,4,2,1,5,0,0
98341,-100,4,2,1,60,0,0
98635,-100,4,2,1,5,0,0
98733,-100,4,2,1,60,0,0
99028,-100,4,2,1,5,0,0
99126,-100,4,2,1,60,0,0
99420,-100,4,2,1,5,0,0
99518,-100,4,2,1,60,0,0
99812,-100,4,2,1,5,0,0
99909,-66.6666666666667,4,2,1,60,0,0
100008,-66.6666666666667,4,2,1,5,0,0
100106,-66.6666666666667,4,2,1,60,0,0
100204,-66.6666666666667,4,2,1,5,0,0
100302,-66.6666666666667,4,2,1,60,0,0
100400,-66.6666666666667,4,2,1,5,0,0
100498,-100,4,2,1,60,0,0
100596,-100,4,2,1,5,0,0
100694,-100,4,2,1,60,0,0
100792,-100,4,2,1,5,0,0
100890,-100,4,2,1,60,0,0
100988,-100,4,2,1,5,0,0
101086,-100,4,2,1,60,0,0
101184,-100,4,2,1,5,0,0
101282,-100,4,2,1,60,0,0
101380,-100,4,2,1,5,0,0
101478,-100,4,2,1,60,0,0
101576,-100,4,2,1,5,0,0
101674,-166.666666666667,4,2,1,60,0,0
101968,-166.666666666667,4,2,1,5,0,0
102066,-100,4,2,1,60,0,0
102164,-100,4,2,1,5,0,0
102262,-100,4,2,1,60,0,0
102360,-100,4,2,1,5,0,0
102458,-100,4,2,1,60,0,0
102556,-100,4,2,1,5,0,0
102655,-100,4,2,1,60,0,0
102753,-100,4,2,1,5,0,0
102851,-76.9230769230769,4,2,1,60,0,0
103145,-76.9230769230769,4,2,1,5,0,0
103243,-58.8235294117647,4,2,1,60,0,0
103537,-58.8235294117647,4,2,1,5,0,0
103635,-100,4,2,1,60,0,0
103733,-100,4,2,1,5,0,0
103831,-100,4,2,1,60,0,0
103929,-100,4,2,1,5,0,0
104027,-100,4,2,1,60,0,0
104125,-100,4,2,1,5,0,0
104223,-100,4,2,1,60,0,0
104321,-100,4,2,1,5,0,0
104419,-100,4,2,1,60,0,0
104517,-100,4,2,1,5,0,0
104615,-100,4,2,1,60,0,0
104713,-100,4,2,1,5,0,0
104811,-166.666666666667,4,2,1,60,0,0
105105,-166.666666666667,4,2,1,5,0,0
105204,-100,4,2,1,60,0,0
105302,-100,4,2,1,5,0,0
105400,-100,4,2,1,60,0,0
105498,-100,4,2,1,5,0,0
105596,-100,4,2,1,60,0,0
105694,-100,4,2,1,5,0,0
105792,-100,4,2,1,60,0,0
105890,-100,4,2,1,5,0,0
105988,-166.666666666667,4,2,1,60,0,0
106282,-166.666666666667,4,2,1,5,0,0
106380,-166.666666666667,4,2,1,60,0,0
106674,-166.666666666667,4,2,1,5,0,0
106772,-100,4,2,1,60,0,0
106870,-100,4,2,1,5,0,0
106968,-100,4,2,1,60,0,0
107066,-100,4,2,1,5,0,0
107164,-100,4,2,1,60,0,0
107262,-100,4,2,1,5,0,0
107360,-100,4,2,1,60,0,0
107458,-100,4,2,1,5,0,0
107556,-100,4,2,1,60,0,0
107654,-100,4,2,1,5,0,0
107753,-100,4,2,1,60,0,0
107851,-100,4,2,1,5,0,0
107949,-166.666666666667,4,2,1,60,0,0
108243,-166.666666666667,4,2,1,5,0,0
108341,-100,4,2,1,60,0,0
108439,-100,4,2,1,5,0,0
108537,-100,4,2,1,60,0,0
108635,-100,4,2,1,5,0,0
108733,-100,4,2,1,60,0,0
108831,-100,4,2,1,5,0,0
108929,-100,4,2,1,60,0,0
109027,-100,4,2,1,5,0,0
109125,-76.9230769230769,4,2,1,60,0,0
109419,-76.9230769230769,4,2,1,5,0,0
109517,-58.8235294117647,4,2,1,60,0,0
109811,-58.8235294117647,4,2,1,5,0,0
109909,-100,4,2,1,60,0,0
110007,-100,4,2,1,5,0,0
110105,-100,4,2,1,60,0,0
110203,-100,4,2,1,5,0,0
110302,-100,4,2,1,60,0,0
110400,-100,4,2,1,5,0,0
110498,-100,4,2,1,60,0,0
110596,-100,4,2,1,5,0,0
110694,-100,4,2,1,60,0,0
110792,-100,4,2,1,5,0,0
110890,-100,4,2,1,60,0,0
110988,-100,4,2,1,5,0,0
111086,-166.666666666667,4,2,1,60,0,0
111380,-166.666666666667,4,2,1,5,0,0
111478,-100,4,2,1,60,0,0
111576,-100,4,2,1,5,0,0
111674,-100,4,2,1,60,0,0
111772,-100,4,2,1,5,0,0
111870,-100,4,2,1,60,0,0
111968,-100,4,2,1,5,0,0
112066,-100,4,2,1,60,0,0
112164,-100,4,2,1,5,0,0
112262,-166.666666666667,4,2,1,60,0,0
112556,-166.666666666667,4,2,1,5,0,0
112655,-166.666666666667,4,2,1,60,0,0
112949,-166.666666666667,4,2,1,5,0,0
113047,-100,4,2,1,60,0,0
119027,-100,4,2,1,5,0,0
119321,-100,4,2,1,60,0,0
120596,-100,4,2,1,5,0,0
120890,-100,4,2,1,60,0,0
122164,-100,4,2,1,5,0,0
122458,-100,4,2,1,60,0,0
128341,-50,4,2,1,60,0,0
128733,-100,4,2,1,60,0,0
138145,-83.3333333333334,4,2,1,50,0,0
138243,-83.3333333333334,4,2,1,5,0,0
138341,-83.3333333333334,4,2,1,50,0,0
138439,-83.3333333333334,4,2,1,5,0,0
138537,-83.3333333333334,4,2,1,50,0,0
138635,-83.3333333333334,4,2,1,5,0,0
138733,-83.3333333333334,4,2,1,50,0,0
138831,-83.3333333333334,4,2,1,5,0,0
138929,-166.666666666667,4,2,1,50,0,0
139713,-83.3333333333334,4,2,1,50,0,0
139811,-83.3333333333334,4,2,1,5,0,0
139909,-83.3333333333334,4,2,1,50,0,0
140007,-83.3333333333334,4,2,1,5,0,0
140105,-83.3333333333334,4,2,1,50,0,0
140203,-83.3333333333334,4,2,1,5,0,0
140301,-83.3333333333334,4,2,1,50,0,0
140399,-83.3333333333334,4,2,1,5,0,0
140497,-125,4,2,1,50,0,0
140792,-125,4,2,1,5,0,0
140890,-125,4,2,1,50,0,0
141282,-83.3333333333334,4,2,1,50,0,0
141380,-83.3333333333334,4,2,1,5,0,0
141478,-83.3333333333334,4,2,1,50,0,0
141576,-83.3333333333334,4,2,1,5,0,0
141674,-83.3333333333334,4,2,1,50,0,0
141772,-83.3333333333334,4,2,1,5,0,0
141870,-83.3333333333334,4,2,1,50,0,0
141968,-83.3333333333334,4,2,1,5,0,0
142066,-166.666666666667,4,2,1,50,0,0
142850,-83.3333333333334,4,2,1,50,0,0
142948,-83.3333333333334,4,2,1,5,0,0
143046,-83.3333333333334,4,2,1,50,0,0
143144,-83.3333333333334,4,2,1,5,0,0
143242,-83.3333333333334,4,2,1,50,0,0
143340,-83.3333333333334,4,2,1,5,0,0
143438,-83.3333333333334,4,2,1,50,0,0
143536,-83.3333333333334,4,2,1,5,0,0
143634,-250.000000000001,4,2,1,50,0,0
144419,-83.3333333333334,4,2,1,50,0,0
144517,-83.3333333333334,4,2,1,5,0,0
144615,-83.3333333333334,4,2,1,50,0,0
144713,-83.3333333333334,4,2,1,5,0,0
144811,-83.3333333333334,4,2,1,50,0,0
144909,-83.3333333333334,4,2,1,5,0,0
145007,-83.3333333333334,4,2,1,50,0,0
145105,-83.3333333333334,4,2,1,5,0,0
145203,-166.666666666667,4,2,1,50,0,0
145988,-83.3333333333334,4,2,1,50,0,0
146086,-83.3333333333334,4,2,1,5,0,0
146184,-83.3333333333334,4,2,1,50,0,0
146282,-83.3333333333334,4,2,1,5,0,0
146380,-83.3333333333334,4,2,1,50,0,0
146478,-83.3333333333334,4,2,1,5,0,0
146576,-83.3333333333334,4,2,1,50,0,0
146674,-83.3333333333334,4,2,1,5,0,0
146772,-166.666666666667,4,2,1,50,0,0
146870,-166.666666666667,4,2,1,5,0,0
147164,-166.666666666667,4,2,1,50,0,0
147262,-166.666666666667,4,2,1,5,0,0
147360,-166.666666666667,4,2,1,50,0,0
147556,-83.3333333333334,4,2,1,50,0,0
147654,-83.3333333333334,4,2,1,5,0,0
147752,-83.3333333333334,4,2,1,50,0,0
147850,-83.3333333333334,4,2,1,5,0,0
147948,-83.3333333333334,4,2,1,50,0,0
148046,-83.3333333333334,4,2,1,5,0,0
148144,-83.3333333333334,4,2,1,50,0,0
148242,-83.3333333333334,4,2,1,5,0,0
148341,-83.3333333333334,4,2,1,50,0,0
148439,-83.3333333333334,4,2,1,5,0,0
148537,-83.3333333333334,4,2,1,50,0,0
148635,-83.3333333333334,4,2,1,5,0,0
148733,-83.3333333333334,4,2,1,50,0,0
148831,-83.3333333333334,4,2,1,5,0,0
148929,-83.3333333333334,4,2,1,50,0,0
149027,-83.3333333333334,4,2,1,5,0,0
149125,-83.3333333333334,4,2,1,50,0,0
149223,-83.3333333333334,4,2,1,5,0,0
149321,-83.3333333333334,4,2,1,50,0,0
149419,-83.3333333333334,4,2,1,5,0,0
149517,-83.3333333333334,4,2,1,50,0,0
149615,-83.3333333333334,4,2,1,5,0,0
149713,-83.3333333333334,4,2,1,50,0,0
149811,-83.3333333333334,4,2,1,5,0,0
149909,-166.666666666667,4,2,1,50,0,0
150203,-166.666666666667,4,2,1,5,0,0
150302,-83.3333333333333,4,2,1,60,0,0
150694,-83.3333333333333,4,2,1,60,0,0
151870,-125,4,2,1,60,0,0
152262,-83.3333333333333,4,2,1,60,0,0
153831,-125,4,2,1,60,0,0
156968,-83.3333333333333,4,2,1,60,0,0
158145,-125,4,2,1,60,0,0
158537,-83.3333333333333,4,2,1,60,0,0
160105,-125,4,2,1,60,0,0
163243,-66.6666666666667,4,2,1,60,0,0
172655,-500,4,2,1,30,0,0
172981,-500,4,2,1,5,0,0
173047,-500,4,2,1,30,0,0
173373,-500,4,2,1,5,0,0
173439,-500,4,2,1,30,0,0
173766,-500,4,2,1,5,0,0
173831,-500,4,2,1,30,0,0
174158,-500,4,2,1,5,0,0
174223,-500,4,2,1,30,0,0
188341,-125,4,2,1,60,0,0
188439,-125,4,2,1,5,0,0
188537,-125,4,2,1,60,0,0
188635,-125,4,2,1,5,0,0
188733,-125,4,2,1,60,0,0
188831,-125,4,2,1,5,0,0
188929,-83.3333333333333,4,2,1,60,0,0
189223,-83.3333333333333,4,2,1,5,0,0
189321,-83.3333333333333,4,2,1,60,0,0
189615,-83.3333333333333,4,2,1,5,0,0
189713,-83.3333333333333,4,2,1,60,0,0
190007,-83.3333333333333,4,2,1,5,0,0
190105,-83.3333333333333,4,2,1,60,0,0
190399,-83.3333333333333,4,2,1,5,0,0
190497,-83.3333333333333,4,2,1,60,0,0
190791,-83.3333333333333,4,2,1,5,0,0
190890,-58.8235294117647,4,2,1,60,0,0
190988,-58.8235294117647,4,2,1,5,0,0
191086,-58.8235294117647,4,2,1,60,0,0
191184,-58.8235294117647,4,2,1,5,0,0
191282,-58.8235294117647,4,2,1,60,0,0
191380,-58.8235294117647,4,2,1,5,0,0
191478,-125,4,2,1,60,0,0
191576,-125,4,2,1,5,0,0
191674,-125,4,2,1,60,0,0
191772,-125,4,2,1,5,0,0
191870,-125,4,2,1,60,0,0
191968,-125,4,2,1,5,0,0
192066,-83.3333333333333,4,2,1,60,0,0
192360,-83.3333333333333,4,2,1,5,0,0
192458,-83.3333333333333,4,2,1,60,0,0
192752,-83.3333333333333,4,2,1,5,0,0
192850,-83.3333333333333,4,2,1,60,0,0
193144,-83.3333333333333,4,2,1,5,0,0
193242,-83.3333333333333,4,2,1,60,0,0
193536,-83.3333333333333,4,2,1,5,0,0
193634,-83.3333333333333,4,2,1,60,0,0
193928,-83.3333333333333,4,2,1,5,0,0
194027,-58.8235294117647,4,2,1,60,0,0
194125,-58.8235294117647,4,2,1,5,0,0
194223,-58.8235294117647,4,2,1,60,0,0
194321,-58.8235294117647,4,2,1,5,0,0
194419,-58.8235294117647,4,2,1,60,0,0
194517,-58.8235294117647,4,2,1,5,0,0
194615,-125,4,2,1,60,0,0
194713,-125,4,2,1,5,0,0
194811,-125,4,2,1,60,0,0
194909,-125,4,2,1,5,0,0
195007,-125,4,2,1,60,0,0
195105,-125,4,2,1,5,0,0
195203,-83.3333333333333,4,2,1,60,0,0
195497,-83.3333333333333,4,2,1,5,0,0
195595,-83.3333333333333,4,2,1,60,0,0
195889,-83.3333333333333,4,2,1,5,0,0
195987,-83.3333333333333,4,2,1,60,0,0
196281,-83.3333333333333,4,2,1,5,0,0
196379,-83.3333333333333,4,2,1,60,0,0
196673,-83.3333333333333,4,2,1,5,0,0
196771,-83.3333333333333,4,2,1,60,0,0
197065,-83.3333333333333,4,2,1,5,0,0
197164,-58.8235294117647,4,2,1,60,0,0
197262,-58.8235294117647,4,2,1,5,0,0
197360,-58.8235294117647,4,2,1,60,0,0
197458,-58.8235294117647,4,2,1,5,0,0
197556,-58.8235294117647,4,2,1,60,0,0
197654,-58.8235294117647,4,2,1,5,0,0
197753,-125,4,2,1,60,0,0
197851,-125,4,2,1,5,0,0
197949,-125,4,2,1,60,0,0
198047,-125,4,2,1,5,0,0
198145,-125,4,2,1,60,0,0
198243,-125,4,2,1,5,0,0
198341,-83.3333333333333,4,2,1,60,0,0
198635,-83.3333333333333,4,2,1,5,0,0
198733,-83.3333333333333,4,2,1,60,0,0
199027,-83.3333333333333,4,2,1,5,0,0
199125,-83.3333333333333,4,2,1,60,0,0
199419,-83.3333333333333,4,2,1,5,0,0
199517,-83.3333333333333,4,2,1,60,0,0
199811,-83.3333333333333,4,2,1,5,0,0
199909,-83.3333333333333,4,2,1,60,0,0
200203,-83.3333333333333,4,2,1,5,0,0
200302,-58.8235294117647,4,2,1,60,0,0
200400,-58.8235294117647,4,2,1,5,0,0
200498,-58.8235294117647,4,2,1,60,0,0
200596,-58.8235294117647,4,2,1,5,0,0
200694,-58.8235294117647,4,2,1,60,0,0
200792,-58.8235294117647,4,2,1,5,0,0
200890,-71.4285714285714,4,2,1,60,0,0
201772,-71.4285714285714,4,2,1,5,0,0
201870,-71.4285714285714,4,2,1,60,0,0
202164,-71.4285714285714,4,2,1,5,0,0
202262,-71.4285714285714,4,2,1,60,0,0
202556,-71.4285714285714,4,2,1,5,0,0
202655,-71.4285714285714,4,2,1,60,0,0
202949,-71.4285714285714,4,2,1,5,0,0
203047,-71.4285714285714,4,2,1,60,0,0
203341,-71.4285714285714,4,2,1,5,0,0
203439,-62.5,4,2,1,60,0,0
203537,-62.5,4,2,1,5,0,0
203635,-62.5,4,2,1,60,0,0
203733,-62.5,4,2,1,5,0,0
203831,-62.5,4,2,1,60,0,0
203929,-62.5,4,2,1,5,0,0
204027,-71.4285714285714,4,2,1,60,0,0
204909,-71.4285714285714,4,2,1,5,0,0
205007,-71.4285714285714,4,2,1,60,0,0
205301,-71.4285714285714,4,2,1,5,0,0
205399,-71.4285714285714,4,2,1,60,0,0
205693,-71.4285714285714,4,2,1,5,0,0
205792,-71.4285714285714,4,2,1,60,0,0
206086,-71.4285714285714,4,2,1,5,0,0
206184,-71.4285714285714,4,2,1,60,0,0
206478,-71.4285714285714,4,2,1,5,0,0
206576,-62.5,4,2,1,60,0,0
206674,-62.5,4,2,1,5,0,0
206772,-62.5,4,2,1,60,0,0
206870,-62.5,4,2,1,5,0,0
206968,-62.5,4,2,1,60,0,0
207066,-62.5,4,2,1,5,0,0
207164,-71.4285714285714,4,2,1,60,0,0
208046,-71.4285714285714,4,2,1,5,0,0
208144,-71.4285714285714,4,2,1,60,0,0
208438,-71.4285714285714,4,2,1,5,0,0
208536,-71.4285714285714,4,2,1,60,0,0
208830,-71.4285714285714,4,2,1,5,0,0
208929,-71.4285714285714,4,2,1,60,0,0
209223,-71.4285714285714,4,2,1,5,0,0
209321,-71.4285714285714,4,2,1,60,0,0
209615,-71.4285714285714,4,2,1,5,0,0
209713,-62.5,4,2,1,60,0,0
209811,-62.5,4,2,1,5,0,0
209909,-62.5,4,2,1,60,0,0
210007,-62.5,4,2,1,5,0,0
210105,-62.5,4,2,1,60,0,0
210203,-62.5,4,2,1,5,0,0
210302,-71.4285714285714,4,2,1,60,0,0
211184,-71.4285714285714,4,2,1,5,0,0
211282,-71.4285714285714,4,2,1,60,0,0
211576,-71.4285714285714,4,2,1,5,0,0
211674,-71.4285714285714,4,2,1,60,0,0
211968,-71.4285714285714,4,2,1,5,0,0
212067,-71.4285714285714,4,2,1,60,0,0
212361,-71.4285714285714,4,2,1,5,0,0
212459,-71.4285714285714,4,2,1,60,0,0
212753,-71.4285714285714,4,2,1,5,0,0
212851,-62.5,4,2,1,60,0,0
212949,-62.5,4,2,1,5,0,0
213047,-62.5,4,2,1,60,0,0
213145,-62.5,4,2,1,5,0,0
213243,-62.5,4,2,1,60,0,0
213341,-62.5,4,2,1,5,0,0
213439,-100,4,2,1,60,0,0
213537,-100,4,2,1,5,0,0
213635,-100,4,2,1,60,0,0
213733,-100,4,2,1,5,0,0
213831,-100,4,2,1,60,0,0
213929,-100,4,2,1,5,0,0
214028,-100,4,2,1,60,0,0
214126,-100,4,2,1,5,0,0
214223,-100,4,2,1,60,0,0
214321,-100,4,2,1,5,0,0
214419,-100,4,2,1,60,0,0
214517,-100,4,2,1,5,0,0
214615,-166.666666666667,4,2,1,60,0,0
214909,-166.666666666667,4,2,1,5,0,0
215007,-100,4,2,1,60,0,0
215105,-100,4,2,1,5,0,0
215204,-100,4,2,1,60,0,0
215302,-100,4,2,1,5,0,0
215400,-100,4,2,1,60,0,0
215498,-100,4,2,1,5,0,0
215596,-100,4,2,1,60,0,0
215694,-100,4,2,1,5,0,0
215792,-76.923076923077,4,2,1,60,0,0
216086,-76.923076923077,4,2,1,60,0,0
216184,-58.8235294117647,4,2,1,60,0,0
216478,-58.8235294117647,4,2,1,60,0,0
216576,-100,4,2,1,60,0,0
216674,-100,4,2,1,5,0,0
216772,-100,4,2,1,60,0,0
216870,-100,4,2,1,5,0,0
216968,-100,4,2,1,60,0,0
217066,-100,4,2,1,5,0,0
217164,-100,4,2,1,60,0,0
217262,-100,4,2,1,5,0,0
217360,-100,4,2,1,60,0,0
217458,-100,4,2,1,5,0,0
217556,-100,4,2,1,60,0,0
217654,-100,4,2,1,5,0,0
217753,-166.666666666667,4,2,1,60,0,0
218047,-166.666666666667,4,2,1,5,0,0
218145,-100,4,2,1,60,0,0
218243,-100,4,2,1,5,0,0
218341,-100,4,2,1,60,0,0
218439,-100,4,2,1,5,0,0
218537,-100,4,2,1,60,0,0
218635,-100,4,2,1,5,0,0
218733,-100,4,2,1,60,0,0
218831,-100,4,2,1,5,0,0
218929,-166.666666666667,4,2,1,60,0,0
219223,-166.666666666667,4,2,1,5,0,0
219321,-166.666666666667,4,2,1,60,0,0
219615,-166.666666666667,4,2,1,5,0,0
219713,-100,4,2,1,60,0,0
219811,-100,4,2,1,5,0,0
219909,-100,4,2,1,60,0,0
220007,-100,4,2,1,5,0,0
220106,-100,4,2,1,60,0,0
220204,-100,4,2,1,5,0,0
220302,-100,4,2,1,60,0,0
220400,-100,4,2,1,5,0,0
220498,-100,4,2,1,60,0,0
220596,-100,4,2,1,5,0,0
220694,-100,4,2,1,60,0,0
220792,-100,4,2,1,5,0,0
220890,-166.666666666667,4,2,1,60,0,0
221184,-166.666666666667,4,2,1,5,0,0
221282,-100,4,2,1,60,0,0
221380,-100,4,2,1,5,0,0
221478,-100,4,2,1,60,0,0
221576,-100,4,2,1,5,0,0
221674,-100,4,2,1,60,0,0
221772,-100,4,2,1,5,0,0
221870,-100,4,2,1,60,0,0
221968,-100,4,2,1,5,0,0
222066,-76.923076923077,4,2,1,60,0,0
222360,-76.923076923077,4,2,1,60,0,0
222458,-58.8235294117647,4,2,1,60,0,0
222752,-58.8235294117647,4,2,1,60,0,0
222851,-100,4,2,1,60,0,0
222949,-100,4,2,1,5,0,0
223047,-100,4,2,1,60,0,0
223145,-100,4,2,1,5,0,0
223243,-100,4,2,1,60,0,0
223341,-100,4,2,1,5,0,0
223439,-100,4,2,1,60,0,0
223537,-100,4,2,1,5,0,0
223635,-100,4,2,1,60,0,0
223733,-100,4,2,1,5,0,0
223831,-100,4,2,1,60,0,0
223929,-100,4,2,1,5,0,0
224027,-166.666666666667,4,2,1,60,0,0
224321,-166.666666666667,4,2,1,5,0,0
224419,-100,4,2,1,60,0,0
224517,-100,4,2,1,5,0,0
224615,-100,4,2,1,60,0,0
224713,-100,4,2,1,5,0,0
224811,-100,4,2,1,60,0,0
224909,-100,4,2,1,5,0,0
225007,-100,4,2,1,60,0,0
225105,-100,4,2,1,5,0,0
225204,-166.666666666667,4,2,1,60,0,0
225498,-166.666666666667,4,2,1,5,0,0
225596,-166.666666666667,4,2,1,60,0,0
225890,-166.666666666667,4,2,1,5,0,0

[Colours]
Combo1 : 240,0,48
Combo2 : 155,33,228

[HitObjects]
150,139,106,6,0,L|219:144,1,69.9999978637696,0|0,2:2|2:2,2:2:0:0:
231,154,498,2,0,L|161:148,1,69.9999978637696,0|0,2:2|2:2,2:2:0:0:
150,139,890,2,0,L|219:144,1,69.9999978637696,0|0,2:2|2:2,2:2:0:0:
231,154,1282,2,0,L|161:148,1,69.9999978637696,0|0,2:2|2:2,2:2:0:0:
67,250,1674,6,0,P|69:285|93:316,1,69.9999978637696,0|0,2:2|2:2,2:2:0:0:
110,323,2066,2,0,P|108:288|88:260,1,69.9999978637696,0|0,2:2|2:2,2:2:0:0:
67,250,2458,2,0,P|69:285|93:316,1,69.9999978637696,0|0,2:2|2:2,2:2:0:0:
110,323,2850,2,0,P|108:288|88:260,1,69.9999978637696,0|0,2:2|2:2,2:2:0:0:
212,221,3243,6,0,L|232:143,1,69.9999978637696,0|0,2:2|2:2,2:2:0:0:
227,115,3635,2,0,L|208:182,1,69.9999978637696,0|0,2:2|2:2,2:2:0:0:
212,221,4027,2,0,L|232:143,1,69.9999978637696,0|0,2:2|2:2,2:2:0:0:
227,115,4419,2,0,L|208:182,1,69.9999978637696,0|0,2:2|2:2,2:2:0:0:
159,333,4811,6,0,P|193:347|230:344,1,69.9999978637696,0|0,2:2|2:2,2:2:0:0:
243,341,5204,2,0,P|211:327|176:328,1,69.9999978637696,0|0,2:2|2:2,2:2:0:0:
159,333,5596,2,0,P|193:347|230:344,1,69.9999978637696,0|0,2:2|2:2,2:2:0:0:
243,341,5989,2,0,P|211:327|176:328,1,69.9999978637696,0|0,2:2|2:2,2:2:0:0:
72,276,6380,6,0,B|55:265|55:265|73:203,1,69.9999978637696,0|0,2:2|2:2,2:2:0:0:
81,204,6772,2,0,B|98:215|98:215|80:277,1,69.9999978637696,0|0,2:2|2:2,2:2:0:0:
72,276,7164,2,0,B|55:265|55:265|73:203,1,69.9999978637696,0|0,2:2|2:2,2:2:0:0:
81,204,7556,2,0,B|98:215|98:215|80:277,1,69.9999978637696,0|0,2:2|2:2,2:2:0:0:
197,334,7949,6,0,P|233:317|275:311,1,69.9999978637696,0|0,2:2|2:2,2:2:0:0:
296,316,8341,2,0,P|260:333|218:339,1,69.9999978637696,0|0,2:2|2:2,2:2:0:0:
197,334,8733,2,0,P|233:317|275:311,1,69.9999978637696,0|0,2:2|2:2,2:2:0:0:
296,316,9125,2,0,P|260:333|218:339,1,69.9999978637696,0|0,2:2|2:2,2:2:0:0:
88,312,9517,6,0,L|100:228,1,69.9999978637696,0|0,2:2|2:2,2:2:0:0:
120,221,9909,2,0,L|108:305,1,69.9999978637696,0|0,2:2|2:2,2:2:0:0:
88,312,10302,2,0,L|100:228,1,69.9999978637696,0|0,2:2|2:2,2:2:0:0:
120,221,10694,2,0,L|108:305,1,69.9999978637696,0|0,2:2|2:2,2:2:0:0:
227,329,11086,6,0,P|265:341|308:326,1,69.9999978637696,0|0,2:2|2:2,2:2:0:0:
320,321,11478,2,0,P|282:309|239:324,1,69.9999978637696,0|0,2:2|2:2,2:2:0:0:
227,329,11870,2,0,P|265:341|308:326,1,69.9999978637696,0|0,2:2|2:2,2:2:0:0:
320,321,12262,1,0,2:2:0:0:
400,264,12458,2,0,P|406:243|406:219,1,34.9999989318848,0|0,2:2|2:2,2:2:0:0:
403,195,12655,6,0,L|330:198,1,59.9999981689454,0|0,2:2|2:2,2:2:0:0:
317,217,12851,2,0,L|313:144,1,59.9999981689454,0|0,2:2|2:2,2:2:0:0:
294,131,13047,2,0,L|366:127,1,59.9999981689454,0|0,2:2|2:2,2:2:0:0:
380,108,13243,2,0,L|383:180,1,59.9999981689454,0|0,2:2|2:2,2:2:0:0:
403,195,13439,6,0,P|352:196|299:258,1,119.999996337891,0|0,2:2|2:2,2:2:0:0:
276,336,14027,5,0,2:2:0:0:
224,330,14125,1,0,2:2:0:0:
172,324,14223,2,0,P|153:302|147:264,1,59.9999981689454,0|0,2:2|2:2,2:2:0:0:
174,274,14419,2,0,P|167:244|148:222,1,59.9999981689454,0|0,2:2|2:2,2:2:0:0:
140,237,14615,2,0,P|121:215|115:186,1,59.9999981689454,0|0,2:2|2:2,2:2:0:0:
143,188,14811,2,0,P|136:158|117:136,1,59.9999981689454,0|0,2:2|2:2,2:2:0:0:
84,120,15007,2,0,L|214:106,1,120,0|0,2:2|2:2,2:2:0:0:
284,99,15400,1,0,2:2:0:0:
450,129,15596,5,0,2:2:0:0:
445,177,15694,1,0,2:2:0:0:
440,225,15792,2,0,L|365:219,1,59.9999981689454,0|0,2:2|2:2,2:2:0:0:
352,209,15988,2,0,L|346:283,1,59.9999981689454,0|0,2:2|2:2,2:2:0:0:
336,297,16184,2,0,L|410:302,1,59.9999981689454,0|0,2:2|2:2,2:2:0:0:
424,313,16380,2,0,L|429:238,1,59.9999981689454,0|0,2:2|2:2,2:2:0:0:
440,225,16576,2,0,P|396:209|380:129,1,119.999996337891,0|0,2:2|2:2,2:2:0:0:
398,38,17164,5,0,2:2:0:0:
346,32,17262,1,0,2:2:0:0:
294,26,17360,2,0,L|277:95,1,59.9999981689454,0|0,2:2|2:2,2:2:0:0:
244,84,17556,2,0,L|261:153,1,59.9999981689454,0|0,2:2|2:2,2:2:0:0:
294,142,17753,2,0,L|277:211,1,59.9999981689454,0|0,2:2|2:2,2:2:0:0:
244,200,17949,2,0,L|261:269,1,59.9999981689454,0|0,2:2|2:2,2:2:0:0:
294,258,18145,2,0,P|295:301|324:341,1,80,0|0,2:2|2:2,2:2:0:0:
381,196,18733,5,0,2:2:0:0:
367,147,18831,1,0,2:2:0:0:
353,98,18929,2,0,L|286:108,1,59.9999981689454,0|0,2:2|2:2,2:2:0:0:
262,97,19125,2,0,L|272:164,1,59.9999981689454,0|0,2:2|2:2,2:2:0:0:
261,188,19321,2,0,L|328:178,1,59.9999981689454,0|0,2:2|2:2,2:2:0:0:
352,189,19517,2,0,L|342:122,1,59.9999981689454,0|0,2:2|2:2,2:2:0:0:
353,98,19713,2,0,P|305:64|237:76,1,119.999996337891,0|0,2:2|2:2,2:2:0:0:
140,139,20302,5,0,2:2:0:0:
144,189,20400,1,0,2:2:0:0:
148,239,20498,2,0,L|225:225,1,59.9999981689454,0|0,2:2|2:2,2:2:0:0:
233,212,20694,2,0,L|247:289,1,59.9999981689454,0|0,2:2|2:2,2:2:0:0:
260,297,20890,2,0,L|183:311,1,59.9999981689454,0|0,2:2|2:2,2:2:0:0:
175,324,21086,2,0,L|161:247,1,59.9999981689454,0|0,2:2|2:2,2:2:0:0:
148,239,21282,2,0,L|151:191,1,29.9999990844727,0|0,2:2|2:2,2:2:0:0:
229,36,21674,2,0,L|226:84,1,29.9999990844727,0|0,2:2|2:2,2:2:0:0:
224,148,21870,5,0,2:2:0:0:
277,153,21968,1,0,2:2:0:0:
330,158,22066,2,0,L|337:229,1,59.9999981689454,0|0,2:2|2:2,2:2:0:0:
353,249,22262,2,0,L|282:256,1,59.9999981689454,0|0,2:2|2:2,2:2:0:0:
262,272,22458,2,0,L|255:201,1,59.9999981689454,0|0,2:2|2:2,2:2:0:0:
239,181,22655,2,0,L|310:174,1,59.9999981689454,0|0,2:2|2:2,2:2:0:0:
330,158,22851,6,0,P|330:192|339:228,1,59.9999981689454,0|0,2:2|2:2,2:2:0:0:
353,249,23047,2,0,P|319:249|283:258,1,59.9999981689454,0|0,2:2|2:2,2:2:0:0:
262,272,23243,2,0,B|262:238|262:238|253:202,1,59.9999981689454,0|0,2:2|2:2,2:2:0:0:
239,181,23439,2,0,B|272:181|272:181|309:172,1,59.9999981689454,0|0,2:2|2:2,2:2:0:0:
330,158,23635,6,0,B|330:192|330:192|339:228,1,59.9999981689454,0|0,2:2|2:2,2:2:0:0:
353,249,23831,2,0,B|319:249|319:249|283:258,1,59.9999981689454,0|0,2:2|2:2,2:2:0:0:
262,272,24027,2,0,P|262:238|253:202,1,59.9999981689454,0|0,2:2|2:2,2:2:0:0:
239,181,24223,2,0,P|272:181|309:172,1,59.9999981689454,0|0,2:2|2:2,2:2:0:0:
330,158,24419,2,0,P|342:202|397:229,1,89.9999972534181,0|0,2:2|2:2,2:2:0:0:
405,225,24811,6,0,P|425:155|288:73,1,259.999988098145,0|0,2:2|2:2,2:2:0:0:
118,143,25204,6,0,L|95:282,1,119.999996337891,0|0,2:2|2:2,2:2:0:0:
222,127,25596,2,0,L|199:266,1,119.999996337891,8|0,2:2|2:2,2:2:0:0:
326,111,25988,2,0,L|303:250,1,119.999996337891,0|0,2:2|2:2,2:2:0:0:
98,261,26380,2,0,L|111:180,1,80,8|0,2:2|2:2,2:2:0:0:
137,24,26772,5,0,2:2:0:0:
137,24,26968,1,0,2:2:0:0:
210,222,27164,1,8,2:2:0:0:
210,222,27360,1,0,2:2:0:0:
353,67,27556,2,0,P|415:84|418:144,1,119.999996337891,0|0,2:2|2:2,2:2:0:0:
383,327,27949,2,0,B|391:278|391:278|339:230,1,119.999996337891,8|0,2:2|2:2,2:2:0:0:
206,131,28341,6,0,P|171:106|116:100,1,80,0|0,2:2|2:2,2:2:0:0:
135,186,28733,2,0,P|92:193|49:227,1,80,8|0,2:2|2:2,2:2:0:0:
123,275,29125,2,0,P|98:309|92:364,1,80,0|0,2:2|2:2,2:2:0:0:
296,143,29517,2,0,P|288:100|254:57,1,80,8|0,2:2|2:2,2:2:0:0:
84,40,29909,5,0,2:2:0:0:
84,40,30105,1,0,2:2:0:0:
150,224,30302,1,8,2:2:0:0:
150,224,30498,1,0,2:2:0:0:
326,307,30694,2,0,P|363:286|411:287,1,80,0|0,2:2|2:2,2:2:0:0:
420,294,31086,2,0,P|383:315|335:314,1,80,8|0,2:2|2:2,2:2:0:0:
104,280,31478,6,0,B|82:247|82:247|93:166,1,119.999996337891,0|0,2:2|2:2,2:2:0:0:
191,257,31870,2,0,B|169:224|169:224|180:143,1,119.999996337891,8|0,2:2|2:2,2:2:0:0:
278,234,32262,2,0,B|256:201|256:201|267:120,1,119.999996337891,0|0,2:2|2:2,2:2:0:0:
92,167,32655,2,0,B|82:245|82:245,1,80,8|0,2:2|2:2,2:2:0:0:
60,370,33047,5,0,2:2:0:0:
60,370,33243,1,0,2:2:0:0:
196,178,33439,1,8,2:2:0:0:
196,178,33635,1,0,2:2:0:0:
430,199,33831,2,0,P|399:252|338:273,1,119.999996337891,0|0,2:2|2:2,2:2:0:0:
286,34,34223,2,0,B|311:54|311:54|329:140,1,119.999996337891,8|0,2:2|2:2,2:2:0:0:
262,362,34615,6,0,L|176:346,1,80,0|0,2:2|2:2,2:2:0:0:
112,276,35007,2,0,L|197:260,1,80,8|0,2:2|2:2,2:2:0:0:
262,190,35400,2,0,L|176:174,1,80,0|0,2:2|2:2,2:2:0:0:
262,362,35792,2,0,L|347:346,1,80,8|0,2:2|2:2,2:2:0:0:
488,324,36184,5,0,2:2:0:0:
488,324,36380,1,0,2:2:0:0:
262,190,36576,1,8,2:2:0:0:
262,190,36772,1,0,2:2:0:0:
409,96,36968,2,0,L|431:179,1,80,0|0,2:2|2:2,2:2:0:0:
445,184,37360,2,0,L|424:106,1,80,0|0,2:2|2:2,2:2:0:0:
255,36,37753,6,0,P|180:36|123:82,1,150.000005722046,0|0,2:2|2:2,2:2:0:0:
41,267,38145,2,0,L|211:236,1,150.000005722046,8|0,2:2|2:2,2:2:0:0:
463,192,38537,2,0,P|439:121|358:146,1,150.000005722046,0|0,2:2|2:2,2:2:0:0:
216,322,38929,2,0,B|190:351|190:351|188:239,1,150.000005722046,8|0,2:2|2:2,2:2:0:0:
186,58,39321,5,0,2:2:0:0:
297,267,39517,1,0,2:2:0:0:
155,152,39713,1,8,2:2:0:0:
303,168,39909,1,0,2:2:0:0:
418,74,40106,2,0,B|439:124|439:124|426:232,1,150.000005722046,0|0,2:2|2:2,2:2:0:0:
88,346,40498,2,0,P|25:293|36:228,1,150.000005722046,8|0,2:2|2:2,2:2:0:0:
202,33,40890,6,0,L|230:195,1,150.000005722046,0|0,2:2|2:2,2:2:0:0:
258,352,41282,2,0,P|306:293|394:301,1,150.000005722046,8|0,2:2|2:2,2:2:0:0:
480,344,41674,1,0,2:2:0:0:
506,217,41870,1,0,2:2:0:0:
434,108,42066,1,8,2:2:0:0:
306,81,42262,1,0,2:2:0:0:
178,54,42458,6,0,P|196:130|160:207,1,150.000005722046,0|0,2:2|2:2,2:2:0:0:
93,259,42851,2,0,P|75:188|101:119,1,150.000005722046,8|0,2:2|2:2,2:2:0:0:
278,34,43243,2,0,L|439:62,1,150.000005722046,0|0,2:2|2:2,2:2:0:0:
489,165,43635,2,0,L|341:138,1,150.000005722046,8|0,2:2|2:2,2:2:0:0:
26,79,44027,6,0,B|16:120|16:120|64:219,1,150.000005722046,0|0,2:2|2:2,2:2:0:0:
269,364,44419,2,0,P|212:303|227:241,1,150.000005722046,8|0,2:2|2:2,2:2:0:0:
369,39,44811,2,0,L|410:193,1,150.000005722046,0|0,2:2|2:2,2:2:0:0:
144,118,45204,2,0,L|288:156,1,150.000005722046,8|0,2:2|2:2,2:2:0:0:
476,277,45596,5,0,2:2:0:0:
208,341,45792,1,0,2:2:0:0:
367,275,45988,1,8,2:2:0:0:
291,196,46184,1,0,2:2:0:0:
293,86,46380,2,0,P|342:33|418:42,1,150.000005722046,0|0,2:2|2:2,2:2:0:0:
476,277,46772,2,0,B|433:321|433:321|345:334,1,150.000005722046,8|0,2:2|2:2,2:2:0:0:
201,350,47164,6,0,L|190:248,1,100,0|0,2:2|2:2,2:2:0:0:
189,349,47556,2,0,L|178:247,1,100,0|0,2:2|2:2,2:2:0:0:
177,348,47949,2,0,L|166:246,1,100,0|0,2:2|2:2,2:2:0:0:
165,347,48341,2,0,L|154:245,1,100,0|0,2:2|2:2,2:2:0:0:
208,148,48733,6,0,L|218:48,1,100,0|0,2:2|2:2,2:2:0:0:
220,147,49125,2,0,L|230:47,1,100,0|0,2:2|2:2,2:2:0:0:
232,146,49518,2,0,L|242:46,1,100,0|0,2:2|2:2,2:2:0:0:
244,145,49910,2,0,L|254:45,1,100,0|0,2:2|2:2,2:2:0:0:
434,325,50302,5,4,2:2:0:0:
434,325,50694,1,4,2:2:0:0:
434,325,51086,1,4,2:2:0:0:
410,242,51478,1,4,2:2:0:0:
423,187,51674,1,0,2:2:0:0:
449,77,51870,6,0,P|402:49|348:52,1,100,0|0,2:2|2:2,2:2:0:0:
263,96,52262,1,4,2:2:0:0:
164,63,52458,1,0,2:2:0:0:
310,190,52655,1,0,2:2:0:0:
310,190,53047,2,0,L|290:299,1,100,8|0,2:2|2:2,2:2:0:0:
164,63,53439,6,0,L|183:172,1,100,0|0,2:2|2:2,2:2:0:0:
212,330,53831,1,4,2:2:0:0:
128,279,54027,1,0,2:2:0:0:
299,283,54223,1,4,2:2:0:0:
386,236,54419,1,0,2:2:0:0:
248,181,54615,1,4,2:2:0:0:
364,88,54811,1,0,2:2:0:0:
226,35,55007,6,0,L|121:53,1,100,4|0,2:2|2:2,2:2:0:0:
160,139,55400,2,0,L|55:157,1,100,4|0,2:2|2:2,2:2:0:0:
94,243,55792,1,4,2:2:0:0:
483,266,56184,1,8,2:2:0:0:
483,266,56576,6,0,P|440:243|414:189,1,100,0|0,2:2|2:2,2:2:0:0:
502,180,56968,2,0,P|478:136|434:113,1,100,8|0,2:2|2:2,2:2:0:0:
344,140,57360,1,0,2:2:0:0:
16,345,57753,1,4,2:2:0:0:
16,345,58145,6,0,B|45:328|45:328|62:252,1,100,0|0,2:2|2:2,2:2:0:0:
153,212,58537,2,0,B|124:195|124:195|107:119,1,100,8|0,2:2|2:2,2:2:0:0:
88,28,58929,1,0,2:2:0:0:
472,59,59321,1,4,2:2:0:0:
472,59,59713,6,0,P|474:114|442:153,1,100,0|0,2:2|2:2,2:2:0:0:
297,198,60105,1,4,2:2:0:0:
390,229,60302,1,0,2:2:0:0:
214,256,60498,1,4,2:2:0:0:
278,90,60694,1,0,2:2:0:0:
124,272,60890,1,4,2:2:0:0:
162,157,61086,1,0,2:2:0:0:
223,345,61282,5,4,2:2:0:0:
311,299,61478,1,0,2:2:0:0:
130,279,61674,1,4,2:2:0:0:
237,133,61870,1,0,2:2:0:0:
213,357,62066,1,4,2:2:0:0:
129,165,62262,1,0,2:2:0:0:
335,188,62458,1,8,2:2:0:0:
335,188,62851,6,0,P|377:166|403:115,1,100,0|0,2:2|2:2,2:2:0:0:
217,84,63243,2,0,L|319:102,1,100,4|0,2:2|2:2,2:2:0:0:
337,277,63635,2,0,P|295:267|255:225,1,100,0|0,2:2|2:2,2:2:0:0:
473,180,64027,2,0,L|463:293,1,100,4|0,2:2|2:2,2:2:0:0:
335,188,64419,6,0,L|317:90,1,100,0|0,2:2|2:2,2:2:0:0:
217,144,64811,2,0,L|234:46,1,100,4|0,2:2|2:2,2:2:0:0:
104,86,65204,2,0,L|153:0,1,100,0|0,2:2|2:2,2:2:0:0:
435,216,65596,2,0,L|399:15,1,200,4|0,2:2|2:2,2:2:0:0:
217,144,65988,6,0,P|212:192|176:232,1,100,0|0,2:2|2:2,2:2:0:0:
117,57,66380,2,0,L|131:157,1,100,4|0,2:2|2:2,2:2:0:0:
161,315,66772,1,0,2:2:0:0:
161,315,66968,1,0,2:2:0:0:
283,253,67164,1,4,2:2:0:0:
283,253,67360,1,0,2:2:0:0:
455,301,67556,6,0,P|483:259|485:209,1,100,0|0,2:2|2:2,2:2:0:0:
445,63,67949,2,0,P|416:104|414:154,1,100,4|0,2:2|2:2,2:2:0:0:
371,323,68341,2,0,L|261:303,1,100,0|0,2:2|2:2,2:2:0:0:
75,270,68733,1,4,2:2:0:0:
75,270,69125,6,0,B|105:250|105:250|120:187,1,100,0|0,2:2|2:2,2:2:0:0:
147,85,69517,2,0,P|191:110|218:151,1,100,4|0,2:2|2:2,2:2:0:0:
320,126,69909,2,0,P|318:182|293:225,1,100,0|0,2:2|2:2,2:2:0:0:
217,280,70302,2,0,L|112:261,1,100,4|0,2:2|2:2,2:2:0:0:
221,143,70694,6,0,L|325:124,1,100,0|0,2:2|2:2,2:2:0:0:
466,98,71086,1,4,2:2:0:0:
433,192,71282,1,0,2:2:0:0:
251,229,71478,2,0,P|219:191|220:140,1,100,0|0,2:2|2:2,2:2:0:0:
289,27,71870,1,4,2:2:0:0:
289,27,72262,6,0,L|270:129,1,100,0|0,2:2|2:2,2:2:0:0:
214,204,72655,2,0,L|232:306,1,100,4|0,2:2|2:2,2:2:0:0:
288,380,73047,1,0,2:2:0:0:
288,380,73243,1,0,2:2:0:0:
426,321,73439,1,4,2:2:0:0:
426,321,73635,1,0,2:2:0:0:
358,107,73831,5,0,2:2:0:0:
358,107,74223,1,0,2:2:0:0:
297,128,74419,1,0,2:2:0:0:
258,75,74615,1,0,2:2:0:0:
297,22,74811,1,0,2:2:0:0:
358,42,75007,1,0,2:2:0:0:
326,286,75400,6,0,L|320:248,1,29.9999990844727,0|0,2:2|2:2,2:2:0:0:
299,229,75596,2,0,L|269:253,1,29.9999990844727,0|0,2:2|2:2,2:2:0:0:
263,280,75792,2,0,L|298:293,1,29.9999990844727,0|0,2:2|2:2,2:2:0:0:
326,286,75988,6,0,L|302:136,1,150,0|0,2:2|2:2,2:2:0:0:
297,108,76380,2,0,L|179:202,1,150,0|0,2:2|2:2,2:2:0:0:
157,222,76772,2,0,L|297:276,1,150,0|0,2:2|2:2,2:2:0:0:
325,286,77164,2,0,L|301:136,1,150,0|0,2:2|2:2,2:2:0:0:
296,108,77556,2,0,L|178:202,1,150,0|0,2:2|2:2,2:2:0:0:
157,222,77949,6,0,L|175:150,1,75.0000028610231,0|0,2:2|2:2,2:2:0:0:
166,119,78145,2,0,L|148:191,1,75.0000028610231,0|0,2:2|2:2,2:2:0:0:
331,108,78537,6,0,L|366:91,1,29.9999990844727,0|0,2:2|2:2,2:2:0:0:
393,91,78733,2,0,L|389:129,1,29.9999990844727,0|0,2:2|2:2,2:2:0:0:
376,153,78929,2,0,L|344:130,1,29.9999990844727,0|0,2:2|2:2,2:2:0:0:
331,108,79125,6,0,L|468:43,1,150,0|0,2:2|2:2,2:2:0:0:
494,32,79517,2,0,L|480:183,1,150,0|0,2:2|2:2,2:2:0:0:
478,211,79909,2,0,L|353:123,1,150,0|0,2:2|2:2,2:2:0:0:
330,107,80302,2,0,L|467:42,1,150,0|0,2:2|2:2,2:2:0:0:
494,30,80694,2,0,L|480:181,1,150,0|0,2:2|2:2,2:2:0:0:
478,211,81086,6,0,L|417:162,1,75.0000028610231,0|0,2:2|2:2,2:2:0:0:
395,168,81282,2,0,L|455:216,1,75.0000028610231,0|0,2:2|2:2,2:2:0:0:
249,129,81674,6,0,P|230:125|212:117,1,29.9999990844727,0|0,2:2|2:2,2:2:0:0:
186,126,81870,2,0,P|192:144|194:164,1,29.9999990844727,0|0,2:2|2:2,2:2:0:0:
214,182,82066,2,0,P|226:167|242:155,1,29.9999990844727,0|0,2:2|2:2,2:2:0:0:
249,129,82262,6,0,P|181:106|114:62,1,150,0|0,2:2|2:2,2:2:0:0:
92,44,82655,2,0,P|106:114|101:194,1,150,0|0,2:2|2:2,2:2:0:0:
96,222,83047,2,0,P|149:174|221:138,1,150,0|0,2:2|2:2,2:2:0:0:
248,129,83439,2,0,P|179:106|113:62,1,150,0|0,2:2|2:2,2:2:0:0:
91,43,83831,2,0,P|105:113|100:193,1,150,0|0,2:2|2:2,2:2:0:0:
96,222,84223,6,0,P|123:193|157:175,1,75.0000028610231,0|0,2:2|2:2,2:2:0:0:
187,171,84419,2,0,P|160:200|126:218,1,75.0000028610231,0|0,2:2|2:2,2:2:0:0:
310,299,84811,6,0,P|318:286|325:273,1,29.9999990844727,0|0,2:2|2:2,2:2:0:0:
354,253,85007,2,0,P|360:266|368:278,1,29.9999990844727,0|0,2:2|2:2,2:2:0:0:
371,314,85204,2,0,P|356:312|341:313,1,29.9999990844727,0|0,2:2|2:2,2:2:0:0:
310,299,85400,6,0,P|341:234|358:156,1,150,0|0,2:2|2:2,2:2:0:0:
362,129,85792,2,0,P|401:188|461:242,1,150,0|0,2:2|2:2,2:2:0:0:
483,259,86184,2,0,P|459:260|434:268,1,50,0|0,2:2|2:2,2:2:0:0:
321,352,86380,5,0,2:2:0:0:
278,133,86576,1,0,2:2:0:0:
425,350,86772,1,0,2:2:0:0:
210,263,86968,1,0,2:2:0:0:
429,77,87164,1,0,2:2:0:0:
352,211,87360,1,0,2:2:0:0:
77,28,87556,1,0,2:2:0:0:
134,164,87949,5,12,2:2:0:0:
250,104,88145,1,4,2:2:0:0:
243,234,88341,1,8,2:2:0:0:
25,94,88537,6,0,P|54:159|44:236,1,150,4|0,2:2|2:2,2:2:0:0:
52,102,88929,2,0,P|69:171|46:245,1,150,8|0,2:2|2:2,2:2:0:0:
77,114,89321,2,0,P|82:184|46:253,1,150,0|0,2:2|2:2,2:2:0:0:
99,130,89713,2,0,P|91:200|44:262,1,150,8|0,2:2|2:2,2:2:0:0:
117,149,90105,2,0,P|97:217|40:269,1,150,0|0,2:2|2:2,2:2:0:0:
194,88,90498,6,0,L|275:61,1,75.0000028610231,4|0,2:2|2:2,2:2:0:0:
337,119,90694,2,0,L|413:157,1,75.0000028610231,8|0,2:2|2:2,2:2:0:0:
416,242,90890,2,0,L|443:323,1,75.0000028610231,4|0,2:2|2:2,2:2:0:0:
201,349,91086,5,12,2:2:0:0:
294,255,91282,1,4,2:2:0:0:
167,222,91478,1,8,2:2:0:0:
387,161,91674,6,0,B|412:95|412:95|327:112,1,150,0|0,2:2|2:2,2:2:0:0:
385,181,92066,2,0,B|426:123|426:123|339:118,1,150,8|0,2:2|2:2,2:2:0:0:
377,199,92458,2,0,B|431:154|431:154|349:126,1,150,0|0,2:2|2:2,2:2:0:0:
364,214,92851,2,0,B|428:185|428:185|356:136,1,150,8|0,2:2|2:2,2:2:0:0:
347,225,93243,2,0,B|416:213|416:213|359:148,1,150,0|0,2:2|2:2,2:2:0:0:
140,13,93635,6,0,P|127:50|128:97,1,75.0000028610231,4|0,2:2|2:2,2:2:0:0:
160,154,93831,2,0,P|158:191|146:226,1,75.0000028610231,8|0,2:2|2:2,2:2:0:0:
112,295,94027,2,0,P|113:332|125:367,1,75.0000028610231,4|0,2:2|2:2,2:2:0:0:
320,181,94223,5,12,2:2:0:0:
434,98,94419,1,4,2:2:0:0:
448,238,94615,1,8,2:2:0:0:
192,124,94811,6,0,L|40:96,1,150,0|0,2:2|2:2,2:2:0:0:
193,157,95204,2,0,L|48:103,1,150,8|0,2:2|2:2,2:2:0:0:
188,189,95596,2,0,L|54:110,1,150,0|0,2:2|2:2,2:2:0:0:
177,219,95988,2,0,L|59:118,1,150,8|0,2:2|2:2,2:2:0:0:
160,246,96380,2,0,L|61:126,1,150,0|0,2:2|2:2,2:2:0:0:
266,103,96772,6,0,L|352:67,1,75.0000028610231,4|0,2:2|2:2,2:2:0:0:
415,134,96968,2,0,L|346:163,1,75.0000028610231,8|0,2:2|2:2,2:2:0:0:
426,223,97164,2,0,L|512:187,1,75.0000028610231,4|0,2:2|2:2,2:2:0:0:
194,170,97360,5,12,2:2:0:0:
64,236,97556,1,4,2:2:0:0:
71,90,97753,1,8,2:2:0:0:
317,250,97949,6,0,B|357:223|357:223|383:109,1,150,0|0,2:2|2:2,2:2:0:0:
278,237,98341,2,0,B|323:221|323:221|378:117,1,150,8|0,2:2|2:2,2:2:0:0:
243,214,98733,2,0,B|291:210|291:210|370:124,1,150,0|0,2:2|2:2,2:2:0:0:
215,182,99125,2,0,B|262:191|262:191|361:128,1,150,8|0,2:2|2:2,2:2:0:0:
196,143,99517,2,0,B|239:164|239:164|351:129,1,150,0|0,2:2|2:2,2:2:0:0:
154,335,99909,6,0,P|115:322|75:318,1,75.0000028610231,4|0,2:2|2:2,2:2:0:0:
36,250,100105,2,0,P|66:222|90:190,1,75.0000028610231,8|0,2:2|2:2,2:2:0:0:
168,191,100302,2,0,P|176:231|192:267,1,75.0000028610231,4|0,2:2|2:2,2:2:0:0:
378,159,100498,6,0,L|389:104,1,50,4|0,2:2|2:2,2:2:0:0:
293,103,100694,2,0,L|282:48,1,50,0|0,2:2|2:2,2:2:0:0:
378,159,100890,2,0,L|389:104,1,50,8|0,2:2|2:2,2:2:0:0:
293,103,101086,2,0,L|282:48,1,50,0|0,2:2|2:2,2:2:0:0:
378,159,101282,2,0,L|389:104,1,50,4|0,2:2|2:2,2:2:0:0:
293,103,101478,2,0,L|282:48,1,50,0|0,2:2|2:2,2:2:0:0:
198,147,101674,2,0,P|172:182|120:195,1,89.9999972534181,8|0,2:2|2:2,2:2:0:0:
267,304,102066,6,0,L|352:285,1,50,4|0,2:2|2:2,2:2:0:0:
466,276,102262,2,0,L|417:286,1,50,0|0,2:2|2:2,2:2:0:0:
267,304,102458,2,0,L|352:285,1,50,8|0,2:2|2:2,2:2:0:0:
466,276,102654,2,0,L|417:286,1,50,0|0,2:2|2:2,2:2:0:0:
116,321,102851,6,0,B|68:268|68:268|95:142,1,194.999991073609,4|0,2:2|2:2,2:2:0:0:
185,93,103243,2,0,B|155:240|155:240|246:187,1,255.000004863739,8|0,2:2|2:2,2:2:0:0:
418,98,103635,6,0,L|433:149,1,50,4|0,2:2|2:2,2:2:0:0:
366,214,103831,2,0,L|351:265,1,50,0|0,2:2|2:2,2:2:0:0:
418,98,104027,2,0,L|433:149,1,50,8|0,2:2|2:2,2:2:0:0:
366,214,104223,2,0,L|351:265,1,50,0|0,2:2|2:2,2:2:0:0:
418,98,104419,2,0,L|433:149,1,50,4|0,2:2|2:2,2:2:0:0:
366,214,104615,2,0,L|351:265,1,50,0|0,2:2|2:2,2:2:0:0:
272,128,104811,2,0,P|248:86|207:64,1,89.9999972534181,8|0,2:2|2:2,2:2:0:0:
52,204,105204,6,0,P|85:210|109:225,1,50,4|0,2:2|2:2,2:2:0:0:
210,297,105400,2,0,P|177:291|153:276,1,50,0|0,2:2|2:2,2:2:0:0:
52,204,105596,2,0,P|85:210|109:225,1,50,8|0,2:2|2:2,2:2:0:0:
210,297,105792,2,0,P|177:291|153:276,1,50,0|0,2:2|2:2,2:2:0:0:
235,139,105988,6,0,L|247:43,1,89.9999972534181,4|0,2:2|2:2,2:2:0:0:
260,33,106380,2,0,L|248:122,1,89.9999972534181,8|0,2:2|2:2,2:2:0:0:
308,335,106772,6,0,L|362:322,1,50,4|0,2:2|2:2,2:2:0:0:
418,249,106968,2,0,L|466:260,1,50,0|0,2:2|2:2,2:2:0:0:
308,335,107164,2,0,L|362:322,1,50,8|0,2:2|2:2,2:2:0:0:
418,249,107360,2,0,L|466:260,1,50,0|0,2:2|2:2,2:2:0:0:
308,335,107556,2,0,L|362:322,1,50,4|0,2:2|2:2,2:2:0:0:
418,249,107752,2,0,L|466:260,1,50,0|0,2:2|2:2,2:2:0:0:
386,122,107949,2,0,P|347:100|332:51,1,89.9999972534181,8|0,2:2|2:2,2:2:0:0:
53,180,108341,6,0,L|116:172,1,50,4|0,2:2|2:2,2:2:0:0:
248,213,108537,2,0,L|185:205,1,50,0|0,2:2|2:2,2:2:0:0:
53,180,108733,2,0,L|116:172,1,50,8|0,2:2|2:2,2:2:0:0:
248,213,108929,2,0,L|185:205,1,50,0|0,2:2|2:2,2:2:0:0:
301,106,109125,6,0,B|367:113|367:113|395:92|395:92|442:196,1,194.999991073609,4|0,2:2|2:2,2:2:0:0:
351,192,109517,2,0,B|392:280|392:280|333:292|333:292|306:321|306:321|249:333,1,255.000004863739,8|0,2:2|2:2,2:2:0:0:
66,242,109909,6,0,L|52:186,1,50,4|0,2:2|2:2,2:2:0:0:
141,161,110105,2,0,L|153:112,1,50,0|0,2:2|2:2,2:2:0:0:
66,242,110302,2,0,L|52:186,1,50,8|0,2:2|2:2,2:2:0:0:
141,161,110498,2,0,L|153:112,1,50,0|0,2:2|2:2,2:2:0:0:
66,242,110694,2,0,L|52:186,1,50,4|0,2:2|2:2,2:2:0:0:
141,161,110890,2,0,L|153:112,1,50,0|0,2:2|2:2,2:2:0:0:
212,282,111086,2,0,P|247:313|295:323,1,89.9999972534181,8|0,2:2|2:2,2:2:0:0:
416,85,111478,6,0,P|424:113|421:146,1,50,4|0,2:2|2:2,2:2:0:0:
375,252,111674,2,0,P|367:224|370:191,1,50,0|0,2:2|2:2,2:2:0:0:
416,85,111870,2,0,P|424:113|421:146,1,50,8|0,2:2|2:2,2:2:0:0:
375,252,112066,2,0,P|367:224|370:191,1,50,0|0,2:2|2:2,2:2:0:0:
212,282,112262,6,0,L|118:291,1,89.9999972534181,4|0,2:2|2:2,2:2:0:0:
104,304,112655,2,0,L|193:295,1,89.9999972534181,8|0,2:2|2:2,2:2:0:0:
371,277,113047,5,4,2:2:0:0:
371,277,113439,1,4,2:2:0:0:
371,277,113831,1,4,2:2:0:0:
318,202,114223,1,4,2:2:0:0:
331,147,114419,1,0,2:2:0:0:
288,51,114615,6,0,L|188:62,1,100,0|0,2:2|2:2,2:2:0:0:
37,174,115007,2,0,P|90:157|122:119,1,100,0|0,2:2|2:2,2:2:0:0:
197,206,115400,1,0,2:2:0:0:
197,206,115792,2,0,L|205:317,1,100,0|0,2:2|2:2,2:2:0:0:
249,31,116184,6,0,L|241:142,1,100,0|0,2:2|2:2,2:2:0:0:
364,269,116576,1,0,2:2:0:0:
334,174,116772,1,0,2:2:0:0:
282,324,116968,1,0,2:2:0:0:
249,230,117164,1,0,2:2:0:0:
435,198,117360,1,0,2:2:0:0:
361,126,117556,1,0,2:2:0:0:
178,176,117753,6,0,L|160:78,1,100,0|0,2:2|2:2,2:2:0:0:
73,128,118145,2,0,L|55:30,1,100,0|0,2:2|2:2,2:2:0:0:
2,216,118537,1,0,2:2:0:0:
483,110,118929,2,0,L|426:102,1,50,0|0,2:2|2:2,2:2:0:0:
483,110,119321,6,0,L|383:96,1,100,0|0,2:2|2:2,2:2:0:0:
303,148,119713,2,0,L|203:161,1,100,0|0,2:2|2:2,2:2:0:0:
117,129,120105,1,0,2:2:0:0:
486,349,120498,2,0,P|469:333|452:310,1,50,0|0,2:2|2:2,2:2:0:0:
486,349,120890,6,0,P|456:316|433:266,1,100,0|0,2:2|2:2,2:2:0:0:
355,225,121282,2,0,P|356:181|375:129,1,100,0|0,2:2|2:2,2:2:0:0:
434,47,121674,1,0,2:2:0:0:
22,188,122066,2,0,L|55:227,1,50,0|0,2:2|2:2,2:2:0:0:
22,188,122458,6,0,L|86:264,1,100,0|0,2:2|2:2,2:2:0:0:
170,209,122851,2,0,L|196:305,1,100,0|0,2:2|2:2,2:2:0:0:
298,135,123243,1,0,2:2:0:0:
197,114,123439,1,0,2:2:0:0:
395,91,123635,1,0,2:2:0:0:
384,197,123831,1,0,2:2:0:0:
202,9,124027,5,0,2:2:0:0:
292,102,124223,1,0,2:2:0:0:
120,58,124419,1,0,2:2:0:0:
232,174,124615,1,0,2:2:0:0:
38,107,124811,1,0,2:2:0:0:
172,246,125007,1,0,2:2:0:0:
226,61,125204,1,0,2:2:0:0:
226,61,125596,6,0,P|268:92|322:97,1,100,0|0,2:2|2:2,2:2:0:0:
411,71,125988,2,0,L|398:171,1,100,0|0,2:2|2:2,2:2:0:0:
330,243,126380,2,0,L|343:343,1,100,0|0,2:2|2:2,2:2:0:0:
430,292,126772,2,0,P|466:251|466:199,1,100,0|0,2:2|2:2,2:2:0:0:
259,355,127164,6,0,L|246:255,1,100,0|0,2:2|2:2,2:2:0:0:
141,297,127556,2,0,L|162:198,1,100,0|0,2:2|2:2,2:2:0:0:
49,202,127949,2,0,L|103:117,1,100,0|0,2:2|2:2,2:2:0:0:
263,233,128341,2,0,L|231:36,1,200,0|0,2:2|2:2,2:2:0:0:
431,155,128733,6,0,P|449:205|437:248,1,100,0|0,2:2|2:2,2:2:0:0:
374,326,129125,2,0,L|272:339,1,100,0|0,2:2|2:2,2:2:0:0:
126,327,129517,1,0,2:2:0:0:
203,266,129713,1,0,2:2:0:0:
149,130,129909,2,0,L|50:113,1,100,0|0,2:2|2:2,2:2:0:0:
227,78,130302,6,0,P|276:98|304:137,1,100,0|0,2:2|2:2,2:2:0:0:
284,304,130694,1,0,2:2:0:0:
360,231,130890,1,0,2:2:0:0:
149,130,131086,2,0,P|119:166|113:220,1,100,0|0,2:2|2:2,2:2:0:0:
180,343,131478,1,0,2:2:0:0:
180,343,131870,6,0,L|200:244,1,100,0|0,2:2|2:2,2:2:0:0:
230,103,132262,1,0,2:2:0:0:
306,171,132458,1,0,2:2:0:0:
124,115,132655,2,0,P|98:159|100:212,1,100,0|0,2:2|2:2,2:2:0:0:
144,300,133047,2,0,L|244:318,1,100,0|0,2:2|2:2,2:2:0:0:
436,287,133439,6,0,L|336:269,1,100,0|0,2:2|2:2,2:2:0:0:
205,202,133831,1,0,2:2:0:0:
302,176,134027,1,0,2:2:0:0:
177,65,134223,2,0,P|127:85|101:122,1,100,0|0,2:2|2:2,2:2:0:0:
65,279,134615,1,0,2:2:0:0:
65,279,135007,6,0,L|161:308,1,100,0|0,2:2|2:2,2:2:0:0:
248,365,135400,2,0,L|344:336,1,100,0|0,2:2|2:2,2:2:0:0:
459,297,135792,1,0,2:2:0:0:
484,178,135988,1,0,2:2:0:0:
393,97,136184,1,0,2:2:0:0:
277,135,136380,1,0,2:2:0:0:
168,79,136576,1,0,2:2:0:0:
277,135,137949,5,0,2:2:0:0:
271,174,138047,1,0,2:2:0:0:
265,213,138145,2,0,L|208:231,1,59.9999981689454,0|0,2:2|2:2,2:2:0:0:
199,259,138341,2,0,L|145:231,1,59.9999981689454,0|0,2:2|2:2,2:2:0:0:
119,244,138537,2,0,L|101:186,1,59.9999981689454,0|0,2:2|2:2,2:2:0:0:
73,176,138733,2,0,L|100:122,1,59.9999981689454,0|0,2:2|2:2,2:2:0:0:
88,95,138929,2,0,L|203:58,1,119.999996337891,0|0,2:2|2:2,2:2:0:0:
119,244,139517,5,0,2:2:0:0:
113,283,139615,1,0,2:2:0:0:
107,322,139713,2,0,P|138:333|174:335,1,59.9999981689454,0|0,2:2|2:2,2:2:0:0:
247,325,139909,2,0,P|216:314|180:312,1,59.9999981689454,0|0,2:2|2:2,2:2:0:0:
108,340,140106,2,0,P|141:342|177:335,1,59.9999981689454,0|0,2:2|2:2,2:2:0:0:
245,306,140302,2,0,P|212:304|176:311,1,59.9999981689454,0|0,2:2|2:2,2:2:0:0:
108,340,140498,2,0,B|85:350|85:350|101:237,1,120,0|0,2:2|2:2,2:2:0:0:
112,174,140890,1,0,2:2:0:0:
274,226,141086,5,0,2:2:0:0:
321,218,141184,1,0,2:2:0:0:
368,210,141282,2,0,L|385:148,1,59.9999981689454,0|0,2:2|2:2,2:2:0:0:
416,127,141478,2,0,L|370:81,1,59.9999981689454,0|0,2:2|2:2,2:2:0:0:
368,43,141674,2,0,L|305:59,1,59.9999981689454,0|0,2:2|2:2,2:2:0:0:
271,42,141870,2,0,L|254:104,1,59.9999981689454,0|0,2:2|2:2,2:2:0:0:
221,125,142066,2,0,L|307:212,1,119.999996337891,0|0,2:2|2:2,2:2:0:0:
78,314,142655,5,0,2:2:0:0:
86,278,142753,1,0,2:2:0:0:
94,242,142851,2,0,P|108:212|112:176,1,59.9999981689454,0|0,2:2|2:2,2:2:0:0:
120,88,143047,2,0,P|106:118|102:154,1,59.9999981689454,0|0,2:2|2:2,2:2:0:0:
114,242,143243,2,0,P|120:210|114:174,1,59.9999981689454,0|0,2:2|2:2,2:2:0:0:
99,87,143439,2,0,P|93:119|99:155,1,59.9999981689454,0|0,2:2|2:2,2:2:0:0:
134,238,143635,2,0,B|168:244|168:244|198:289,1,80,0|0,2:2|2:2,2:2:0:0:
223,106,144223,5,0,2:2:0:0:
259,98,144321,1,0,2:2:0:0:
295,90,144419,2,0,P|329:92|357:105,1,59.9999981689454,0|0,2:2|2:2,2:2:0:0:
378,91,144615,2,0,P|400:116|410:145,1,59.9999981689454,0|0,2:2|2:2,2:2:0:0:
435,150,144811,2,0,P|432:184|419:212,1,59.9999981689454,0|0,2:2|2:2,2:2:0:0:
433,232,145007,2,0,P|407:254|378:264,1,59.9999981689454,0|0,2:2|2:2,2:2:0:0:
373,288,145204,2,0,P|312:298|277:343,1,119.999996337891,0|0,2:2|2:2,2:2:0:0:
54,177,145792,5,0,2:2:0:0:
91,165,145890,1,0,2:2:0:0:
128,153,145988,2,0,L|191:166,1,59.9999981689454,0|0,2:2|2:2,2:2:0:0:
262,201,146184,2,0,L|203:188,1,59.9999981689454,0|0,2:2|2:2,2:2:0:0:
136,136,146380,2,0,L|193:165,1,59.9999981689454,0|0,2:2|2:2,2:2:0:0:
253,217,146576,2,0,L|199:190,1,59.9999981689454,0|0,2:2|2:2,2:2:0:0:
55,66,146772,2,0,L|40:104,1,29.9999990844727,0|0,2:2|2:2,2:2:0:0:
73,338,147164,2,0,L|88:300,1,29.9999990844727,0|0,2:2|2:2,2:2:0:0:
117,232,147360,5,0,2:2:0:0:
155,239,147458,1,0,2:2:0:0:
193,246,147556,2,0,P|227:245|260:233,1,59.9999981689454,0|0,2:2|2:2,2:2:0:0:
338,203,147753,2,0,P|304:204|271:216,1,59.9999981689454,0|0,2:2|2:2,2:2:0:0:
194,268,147949,2,0,P|226:258|255:238,1,59.9999981689454,0|0,2:2|2:2,2:2:0:0:
335,180,148146,2,0,P|302:189|273:209,1,59.9999981689454,0|0,2:2|2:2,2:2:0:0:
201,290,148341,6,0,P|229:272|252:245,1,59.9999981689454,0|0,2:2|2:2,2:2:0:0:
326,156,148538,2,0,P|297:173|274:200,1,59.9999981689454,0|0,2:2|2:2,2:2:0:0:
215,311,148733,2,0,P|238:286|253:254,1,59.9999981689454,0|0,2:2|2:2,2:2:0:0:
310,133,148929,2,0,P|286:157|271:189,1,59.9999981689454,0|0,2:2|2:2,2:2:0:0:
236,329,149125,6,0,P|252:299|258:264,1,59.9999981689454,0|0,2:2|2:2,2:2:0:0:
287,113,149321,2,0,P|270:142|264:177,1,59.9999981689454,0|0,2:2|2:2,2:2:0:0:
264,342,149517,2,0,P|271:308|268:273,1,59.9999981689454,0|0,2:2|2:2,2:2:0:0:
257,98,149713,2,0,P|249:131|252:166,1,59.9999981689454,0|0,2:2|2:2,2:2:0:0:
264,342,149909,2,0,P|310:347|352:327,1,89.9999972534181,0|0,2:2|2:2,2:2:0:0:
410,273,150302,1,0,2:2:0:0:
47,273,150694,6,0,L|80:147,1,119.999996337891,4|0,2:2|2:2,2:2:0:0:
140,256,151086,2,0,L|173:130,1,119.999996337891,8|0,2:2|2:2,2:2:0:0:
233,239,151478,2,0,L|266:113,1,119.999996337891,0|0,2:2|2:2,2:2:0:0:
78,157,151870,2,0,L|56:236,1,80,8|0,2:2|2:2,2:2:0:0:
200,329,152262,5,0,2:2:0:0:
297,257,152458,1,0,2:2:0:0:
314,137,152655,1,8,2:2:0:0:
241,40,152851,1,0,2:2:0:0:
435,123,153047,2,0,P|457:178|440:240,1,119.999996337891,0|0,2:2|2:2,2:2:0:0:
271,374,153439,2,0,L|297:252,1,119.999996337891,8|0,2:2|2:2,2:2:0:0:
190,49,153831,6,0,P|153:35|107:40,1,80,0|0,2:2|2:2,2:2:0:0:
139,122,154223,2,0,P|108:147|89:189,1,80,8|0,2:2|2:2,2:2:0:0:
176,202,154615,2,0,P|182:241|209:278,1,80,0|0,2:2|2:2,2:2:0:0:
190,49,155007,2,0,P|227:35|273:40,1,80,8|0,2:2|2:2,2:2:0:0:
423,97,155400,5,0,2:2:0:0:
496,239,155596,1,0,2:2:0:0:
353,312,155792,1,8,2:2:0:0:
280,169,155988,1,0,2:2:0:0:
119,160,156184,2,0,L|107:81,1,80,0|0,2:2|2:2,2:2:0:0:
83,62,156576,2,0,L|95:141,1,80,8|0,2:2|2:2,2:2:0:0:
212,344,156968,6,0,B|229:241|229:241|212:260,1,119.999996337891,0|0,2:2|2:2,2:2:0:0:
304,309,157360,2,0,B|321:206|321:206|304:225,1,119.999996337891,8|0,2:2|2:2,2:2:0:0:
396,274,157753,2,0,B|413:171|413:171|396:190,1,119.999996337891,0|0,2:2|2:2,2:2:0:0:
225,265,158145,2,0,L|212:344,1,80,8|0,2:2|2:2,2:2:0:0:
402,182,158537,5,0,2:2:0:0:
213,140,158733,1,0,2:2:0:0:
319,73,158929,1,8,2:2:0:0:
130,115,159125,1,0,2:2:0:0:
402,182,159321,2,0,L|420:306,1,119.999996337891,0|0,2:2|2:2,2:2:0:0:
282,175,159713,2,0,P|282:111|323:70,1,119.999996337891,8|0,2:2|2:2,2:2:0:0:
130,115,160106,6,0,L|43:155,1,80,0|0,2:2|2:2,2:2:0:0:
34,257,160498,2,0,L|106:223,1,80,8|0,2:2|2:2,2:2:0:0:
82,331,160890,2,0,L|10:365,1,80,0|0,2:2|2:2,2:2:0:0:
209,188,161282,2,0,L|281:221,1,80,8|0,2:2|2:2,2:2:0:0:
432,288,161674,5,0,2:2:0:0:
480,138,161870,1,0,2:2:0:0:
366,217,162066,1,8,2:2:0:0:
346,60,162262,1,0,2:2:0:0:
273,236,162458,2,0,P|243:260|198:267,1,80,0|0,2:2|2:2,2:2:0:0:
173,261,162851,2,0,P|203:237|248:230,1,80,0|0,2:2|2:2,2:2:0:0:
436,292,163243,6,0,B|481:310|481:310|451:208,1,150.000005722046,0|0,2:2|2:2,2:2:0:0:
224,30,163635,2,0,P|221:106|281:159,1,150.000005722046,8|0,2:2|2:2,2:2:0:0:
369,349,164027,2,0,L|219:332,1,150.000005722046,0|0,2:2|2:2,2:2:0:0:
78,84,164419,2,0,B|44:119|44:119|64:234,1,150.000005722046,8|0,2:2|2:2,2:2:0:0:
270,155,164811,5,0,2:2:0:0:
83,330,165007,1,0,2:2:0:0:
195,284,165204,1,8,2:2:0:0:
306,330,165400,1,0,2:2:0:0:
417,284,165596,2,0,P|403:215|438:143,1,150.000005722046,0|0,2:2|2:2,2:2:0:0:
281,42,165988,2,0,L|301:196,1,150.000005722046,8|0,2:2|2:2,2:2:0:0:
53,352,166380,6,0,L|72:203,1,150.000005722046,0|0,2:2|2:2,2:2:0:0:
300,190,166772,2,0,P|244:137|167:143,1,150.000005722046,8|0,2:2|2:2,2:2:0:0:
53,352,167164,5,0,2:2:0:0:
264,329,167360,1,0,2:2:0:0:
169,251,167556,1,8,2:2:0:0:
378,283,167752,1,0,2:2:0:0:
86,199,167949,6,0,L|46:41,1,150.000005722046,0|0,2:2|2:2,2:2:0:0:
133,0,168341,2,0,L|169:145,1,150.000005722046,8|0,2:2|2:2,2:2:0:0:
356,190,168733,2,0,P|338:111|383:40,1,150.000005722046,0|0,2:2|2:2,2:2:0:0:
443,127,169125,2,0,P|461:206|416:277,1,150.000005722046,8|0,2:2|2:2,2:2:0:0:
142,329,169517,6,0,B|103:294|103:294|86:199,1,150.000005722046,0|0,2:2|2:2,2:2:0:0:
284,19,169909,2,0,P|293:88|240:143,1,150.000005722046,8|0,2:2|2:2,2:2:0:0:
53,341,170302,2,0,L|210:323,1,150.000005722046,0|0,2:2|2:2,2:2:0:0:
504,274,170694,2,0,L|347:256,1,150.000005722046,8|0,2:2|2:2,2:2:0:0:
79,227,171086,5,0,2:2:0:0:
337,56,171282,1,0,2:2:0:0:
195,112,171478,1,8,2:2:0:0:
240,238,171674,1,0,2:2:0:0:
285,364,171870,2,0,P|361:360|412:305,1,150.000005722046,0|0,2:2|2:2,2:2:0:0:
452,95,172262,2,0,L|473:251,1,150.000005722046,8|0,2:2|2:2,2:2:0:0:
206,314,172655,6,0,P|197:299|183:286,1,33.3333333333333,0|0,2:2|2:2,2:2:0:0:
179,284,173047,2,0,L|185:250,1,33.3333333333333,0|0,2:2|2:2,2:2:0:0:
187,245,173439,2,0,L|214:268,1,33.3333333333333,0|0,2:2|2:2,2:2:0:0:
217,270,173831,2,0,L|223:235,1,33.3333333333333,0|0,2:2|2:2,2:2:0:0:
224,230,174223,2,0,P|245:229|265:223,1,40,0|0,2:2|2:2,2:2:0:0:
263,223,175007,2,0,P|242:224|222:230,1,40,0|0,2:2|2:2,2:2:0:0:
223,229,182066,5,0,2:2:0:0:
223,229,182458,1,0,2:2:0:0:
223,229,182851,1,0,2:2:0:0:
223,229,183243,1,0,2:2:0:0:
223,229,183635,5,0,2:2:0:0:
223,229,184027,1,0,2:2:0:0:
223,229,184419,1,0,2:2:0:0:
223,229,184811,1,0,2:2:0:0:
449,197,185204,5,0,2:2:0:0:
449,197,185596,1,0,2:2:0:0:
449,197,185988,1,0,2:2:0:0:
449,197,186380,1,0,2:2:0:0:
449,197,186772,5,0,2:2:0:0:
449,197,187164,1,0,2:2:0:0:
449,197,187556,1,0,2:2:0:0:
449,197,187949,1,0,2:2:0:0:
300,84,188145,1,0,2:2:0:0:
82,332,188341,6,0,L|125:323,1,40,4|0,2:2|2:2,2:2:0:0:
215,300,188537,2,0,L|185:267,1,40,0|0,2:2|2:2,2:2:0:0:
120,200,188733,2,0,L|106:241,1,40,8|0,2:2|2:2,2:2:0:0:
82,332,188929,6,0,L|258:295,1,179.999994506836,0|0,2:2|2:2,2:2:0:0:
347,273,189321,2,0,L|227:138,1,179.999994506836,8|0,2:2|2:2,2:2:0:0:
163,73,189713,2,0,L|106:243,1,179.999994506836,0|0,2:2|2:2,2:2:0:0:
82,332,190106,2,0,L|258:295,1,179.999994506836,8|0,2:2|2:2,2:2:0:0:
347,273,190498,2,0,L|227:138,1,179.999994506836,0|0,2:2|2:2,2:2:0:0:
163,73,190890,6,0,L|134:158,1,85.0000016212464,4|0,2:2|2:2,2:2:0:0:
83,315,191086,2,0,L|171:296,1,85.0000016212464,8|0,2:2|2:2,2:2:0:0:
332,263,191282,2,0,L|272:195,1,85.0000016212464,4|0,2:2|2:2,2:2:0:0:
60,65,191478,6,0,L|70:114,1,40,4|0,2:2|2:2,2:2:0:0:
89,199,191674,2,0,L|126:165,1,40,0|0,2:2|2:2,2:2:0:0:
190,106,191870,2,0,L|142:90,1,40,8|0,2:2|2:2,2:2:0:0:
60,65,192066,6,0,L|96:243,1,179.999994506836,0|0,2:2|2:2,2:2:0:0:
119,338,192458,2,0,L|255:217,1,179.999994506836,8|0,2:2|2:2,2:2:0:0:
325,150,192851,2,0,L|151:92,1,179.999994506836,0|0,2:2|2:2,2:2:0:0:
60,65,193243,2,0,L|96:243,1,179.999994506836,8|0,2:2|2:2,2:2:0:0:
119,338,193635,2,0,L|255:217,1,179.999994506836,0|0,2:2|2:2,2:2:0:0:
325,150,194027,6,0,L|238:121,1,85.0000016212464,4|0,2:2|2:2,2:2:0:0:
60,65,194223,2,0,L|78:154,1,85.0000016212464,8|0,2:2|2:2,2:2:0:0:
119,338,194419,2,0,L|187:277,1,85.0000016212464,4|0,2:2|2:2,2:2:0:0:
395,88,194615,6,0,P|411:109|426:138,1,40,4|0,2:2|2:2,2:2:0:0:
466,208,194811,2,0,P|439:211|407:209,1,40,0|0,2:2|2:2,2:2:0:0:
326,209,195007,2,0,P|336:184|353:157,1,40,8|0,2:2|2:2,2:2:0:0:
393,85,195204,6,0,P|437:152|476:243,1,179.999994506836,0|0,2:2|2:2,2:2:0:0:
508,338,195596,2,0,P|427:342|329:331,1,179.999994506836,8|0,2:2|2:2,2:2:0:0:
231,311,195988,2,0,P|267:239|326:159,1,179.999994506836,0|0,2:2|2:2,2:2:0:0:
393,85,196380,2,0,P|437:152|476:243,1,179.999994506836,8|0,2:2|2:2,2:2:0:0:
508,338,196772,2,0,P|427:342|329:331,1,179.999994506836,0|0,2:2|2:2,2:2:0:0:
231,311,197164,6,0,P|247:274|274:232,1,85.0000016212464,4|0,2:2|2:2,2:2:0:0:
393,85,197360,2,0,P|416:117|438:161,1,85.0000016212464,8|0,2:2|2:2,2:2:0:0:
508,338,197556,2,0,P|468:342|418:339,1,85.0000016212464,4|0,2:2|2:2,2:2:0:0:
136,330,197753,6,0,P|132:307|125:277,1,40,4|0,2:2|2:2,2:2:0:0:
116,200,197949,2,0,P|137:208|166:217,1,40,0|0,2:2|2:2,2:2:0:0:
237,248,198145,2,0,P|219:262|197:282,1,40,8|0,2:2|2:2,2:2:0:0:
136,330,198341,6,0,P|122:254|94:154,1,179.999994506836,0|0,2:2|2:2,2:2:0:0:
65,52,198733,2,0,P|137:77|237:104,1,179.999994506836,8|0,2:2|2:2,2:2:0:0:
341,129,199125,2,0,P|282:179|209:252,1,179.999994506836,0|0,2:2|2:2,2:2:0:0:
136,330,199517,2,0,P|122:254|94:154,1,179.999994506836,8|0,2:2|2:2,2:2:0:0:
65,52,199909,2,0,P|137:77|237:104,1,179.999994506836,0|0,2:2|2:2,2:2:0:0:
341,129,200302,6,0,P|311:154|275:190,1,85.0000016212464,4|0,2:2|2:2,2:2:0:0:
136,330,200498,2,0,P|129:292|115:242,1,85.0000016212464,8|0,2:2|2:2,2:2:0:0:
65,52,200694,2,0,P|101:64|151:78,1,85.0000016212464,4|0,2:2|2:2,2:2:0:0:
436,150,200890,5,4,2:2:0:0:
254,320,201086,1,0,2:2:0:0:
197,77,201282,1,8,2:2:0:0:
383,335,201478,6,0,P|331:248|226:204,1,209.999993591309,0|0,2:2|2:2,2:2:0:0:
407,286,201870,2,0,P|334:215|221:200,1,209.999993591309,8|0,2:2|2:2,2:2:0:0:
418,232,202262,2,0,P|329:182|216:197,1,209.999993591309,0|0,2:2|2:2,2:2:0:0:
415,177,202655,2,0,P|316:152|211:195,1,209.999993591309,8|0,2:2|2:2,2:2:0:0:
397,124,203047,2,0,P|295:125|205:194,1,209.999993591309,0|0,2:2|2:2,2:2:0:0:
101,331,203439,6,0,P|68:300|54:264,1,80,4|0,2:2|2:2,2:2:0:0:
116,192,203635,2,0,P|114:146|130:111,1,80,8|0,2:2|2:2,2:2:0:0:
224,104,203831,2,0,P|255:71|291:57,1,80,4|0,2:2|2:2,2:2:0:0:
464,333,204027,5,4,2:2:0:0:
366,118,204223,1,0,2:2:0:0:
229,311,204419,1,8,2:2:0:0:
286,57,204615,6,0,L|78:100,1,209.999993591309,0|0,2:2|2:2,2:2:0:0:
285,99,205007,2,0,L|72:105,1,209.999993591309,8|0,2:2|2:2,2:2:0:0:
276,140,205400,2,0,L|65:109,1,209.999993591309,0|0,2:2|2:2,2:2:0:0:
260,178,205792,2,0,L|58:111,1,209.999993591309,8|0,2:2|2:2,2:2:0:0:
238,213,206184,2,0,L|51:112,1,209.999993591309,0|0,2:2|2:2,2:2:0:0:
138,53,206576,6,0,L|208:90,1,80,4|0,2:2|2:2,2:2:0:0:
303,58,206772,2,0,L|325:134,1,80,8|0,2:2|2:2,2:2:0:0:
416,178,206968,2,0,L|378:248,1,80,4|0,2:2|2:2,2:2:0:0:
66,346,207164,5,4,2:2:0:0:
289,249,207360,1,0,2:2:0:0:
94,105,207556,1,8,2:2:0:0:
379,213,207753,6,0,B|401:149|401:149|339:121|339:121|298:51,1,209.999993591309,0|0,2:2|2:2,2:2:0:0:
360,229,208145,2,0,B|392:169|392:169|336:131|336:131|308:55,1,209.999993591309,8|0,2:2|2:2,2:2:0:0:
338,241,208537,2,0,B|380:188|380:188|331:140|331:140|317:61,1,209.999993591309,0|0,2:2|2:2,2:2:0:0:
314,248,208929,2,0,B|365:203|365:203|325:148|325:148|324:67,1,209.999993591309,8|0,2:2|2:2,2:2:0:0:
289,250,209321,2,0,B|346:215|346:215|317:153|317:153|331:73,1,209.999993591309,0|0,2:2|2:2,2:2:0:0:
228,35,209713,6,0,P|193:61|168:102,1,80,4|0,2:2|2:2,2:2:0:0:
61,296,209909,2,0,P|96:270|121:229,1,80,8|0,2:2|2:2,2:2:0:0:
216,28,210106,2,0,P|183:57|162:100,1,80,4|0,2:2|2:2,2:2:0:0:
165,349,210302,5,4,2:2:0:0:
245,136,210498,1,0,2:2:0:0:
389,311,210694,1,8,2:2:0:0:
158,198,210890,6,0,B|106:141|106:141|141:4,1,209.999993591309,0|0,2:2|2:2,2:2:0:0:
129,210,211282,2,0,B|87:144|87:144|145:15,1,209.999993591309,8|0,2:2|2:2,2:2:0:0:
98,216,211674,2,0,B|68:144|68:144|148:27,1,209.999993591309,0|0,2:2|2:2,2:2:0:0:
66,216,212066,2,0,B|49:140|49:140|148:39,1,209.999993591309,8|0,2:2|2:2,2:2:0:0:
34,210,212458,2,0,B|30:132|30:132|145:50,1,209.999993591309,0|0,2:2|2:2,2:2:0:0:
276,31,212851,6,0,P|314:53|340:92,1,80,4|0,2:2|2:2,2:2:0:0:
421,113,213047,2,0,P|420:156|400:198,1,80,8|0,2:2|2:2,2:2:0:0:
422,279,213243,2,0,P|383:300|337:303,1,80,4|0,2:2|2:2,2:2:0:0:
118,328,213439,6,0,L|171:307,1,50,4|0,2:2|2:2,2:2:0:0:
281,243,213635,2,0,L|228:264,1,50,0|0,2:2|2:2,2:2:0:0:
100,307,213831,2,0,L|156:300,1,50,4|0,2:2|2:2,2:2:0:0:
298,263,214027,2,0,L|241:269,1,50,0|0,2:2|2:2,2:2:0:0:
86,279,214223,2,0,L|142:287,1,50,4|0,2:2|2:2,2:2:0:0:
310,289,214419,2,0,L|253:280,1,50,0|0,2:2|2:2,2:2:0:0:
41,211,214615,2,0,P|79:182|81:129,1,89.9999972534181,8|0,2:2|2:2,2:2:0:0:
212,36,215007,6,0,L|204:88,1,50,4|0,2:2|2:2,2:2:0:0:
222,217,215204,2,0,L|230:165,1,50,0|0,2:2|2:2,2:2:0:0:
229,17,215400,2,0,L|212:66,1,50,4|0,2:2|2:2,2:2:0:0:
203,234,215597,2,0,L|219:184,1,50,0|0,2:2|2:2,2:2:0:0:
316,8,215792,6,0,B|292:76|292:76|354:38|425:56,1,194.999991073609,4|0,2:2|2:2,2:2:0:0:
428,146,216184,2,0,P|336:141|374:265,1,255.000004863739,8|0,2:2|2:2,2:2:0:0:
449,323,216576,6,0,P|430:344|402:359,1,50,4|0,2:2|2:2,2:2:0:0:
284,372,216772,2,0,P|300:353|321:339,1,50,0|0,2:2|2:2,2:2:0:0:
460,336,216968,2,0,P|437:353|407:363,1,50,4|0,2:2|2:2,2:2:0:0:
271,358,217164,2,0,P|290:342|313:332,1,50,0|0,2:2|2:2,2:2:0:0:
469,352,217360,2,0,P|443:365|412:369,1,50,4|0,2:2|2:2,2:2:0:0:
260,340,217556,2,0,P|281:327|306:322,1,50,0|0,2:2|2:2,2:2:0:0:
499,264,217753,2,0,L|513:174,1,89.9999972534181,8|0,2:2|2:2,2:2:0:0:
415,65,218145,6,0,P|389:78|367:100,1,50,4|0,2:2|2:2,2:2:0:0:
323,208,218341,2,0,P|345:197|364:181,1,50,0|0,2:2|2:2,2:2:0:0:
399,38,218537,2,0,P|377:57|361:84,1,50,4|0,2:2|2:2,2:2:0:0:
337,233,218733,2,0,P|356:216|370:196,1,50,0|0,2:2|2:2,2:2:0:0:
229,89,218929,6,0,L|127:99,1,89.9999972534181,4|0,2:2|2:2,2:2:0:0:
108,114,219321,2,0,L|210:104,1,89.9999972534181,8|0,2:2|2:2,2:2:0:0:
363,97,219713,6,0,L|358:148,1,50,4|0,2:2|2:2,2:2:0:0:
320,276,219909,2,0,L|324:226,1,50,0|0,2:2|2:2,2:2:0:0:
389,96,220106,2,0,L|370:143,1,50,4|0,2:2|2:2,2:2:0:0:
292,275,220302,2,0,L|309:228,1,50,0|0,2:2|2:2,2:2:0:0:
417,103,220498,2,0,L|387:144,1,50,4|0,2:2|2:2,2:2:0:0:
263,266,220694,2,0,L|292:225,1,50,0|0,2:2|2:2,2:2:0:0:
316,60,220890,2,0,P|282:31|228:28,1,89.9999972534181,8|0,2:2|2:2,2:2:0:0:
82,52,221282,6,0,L|107:108,1,50,4|0,2:2|2:2,2:2:0:0:
198,204,221478,2,0,L|173:148,1,50,0|0,2:2|2:2,2:2:0:0:
55,50,221674,2,0,L|96:111,1,50,4|0,2:2|2:2,2:2:0:0:
224,205,221870,2,0,L|183:144,1,50,0|0,2:2|2:2,2:2:0:0:
0,111,222066,6,0,B|37:164|37:164|18:250|18:250|62:232,1,194.999991073609,4|0,2:2|2:2,2:2:0:0:
115,294,222458,2,0,B|37:327|37:327|128:323|128:323|214:354,1,255.000004863739,8|0,2:2|2:2,2:2:0:0:
342,322,222851,6,0,P|359:299|371:271,1,50,4|0,2:2|2:2,2:2:0:0:
376,154,223047,2,0,P|360:173|349:196,1,50,0|0,2:2|2:2,2:2:0:0:
355,331,223243,2,0,P|367:305|374:275,1,50,4|0,2:2|2:2,2:2:0:0:
361,143,223439,2,0,P|349:165|342:189,1,50,0|0,2:2|2:2,2:2:0:0:
372,339,223635,2,0,P|380:311|381:281,1,50,4|0,2:2|2:2,2:2:0:0:
342,133,223831,2,0,P|334:156|331:181,1,50,0|0,2:2|2:2,2:2:0:0:
285,378,224027,2,0,L|194:365,1,89.9999972534181,8|0,2:2|2:2,2:2:0:0:
48,286,224419,6,0,P|67:270|89:258,1,50,4|0,2:2|2:2,2:2:0:0:
227,227,224615,2,0,P|207:242|185:254,1,50,0|0,2:2|2:2,2:2:0:0:
24,262,224811,2,0,P|46:251|71:246,1,50,4|0,2:2|2:2,2:2:0:0:
249,250,225007,2,0,P|226:260|201:265,1,50,0|0,2:2|2:2,2:2:0:0:
122,153,225204,6,0,L|134:60,1,89.9999972534181,4|0,2:2|2:2,2:2:0:0:
153,36,225596,2,0,L|141:125,1,89.9999972534181,8|0,2:2|2:2,2:2:0:0:
