osu file format v14

[General]
AudioFilename: GReeeeN - Shinobi.mp3
AudioLeadIn: 0
PreviewTime: 131530
Countdown: 0
SampleSet: Soft
StackLeniency: 0.7
Mode: 2
LetterboxInBreaks: 0
WidescreenStoryboard: 0

[Editor]
DistanceSpacing: 1.9
BeatDivisor: 4
GridSize: 16
TimelineZoom: 1.4

[Metadata]
Title:Shinobi
TitleUnicode:忍
Artist:GReeeeN
ArtistUnicode:GReeeeN
Creator:_Asriel
Version:Salad
Source:Teenage Mutant Ninja Turtles
Tags:Kirigaya- 224 224dj Frobe Brobe TMNT Teenage Mutant Ninja Turtles 2012 Nickelodeon
BeatmapID:743955
BeatmapSetID:335338

[Difficulty]
HPDrainRate:4
CircleSize:3.5
OverallDifficulty:7
ApproachRate:7
SliderMultiplier:1.6
SliderTickRate:2

[Events]
//Background and Video events
0,0,"BG.png",0,0
//Break Periods
2,98158,105555
2,109587,119558
//Storyboard Layer 0 (Background)
//Storyboard Layer 1 (Fail)
//Storyboard Layer 2 (Pass)
//Storyboard Layer 3 (Foreground)
//Storyboard Sound Samples

[TimingPoints]
816,357.142857142857,4,2,0,100,1,0
1530,-100,4,2,0,70,0,0
7958,-100,4,2,0,80,0,0
10815,-100,4,3,0,80,0,0
13673,-100,4,2,0,70,0,0
19387,-100,4,2,0,75,0,0
21530,-100,4,2,0,55,0,0
22244,-100,4,2,0,75,0,0
25101,-95.2380952380952,4,2,0,80,0,0
29387,-95.2380952380952,4,2,0,100,0,0
30815,-95.2380952380952,4,2,0,80,0,0
35101,-95.2380952380952,4,2,0,60,0,0
35815,-95.2380952380952,4,2,0,50,0,0
36530,-95.2380952380952,4,1,0,70,0,0
37601,-95.2380952380952,4,2,0,70,0,0
37958,-95.2380952380952,4,1,0,80,0,0
39030,-95.2380952380952,4,2,0,70,0,0
39387,-95.2380952380952,4,1,0,80,0,0
40101,-95.2380952380952,4,2,0,70,0,0
42244,-95.2380952380952,4,3,0,80,0,0
47601,-113.636363636364,4,2,0,80,0,0
47958,-131.578947368421,4,2,0,65,0,0
52958,-116.279069767442,4,2,0,75,0,0
53673,-104.166666666667,4,2,0,85,0,0
58673,-92.5925925925926,4,2,0,95,0,0
59387,-83.3333333333333,4,2,0,100,0,1
70101,-100,4,2,0,90,0,0
70815,-83.3333333333333,4,2,0,100,0,1
82244,-83.3333333333333,4,3,0,100,0,0
87958,-87.719298245614,4,2,0,100,0,0
96887,-119.047619047619,4,2,0,30,0,0
108315,-156.25,4,2,0,30,0,0
120458,-106.382978723404,4,2,0,75,0,0
129387,-106.382978723404,4,3,0,75,0,0
131530,357.142857142857,4,2,0,75,1,0
131530,-100,4,2,0,75,0,0
132244,-83.3333333333333,4,2,0,75,0,1
137244,-83.3333333333333,4,2,0,100,0,1
142244,-100,4,2,0,100,0,0
142958,-83.3333333333333,4,2,0,100,0,1
153672,-100,4,2,0,85,0,0
154386,-125,4,2,0,40,0,0
157244,-125,4,2,0,30,0,0
160101,-125,4,2,0,20,0,0
164386,-125,4,2,0,10,0,0
165458,-125,4,2,0,5,0,0

[Colours]
Combo1 : 81,81,255
Combo2 : 0,128,255
Combo3 : 0,128,192
Combo4 : 128,128,255

[HitObjects]
256,192,1530,5,4,0:0:0:0:
416,192,1887,2,0,P|432:128|432:96,1,80
352,48,2244,6,0,L|176:48,1,160,4|0,0:0|0:0,0:0:0:0:
96,96,2780,1,0,0:0:0:0:
16,160,2958,2,0,P|48:256|128:288,1,160,4|0,0:0|0:0,0:0:0:0:
288,288,3673,2,0,L|384:288,2,80,4|0|0,0:0|0:0|0:0,0:0:0:0:
192,288,4208,1,0,0:0:0:0:
320,192,4387,6,0,P|313:275|238:299,1,160,4|0,0:0|0:0,0:0:0:0:
112,176,4923,1,0,0:0:0:0:
224,160,5101,6,0,P|304:144|416:112,1,160,4|0,0:0|0:0,0:0:0:0:
192,48,5815,2,0,P|112:64|0:96,1,160,4|0,0:0|0:0,0:0:0:0:
208,176,6530,2,0,L|304:176,1,80,4|0,0:0|0:0,0:0:0:0:
400,176,6887,1,0,0:0:0:0:
240,96,7244,2,0,P|128:128|80:160,1,160,4|0,0:0|0:0,0:0:0:0:
272,208,7958,6,0,L|384:240,1,80,4|0,0:0|0:0,0:0:0:0:
432,272,8315,2,0,L|352:304,1,80,2|0,0:0|0:0,0:0:0:0:
272,320,8673,2,0,P|192:320|112:240,1,160,4|0,0:0|0:0,0:0:0:0:
64,192,9208,1,2,0:0:0:0:
144,128,9387,6,0,L|192:64,1,80,4|0,0:0|0:0,0:0:0:0:
336,80,9744,2,0,L|288:144,1,80,4|0,0:0|0:0,0:0:0:0:
176,208,10101,2,0,P|224:288|304:320,1,160,4|0,0:0|0:0,0:0:0:0:
464,320,10815,6,0,L|464:128,1,160,4|0,0:0|0:0,0:0:0:0:
240,144,11530,2,0,L|240:336,1,160,4|0,0:0|0:0,0:0:0:0:
432,320,12244,1,4,0:0:0:0:
144,240,12601,1,0,0:0:0:0:
336,112,12958,2,0,P|416:112|448:192,1,160,4|0,0:0|0:0,0:0:0:0:
384,256,13494,1,2,0:0:0:0:
208,320,13673,6,0,L|48:320,1,160,4|0,0:0|0:0,0:0:0:0:
176,192,14387,2,0,L|352:192,1,160,4|0,0:0|0:0,0:0:0:0:
432,128,14923,1,4,0:0:0:0:
352,64,15101,6,0,L|256:64,3,80
176,64,15815,2,0,P|112:96|64:208,1,160,4|0,0:0|0:0,0:0:0:0:
144,208,16351,1,0,0:0:0:0:
240,224,16530,6,0,P|320:192|368:112,1,160,4|0,0:0|0:0,0:0:0:0:
208,112,17244,2,0,P|128:144|80:224,1,160,4|0,0:0|0:0,0:0:0:0:
160,272,17780,1,4,0:0:0:0:
256,320,17958,5,0,0:0:0:0:
352,304,18137,2,0,L|416:240,2,80
256,336,18673,2,0,P|160:320|160:256,1,160,4|0,0:0|0:0,0:0:0:0:
416,272,19387,6,0,P|448:208|416:112,1,160,4|0,0:0|0:0,0:0:0:0:
240,80,20101,2,0,P|160:112|176:208,1,160,4|0,0:0|0:0,0:0:0:0:
256,208,20637,5,0,0:0:0:0:
352,240,20815,2,0,P|384:288|384:320,2,80,0|4|0,0:0|0:0|0:0,0:0:0:0:
256,208,21351,1,0,0:0:0:0:
160,192,21530,2,0,P|128:112|192:48,1,160,4|0,0:0|0:0,0:0:0:0:
368,48,22244,6,0,P|416:128|400:208,1,160,4|0,0:0|0:0,0:0:0:0:
256,272,22958,2,0,P|160:272|80:224,1,160,4|0,0:0|0:0,0:0:0:0:
192,192,23494,1,0,0:0:0:0:
288,160,23673,6,0,L|352:112,1,80,0|4,0:0|0:0,0:0:0:0:
432,64,24030,2,0,L|352:16,1,80
256,16,24387,1,2,0:0:0:0:
64,32,24744,1,2,0:0:0:0:
288,80,25101,6,0,P|336:112|336:224,1,167.999994873047,2|0,0:0|0:0,0:0:0:0:
128,240,25815,2,0,P|96:320|176:368,1,167.999994873047,2|0,0:0|0:0,0:0:0:0:
304,336,26530,6,0,L|416:320,1,83.9999974365235,2|0,0:0|0:0,0:0:0:0:
480,272,26887,2,0,L|384:256,1,83.9999974365235
288,240,27244,1,2,0:0:0:0:
96,208,27601,1,0,0:0:0:0:
240,144,27958,6,0,L|432:112,2,167.999994873047,2|0|0,0:0|0:0|0:0,0:0:0:0:
48,96,29030,1,0,0:0:0:0:
224,96,29387,6,0,P|304:112|352:192,1,167.999994873047,2|0,0:0|0:0,0:0:0:0:
160,288,30101,1,2,0:0:0:0:
368,352,30458,1,2,0:0:0:0:
464,272,30815,6,0,P|432:192|352:160,1,167.999994873047,2|0,0:0|0:0,0:0:0:0:
112,192,31530,2,0,P|144:272|224:304,1,167.999994873047,2|0,0:0|0:0,0:0:0:0:
400,288,32244,6,0,L|432:208,3,83.9999974365235,2|0|0|0,0:0|0:0|0:0|0:0,0:0:0:0:
368,112,32958,2,0,P|320:80|192:96,1,167.999994873047,2|0,0:0|0:0,0:0:0:0:
128,128,33494,1,0,0:0:0:0:
64,192,33673,6,0,P|80:272|176:304,1,167.999994873047,2|0,0:0|0:0,0:0:0:0:
359,307,34387,2,0,P|432:271|448:192,1,167.999994873047,2|0,0:0|0:0,0:0:0:0:
320,112,35101,2,0,L|192:160,1,111.999996582031,2|0,0:0|0:0,0:0:0:0:
160,176,35458,2,0,L|96:256,1,83.9999974365235
160,336,35815,1,2,0:0:0:0:
272,288,36173,2,0,L|304:192,1,83.9999974365235
448,48,36530,6,0,P|480:128|432:208,1,167.999994873047,2|0,0:0|0:0,0:0:0:0:
240,208,37244,2,0,L|240:304,1,83.9999974365235,2|0,0:0|0:0,0:0:0:0:
400,304,37780,1,0,0:0:0:0:
432,288,37869,1,0,0:0:0:0:
448,256,37958,6,0,P|384:160|304:144,1,167.999994873047,2|0,0:0|0:0,0:0:0:0:
128,80,38673,2,0,L|112:176,1,83.9999974365235,2|0,0:0|0:0,0:0:0:0:
208,176,39208,1,0,0:0:0:0:
224,208,39298,1,0,0:0:0:0:
256,240,39387,6,0,P|320:304|416:336,1,167.999994873047,2|0,0:0|0:0,0:0:0:0:
160,320,40101,2,0,P|112:288|48:176,1,167.999994873047,2|0,0:0|0:0,0:0:0:0:
208,144,40815,6,0,L|288:112,1,83.9999974365235,8|0,0:0|0:0,0:0:0:0:
368,80,41173,2,8,L|464:32,1,83.9999974365235,8|0,0:0|0:0,0:0:0:0:
320,0,41530,1,8,0:0:0:0:
176,16,41887,2,0,L|96:80,1,83.9999974365235
16,128,42244,6,0,P|32:208|64:256,2,125.999996154785,4|0|0,0:0|0:0|0:0,0:0:0:0:
128,112,42958,2,0,P|176:112|288:176,1,167.999994873047,4|0,0:0|0:0,0:0:0:0:
384,208,43494,1,0,0:0:0:0:
480,256,43673,6,0,L|453:335,1,83.9999974365235,4|0,0:0|0:0,0:0:0:0:
336,336,44030,2,0,L|304:240,1,83.9999974365235
224,208,44387,1,4,0:0:0:0:
64,96,44744,6,0,P|112:48|144:32,1,83.9999974365235
272,32,45101,2,0,P|256:112|192:128,1,125.999996154785
80,160,45637,1,0,0:0:0:0:
192,192,45815,2,0,L|288:224,3,83.9999974365235
416,288,46530,6,0,P|272:288|80:240,1,335.999989746094
224,80,47601,1,0,0:0:0:0:
368,64,47958,6,0,P|416:96|304:304,1,364.799995546875,2|0,0:0|0:0,0:0:0:0:
144,320,49387,6,0,P|96:288|208:80,1,364.799995546875,2|0,0:0|0:0,0:0:0:0:
352,48,50815,6,0,P|416:112|416:128,1,91.1999988867188,2|0,0:0|0:0,0:0:0:0:
320,176,51351,1,0,0:0:0:0:
208,176,51530,6,0,P|144:240|144:256,1,91.1999988867188,2|0,0:0|0:0,0:0:0:0:
224,304,52066,1,0,0:0:0:0:
336,304,52244,6,0,P|432:272|448:240,1,121.599998515625,2|0,0:0|0:0,0:0:0:0:
320,208,52958,2,0,L|224:176,1,68.8000010498047,2|0,0:0|0:0,0:0:0:0:
176,160,53315,2,0,L|96:128,1,68.8000010498047,2|0,0:0|0:0,0:0:0:0:
32,80,53673,6,0,P|80:48|192:48,1,153.60000375,2|0,0:0|0:0,0:0:0:0:
352,64,54387,2,0,P|384:112|384:224,1,153.60000375,2|0,0:0|0:0,0:0:0:0:
208,320,55101,2,0,L|128:320|144:320,1,76.800001875,2|0,0:0|0:0,0:0:0:0:
48,288,55458,2,0,L|96:208,1,76.800001875
256,176,55815,2,0,L|352:176,1,76.800001875,2|0,0:0|0:0,0:0:0:0:
400,128,56173,2,0,L|352:48,1,76.800001875
208,64,56530,1,2,0:0:0:0:
256,192,56887,12,0,58673,0:0:0:0:
256,192,59030,6,0,P|303:215|304:272,1,86.4000021093751,8|0,0:0|0:0,0:0:0:0:
144,336,59387,6,0,P|96:288|48:176,1,191.999994140625,4|0,0:0|0:0,0:0:0:0:
272,48,60101,2,0,P|320:96|368:208,1,191.999994140625,4|0,0:0|0:0,0:0:0:0:
256,256,60637,1,0,0:0:0:0:
112,288,60815,6,0,P|64:240|64:192,1,95.9999970703126,4|0,0:0|0:0,0:0:0:0:
144,112,61173,2,0,P|208:144|240:192,1,95.9999970703126
368,272,61530,2,0,P|448:272|480:176,1,191.999994140625,4|0,0:0|0:0,0:0:0:0:
272,160,62244,6,0,P|160:160|112:96,1,191.999994140625,4|0,0:0|0:0,0:0:0:0:
256,64,62958,2,0,L|368:64,1,95.9999970703126,4|0,0:0|0:0,0:0:0:0:
448,144,63315,2,0,L|352:144,1,95.9999970703126
255,143,63673,6,0,P|165:167|160:256,1,191.999994140625,4|0,0:0|0:0,0:0:0:0:
368,272,64387,2,0,L|464:320,2,95.9999970703126,4|0|0,0:0|0:0|0:0,0:0:0:0:
176,224,65101,6,0,P|96:160|64:64,1,191.999994140625,4|0,0:0|0:0,0:0:0:0:
256,32,65815,2,0,P|352:96|368:208,1,191.999994140625,4|0,0:0|0:0,0:0:0:0:
304,208,66351,1,0,0:0:0:0:
189,112,66530,6,0,L|176:208,1,95.9999970703126,4|0,0:0|0:0,0:0:0:0:
64,144,66887,2,0,L|80:32,1,95.9999970703126,4|0,0:0|0:0,0:0:0:0:
224,32,67244,1,4,0:0:0:0:
400,48,67601,6,0,L|496:48,2,95.9999970703126,0|0|4,0:0|0:0|0:0,0:0:0:0:
208,48,68315,2,0,L|112:48,2,95.9999970703126,0|0|4,0:0|0:0|0:0,0:0:0:0:
384,128,69030,2,0,P|416:160|416:224,1,95.9999970703126
336,272,69387,6,0,L|208:272,1,95.9999970703126,4|0,0:0|0:0,0:0:0:0:
112,160,69744,2,0,L|176:80,1,95.9999970703126,4|0,0:0|0:0,0:0:0:0:
288,80,70101,2,0,P|384:96|480:128,1,160,4|0,0:0|0:0,0:0:0:0:
416,224,70815,6,0,P|352:288|304:304,1,95.9999970703126,4|0,0:0|0:0,0:0:0:0:
256,304,71173,2,0,P|160:288|80:192,1,191.999994140625,0|4,0:0|0:0,0:0:0:0:
192,192,71708,1,0,0:0:0:0:
288,160,71887,2,0,P|320:112|288:64,1,95.9999970703126
224,64,72244,6,0,P|208:96|144:112,1,95.9999970703126,4|0,0:0|0:0,0:0:0:0:
48,144,72601,2,0,P|64:176|128:176,1,95.9999970703126
272,144,72958,2,0,P|352:144|384:240,1,191.999994140625,4|0,0:0|0:0,0:0:0:0:
208,272,73673,6,0,P|96:272|32:208,1,191.999994140625,4|0,0:0|0:0,0:0:0:0:
224,176,74387,2,0,L|320:128,1,95.9999970703126,4|0,0:0|0:0,0:0:0:0:
400,96,74744,2,0,L|304:80,1,95.9999970703126
208,64,75101,6,0,P|128:64|32:144,1,191.999994140625,4|0,0:0|0:0,0:0:0:0:
224,176,75815,2,0,L|336:208,1,95.9999970703126,4|0,0:0|0:0,0:0:0:0:
400,224,76173,1,0,0:0:0:0:
256,304,76530,6,0,L|64:272,1,191.999994140625,4|0,0:0|0:0,0:0:0:0:
256,192,77244,2,0,L|384:160,1,95.9999970703126,4|0,0:0|0:0,0:0:0:0:
464,128,77601,2,0,L|416:32,1,95.9999970703126
320,48,77958,6,0,L|256:128,3,95.9999970703126,4|0|0|0,0:0|0:0|0:0|0:0,0:0:0:0:
160,192,78673,2,0,P|96:240|64:352,1,191.999994140625,4|0,0:0|0:0,0:0:0:0:
144,352,79208,1,0,0:0:0:0:
240,352,79387,1,4,0:0:0:0:
448,224,79744,5,0,0:0:0:0:
384,224,79923,1,0,0:0:0:0:
288,224,80101,1,4,0:0:0:0:
144,192,80458,6,0,P|176:128|208:112,1,95.9999970703126
288,112,80815,2,0,P|384:96|400:64,1,95.9999970703126,4|0,0:0|0:0,0:0:0:0:
432,48,81173,2,0,P|384:16|320:0,1,95.9999970703126,4|0,0:0|0:0,0:0:0:0:
256,0,81530,2,0,P|128:48|64:192,1,287.999991210938,4|0,0:0|0:0,0:0:0:0:
160,192,82244,5,4,0:0:0:0:
384,224,82601,1,0,0:0:0:0:
208,288,82958,2,0,P|128:304|64:192,1,191.999994140625,4|0,0:0|0:0,0:0:0:0:
144,208,83494,1,0,0:0:0:0:
240,192,83673,5,4,0:0:0:0:
480,160,84030,1,0,0:0:0:0:
288,96,84387,2,0,P|208:80|144:192,1,191.999994140625,4|0,0:0|0:0,0:0:0:0:
80,224,84923,1,0,0:0:0:0:
176,288,85101,6,0,P|240:320|368:320,1,191.999994140625,4|0,0:0|0:0,0:0:0:0:
480,208,85815,2,0,P|432:128|304:80,1,191.999994140625,2|0,0:0|0:0,0:0:0:0:
208,64,86530,5,4,0:0:0:0:
112,96,86708,1,0,0:0:0:0:
32,128,86887,1,4,0:0:0:0:
128,160,87065,1,0,0:0:0:0:
224,192,87244,2,0,P|304:224|304:320,1,191.999994140625,8|0,0:0|0:0,0:0:0:0:
160,336,87958,6,0,L|144:224,1,91.1999988867188,4|0,0:0|0:0,0:0:0:0:
64,208,88315,2,0,L|48:80,1,91.1999988867188
128,64,88673,2,0,P|224:48|320:96,1,182.399997773438,4|0,0:0|0:0,0:0:0:0:
384,128,89208,1,0,0:0:0:0:
464,176,89387,6,0,L|416:256,1,91.1999988867188,4|0,0:0|0:0,0:0:0:0:
320,272,89744,2,0,L|240:176,1,91.1999988867188,4|0,0:0|0:0,0:0:0:0:
176,160,90101,2,0,P|176:96|288:32,1,182.399997773438,4|0,0:0|0:0,0:0:0:0:
352,64,90637,1,0,0:0:0:0:
416,96,90815,6,0,L|432:208,1,91.1999988867188,4|0,0:0|0:0,0:0:0:0:
336,160,91173,2,0,L|320:272,1,91.1999988867188
224,192,91530,2,0,B|208:256|208:256|208:224|208:224|224:320,1,182.399997773438,4|0,0:0|0:0,0:0:0:0:
144,320,92065,1,0,0:0:0:0:
48,320,92244,6,0,P|48:192|64:96,1,182.399997773438,4|0,0:0|0:0,0:0:0:0:
272,48,92958,2,0,L|320:144,3,91.1999988867188,4|0|0|0,0:0|0:0|0:0|0:0,0:0:0:0:
400,192,93673,6,0,L|464:272,1,91.1999988867188,4|0,0:0|0:0,0:0:0:0:
352,336,94030,2,0,L|288:240,1,91.1999988867188
224,192,94387,6,0,L|192:144,3,45.5999994433594,4|0|0|0,0:0|0:0|0:0|0:0,0:0:0:0:
176,112,94744,2,0,L|144:64,3,45.5999994433594,4|0|0|0,0:0|0:0|0:0|0:0,0:0:0:0:
112,32,95101,6,0,P|80:112|304:208,2,364.799995546875,4|0|4,0:0|0:0|0:0,0:0:0:0:
256,192,96887,5,0,0:0:0:0:
368,192,97244,1,0,0:0:0:0:
320,272,97601,1,0,0:0:0:0:
208,272,97958,5,2,0:0:0:0:
256,192,106530,12,0,107959,0:0:0:0:
256,304,108315,6,0,P|176:272|144:160,1,204.8
256,144,109387,1,0,0:0:0:0:
256,192,120458,6,0,L|224:96,1,75.1999988525391
384,32,120815,6,0,L|432:208,1,150.399997705078,4|0,0:0|0:0,0:0:0:0:
240,320,121530,2,0,L|192:144,1,150.399997705078,4|0,0:0|0:0,0:0:0:0:
128,112,122065,1,0,0:0:0:0:
48,64,122244,2,0,P|112:32|192:32,1,150.399997705078,4|0,0:0|0:0,0:0:0:0:
288,64,122780,1,0,0:0:0:0:
384,112,122958,2,0,P|416:192|400:272,1,150.399997705078,4|0,0:0|0:0,0:0:0:0:
192,320,123673,6,0,P|144:304|96:192,1,150.399997705078,4|0,0:0|0:0,0:0:0:0:
320,64,124387,2,0,P|368:80|416:192,1,150.399997705078,4|0,0:0|0:0,0:0:0:0:
240,224,125101,2,0,L|160:224,1,75.1999988525391,4|0,0:0|0:0,0:0:0:0:
80,160,125458,2,0,L|256:160,1,150.399997705078
432,160,126173,1,0,0:0:0:0:
256,80,126530,6,0,L|160:64,1,75.1999988525391,4|0,0:0|0:0,0:0:0:0:
96,128,126887,2,0,L|192:144,1,75.1999988525391
256,160,127244,2,0,P|336:176|384:256,1,150.399997705078,4|0,0:0|0:0,0:0:0:0:
448,320,127780,1,0,0:0:0:0:
336,336,127958,6,0,L|240:320,1,75.1999988525391,4|0,0:0|0:0,0:0:0:0:
160,304,128315,2,0,L|96:256,1,75.1999988525391
16,208,128673,2,0,P|64:144|128:112,1,150.399997705078,4|0,0:0|0:0,0:0:0:0:
352,128,129387,6,0,P|448:192|432:224,1,150.399997705078,4|0,0:0|0:0,0:0:0:0:
240,320,130101,2,0,P|144:256|160:224,1,150.399997705078,4|0,0:0|0:0,0:0:0:0:
368,192,130815,5,4,0:0:0:0:
96,192,131173,1,0,0:0:0:0:
320,192,131530,2,0,P|384:144|320:80,1,160,4|0,0:0|0:0,0:0:0:0:
96,192,132244,6,0,P|112:272|192:384,1,191.999994140625,4|0,0:0|0:0,0:0:0:0:
416,192,132958,2,0,P|400:272|320:384,1,191.999994140625,4|0,0:0|0:0,0:0:0:0:
160,208,133673,2,0,P|112:272|160:368,1,191.999994140625,4|0,0:0|0:0,0:0:0:0:
272,352,134208,1,0,0:0:0:0:
384,304,134387,6,0,P|368:224|288:128,1,191.999994140625,4|0,0:0|0:0,0:0:0:0:
416,112,135101,2,0,P|352:80|208:80,1,191.999994140625,4|0,0:0|0:0,0:0:0:0:
160,96,135637,1,0,0:0:0:0:
64,160,135815,6,0,P|48:208|64:272,1,95.9999970703126,4|0,0:0|0:0,0:0:0:0:
176,224,136172,2,0,P|192:272|176:336,1,95.9999970703126,4|0,0:0|0:0,0:0:0:0:
80,144,136530,2,0,P|96:240|176:240,1,191.999994140625,4|0,0:0|0:0,0:0:0:0:
352,288,137244,6,0,P|272:304|160:288,1,191.999994140625,4|0,0:0|0:0,0:0:0:0:
384,208,137958,2,0,L|352:112,1,95.9999970703126,4|0,0:0|0:0,0:0:0:0:
192,144,138315,2,0,L|224:48,1,95.9999970703126
384,224,138672,6,0,P|352:320|240:336,1,191.999994140625,4|0,0:0|0:0,0:0:0:0:
96,320,139386,2,0,L|48:192,1,95.9999970703126,4|0,0:0|0:0,0:0:0:0:
80,128,139744,5,2,0:0:0:0:
176,80,139922,1,0,0:0:0:0:
272,32,140101,1,4,0:0:0:0:
464,160,140458,5,2,0:0:0:0:
368,208,140636,1,0,0:0:0:0:
272,256,140815,1,4,0:0:0:0:
64,304,141172,2,0,P|64:240|80:192,1,95.9999970703126,2|0,0:0|0:0,0:0:0:0:
192,176,141529,6,0,P|288:160|320:144,1,95.9999970703126,4|0,0:0|0:0,0:0:0:0:
400,80,141886,2,0,P|336:48|288:48,1,95.9999970703126
176,32,142244,2,0,P|112:64|64:176,1,160,4|0,0:0|0:0,0:0:0:0:
288,256,142958,6,0,P|400:240|432:160,1,191.999994140625,4|0,0:0|0:0,0:0:0:0:
224,256,143672,2,0,P|112:240|80:160,1,191.999994140625,4|0,0:0|0:0,0:0:0:0:
176,192,144208,1,0,0:0:0:0:
272,192,144386,6,0,P|336:160|352:112,3,95.9999970703126,4|0|0|0,0:0|0:0|0:0|0:0,0:0:0:0:
240,208,145101,2,0,P|237:114|305:51,1,191.999994140625,4|0,0:0|0:0,0:0:0:0:
400,48,145636,1,0,0:0:0:0:
256,48,145815,6,0,P|208:80|128:192,1,191.999994140625,4|0,0:0|0:0,0:0:0:0:
352,320,146529,2,0,L|448:256,1,95.9999970703126,4|0,0:0|0:0,0:0:0:0:
384,176,146886,1,0,0:0:0:0:
272,128,147065,1,0,0:0:0:0:
176,112,147244,6,0,P|128:128|80:160,2,95.9999970703126,4|0|0,0:0|0:0|0:0,0:0:0:0:
304,112,147779,1,0,0:0:0:0:
416,112,147958,2,0,P|448:160|448:224,1,95.9999970703126,4|0,0:0|0:0,0:0:0:0:
352,272,148315,1,4,0:0:0:0:
160,320,148672,6,0,P|80:256|64:144,1,191.999994140625,4|0,0:0|0:0,0:0:0:0:
240,112,149386,2,0,L|336:96,1,95.9999970703126,4|0,0:0|0:0,0:0:0:0:
448,144,149744,2,0,L|352:160,1,95.9999970703126
240,176,150101,6,0,P|192:208|176:256,3,95.9999970703126,4|0|0|0,0:0|0:0|0:0|0:0,0:0:0:0:
240,336,150815,2,0,P|304:352|432:320,1,191.999994140625,4|0,0:0|0:0,0:0:0:0:
352,256,151351,1,0,0:0:0:0:
272,208,151529,1,4,0:0:0:0:
64,112,151886,5,0,0:0:0:0:
144,80,152065,1,0,0:0:0:0:
224,48,152244,1,4,0:0:0:0:
416,64,152601,2,0,P|458:85|480:144,1,95.9999970703126
384,208,152958,6,0,P|320:272|288:288,1,95.9999970703126,4|0,0:0|0:0,0:0:0:0:
176,272,153315,2,0,P|145:263|96:224,1,95.9999970703126
192,192,153672,2,0,P|256:128|240:48,1,160,4|0,0:0|0:0,0:0:0:0:
160,32,154208,1,0,0:0:0:0:
256,32,154386,6,0,P|304:128|224:272,1,256,2|0,0:0|0:0,0:0:0:0:
192,272,155458,2,0,P|160:272|128:256,1,64
48,208,155815,6,0,P|64:128|224:32,1,256,2|0,0:0|0:0,0:0:0:0:
400,64,156886,2,0,L|432:128,1,64
464,224,157244,6,0,L|320:288,1,128,2|0,0:0|0:0,0:0:0:0:
256,288,157779,1,2,0:0:0:0:
160,256,157958,2,0,L|288:192,1,128,2|0,0:0|0:0,0:0:0:0:
352,144,158494,1,2,0:0:0:0:
272,96,158672,2,0,P|160:96|160:240,1,256,2|0,0:0|0:0,0:0:0:0:
368,288,160101,6,0,P|432:240|448:176,1,128,2|0,0:0|0:0,0:0:0:0:
288,80,160815,2,0,P|208:112|144:112,1,128,2|0,0:0|0:0,0:0:0:0:
96,64,161351,1,0,0:0:0:0:
160,160,161529,2,0,L|208:224,1,64,2|0,0:0|0:0,0:0:0:0:
288,288,161886,2,0,L|336:224,1,64
400,176,162244,2,0,P|432:112|416:32,1,128,2|0,0:0|0:0,0:0:0:0:
336,32,162779,1,0,0:0:0:0:
240,16,162958,6,0,P|192:48|144:128,1,128,2|0,0:0|0:0,0:0:0:0:
240,160,163494,1,0,0:0:0:0:
320,224,163672,2,0,P|284:276|232:312,1,128,2|0,0:0|0:0,0:0:0:0:
256,192,164386,12,0,165815,0:0:0:0:
