osu file format v14

[General]
AudioFilename: GReeeeN - Shinobi.mp3
AudioLeadIn: 0
PreviewTime: 131530
Countdown: 0
SampleSet: Soft
StackLeniency: 0.7
Mode: 2
LetterboxInBreaks: 0
WidescreenStoryboard: 0

[Editor]
DistanceSpacing: 1.9
BeatDivisor: 4
GridSize: 16
TimelineZoom: 2.799999

[Metadata]
Title:Shinobi
TitleUnicode:忍
Artist:GReeeeN
ArtistUnicode:GReeeeN
Creator:_Asriel
Version:Overdose
Source:Teenage Mutant Ninja Turtles
Tags:Kirigaya- 224 224dj Frobe Brobe TMNT Teenage Mutant Ninja Turtles 2012 Nickelodeon
BeatmapID:742306
BeatmapSetID:335338

[Difficulty]
HPDrainRate:6.5
CircleSize:4
OverallDifficulty:9.2
ApproachRate:9.2
SliderMultiplier:2.1
SliderTickRate:2

[Events]
//Background and Video events
0,0,"BG.png",0,0
//Break Periods
2,98158,105960
//Storyboard Layer 0 (Background)
//Storyboard Layer 1 (Fail)
//Storyboard Layer 2 (Pass)
//Storyboard Layer 3 (Foreground)
//Storyboard Sound Samples

[TimingPoints]
816,357.142857142857,4,2,0,100,1,0
1530,-100,4,2,0,70,0,0
6887,-100,4,2,0,70,0,0
7244,-83.3333333333333,4,2,0,70,0,0
7958,-100,4,2,0,80,0,0
10815,-100,4,3,0,80,0,0
13673,-100,4,2,0,70,0,0
19387,-100,4,2,0,75,0,0
21530,-100,4,2,0,55,0,0
22244,-100,4,2,0,75,0,0
25101,-95.2380952380952,4,2,0,80,0,0
29387,-95.2380952380952,4,2,0,100,0,0
30815,-95.2380952380952,4,2,0,80,0,0
35101,-95.2380952380952,4,2,0,60,0,0
35815,-95.2380952380952,4,2,0,50,0,0
36530,-95.2380952380952,4,1,0,70,0,0
37601,-95.2380952380952,4,2,0,70,0,0
37958,-95.2380952380952,4,1,0,80,0,0
39030,-95.2380952380952,4,2,0,70,0,0
39387,-95.2380952380952,4,1,0,80,0,0
40101,-95.2380952380952,4,2,0,70,0,0
42244,-95.2380952380952,4,3,0,80,0,0
47601,-113.636363636364,4,2,0,80,0,0
47958,-131.578947368421,4,2,0,65,0,0
52958,-116.279069767442,4,2,0,75,0,0
53673,-104.166666666667,4,2,0,85,0,0
58315,-86.2068965517244,4,2,0,85,0,0
58673,-92.5925925925926,4,2,0,95,0,0
59387,-83.3333333333333,4,2,0,100,0,1
70101,-100,4,2,0,90,0,0
70815,-83.3333333333333,4,2,0,100,0,1
82244,-83.3333333333333,4,3,0,100,0,0
87958,-87.719298245614,4,2,0,100,0,0
90101,-66.6666666666667,4,2,0,100,0,0
90280,-87.719298245614,4,2,0,100,0,0
96887,-119.047619047619,4,2,0,30,0,0
120458,-106.382978723404,4,2,0,75,0,0
129387,-106.382978723404,4,3,0,75,0,0
131530,357.142857142857,4,2,0,75,1,0
131530,-100,4,2,0,75,0,0
132244,-83.3333333333333,4,2,0,75,0,1
142244,-100,4,2,0,100,0,0
142958,-83.3333333333333,4,2,0,100,0,1
153672,-100,4,2,0,85,0,0
154386,-125,4,2,0,40,0,0
157244,-125,4,2,0,30,0,0
160101,-125,4,2,0,20,0,0
164386,-125,4,2,0,10,0,0
165458,-125,4,2,0,5,0,0

[Colours]
Combo1 : 81,81,255
Combo2 : 0,128,255
Combo3 : 0,128,192
Combo4 : 128,128,255

[HitObjects]
336,256,1530,6,0,L|480:224,1,105,4|0,0:0|0:0,0:0:0:0:
304,160,1887,2,0,L|400:80,1,105
144,64,2244,6,0,P|80:144|96:272,1,210,4|0,0:0|0:0,0:0:0:0:
176,288,2779,1,0,0:0:0:0:
416,320,2958,2,0,P|480:240|464:112,1,210,4|0,0:0|0:0,0:0:0:0:
304,112,3494,1,0,0:0:0:0:
48,128,3673,6,0,L|48:240,1,105,4|0,0:0|0:0,0:0:0:0:
400,288,4029,2,0,L|400:160,1,105
64,224,4387,2,0,P|57:127|151:102,1,210,4|0,0:0|0:0,0:0:0:0:
416,240,4922,1,0,0:0:0:0:
256,272,5101,5,4,0:0:0:0:
96,224,5279,2,0,L|32:224,2,52.5
336,160,5637,1,0,0:0:0:0:
192,80,5815,1,4,0:0:0:0:
448,64,5994,2,0,L|512:64,2,52.5
96,64,6351,1,0,0:0:0:0:
240,128,6529,6,0,L|128:160,1,105,4|0,0:0|0:0,0:0:0:0:
400,256,6887,2,0,B|480:272|496:288|480:304|384:320,1,157.5,4|0,0:0|0:0,0:0:0:0:
192,320,7244,2,0,B|80:288|80:288|208:240,1,251.999992309571
80,96,7780,1,0,0:0:0:0:
352,144,7958,6,0,L|464:128,1,105,4|0,0:0|0:0,0:0:0:0:
320,64,8315,2,0,L|192:64,1,105
64,64,8673,1,4,0:0:0:0:
320,128,8851,2,0,L|384:128,2,52.5
192,176,9208,1,0,0:0:0:0:
48,224,9387,5,4,0:0:0:0:
224,224,9565,1,0,0:0:0:0:
64,224,9744,1,0,0:0:0:0:
336,224,9922,1,0,0:0:0:0:
96,176,10101,2,0,B|76:122|116:92|135:65|262:135,1,210,4|0,0:0|0:0,0:0:0:0:
384,160,10637,1,0,0:0:0:0:
48,160,10815,5,4,0:0:0:0:
288,192,10994,2,0,L|352:192,2,52.5
128,256,11351,1,0,0:0:0:0:
288,304,11529,1,4,0:0:0:0:
128,352,11708,2,0,L|64:352,2,52.5
464,288,12065,1,0,0:0:0:0:
176,240,12244,6,0,P|111:212|64:144,1,105,4|0,0:0|0:0,0:0:0:0:
336,240,12601,2,0,P|400:212|448:144,1,105,0|0,0:0|0:0,0:0:0:0:
320,80,12958,2,0,P|224:128|192:208,1,157.5,4|0,0:0|0:0,0:0:0:0:
416,304,13315,2,0,L|448:192,1,105
176,208,13672,6,0,P|192:112|256:64,1,157.5,4|0,0:0|0:0,0:0:0:0:
80,160,14029,2,0,L|96:32,1,105
384,48,14387,2,0,L|496:48,2,105,4|0|0,0:0|0:0|0:0,0:0:0:0:
144,48,14923,6,0,P|64:80|48:208,1,210,4|0,0:0|0:0,0:0:0:0:
304,208,15458,2,0,P|368:224|368:288,1,105
208,320,15815,5,4,0:0:0:0:
64,304,15994,1,0,0:0:0:0:
192,256,16172,1,4,0:0:0:0:
48,240,16351,1,0,0:0:0:0:
336,192,16530,6,0,P|432:176|480:128,1,157.5,4|0,0:0|0:0,0:0:0:0:
272,128,16887,2,0,P|288:64|336:16,1,105
448,32,17244,1,4,0:0:0:0:
272,32,17422,1,0,0:0:0:0:
32,32,17601,1,0,0:0:0:0:
48,96,17690,1,0,0:0:0:0:
96,144,17780,6,0,P|256:224|304:208,1,210,4|0,0:0|0:0,0:0:0:0:
464,256,18315,2,0,P|448:304|368:320,1,105
224,320,18672,6,0,P|144:304|128:192,1,157.5,4|0,0:0|0:0,0:0:0:0:
272,224,19030,2,0,P|208:160|240:64,1,157.5,4|0,0:0|0:0,0:0:0:0:
320,96,19387,6,0,L|448:112,1,105,4|0,0:0|0:0,0:0:0:0:
240,192,19744,2,0,L|368:208,1,105
480,224,20101,2,0,P|432:288|288:320,1,210,4|0,0:0|0:0,0:0:0:0:
144,256,20637,6,0,P|160:160|288:80,1,210,4|0,0:0|0:0,0:0:0:0:
400,128,21173,2,0,L|336:240,1,105
224,256,21530,5,4,0:0:0:0:
400,288,21708,2,0,L|464:288,2,52.5,2|0|0,0:0|0:0|0:0,0:0:0:0:
128,288,22065,1,2,0:0:0:0:
288,240,22244,5,4,0:0:0:0:
32,160,22423,1,0,0:0:0:0:
352,144,22601,1,0,0:0:0:0:
224,112,22780,1,0,0:0:0:0:
368,64,22958,6,0,P|448:80|464:144,2,105,4|0|0,0:0|0:0|0:0,0:0:0:0:
128,112,23494,1,0,0:0:0:0:
416,176,23673,6,0,L|416:288,1,105,0|4,0:0|0:0,0:0:0:0:
96,176,24030,2,0,L|96:288,1,105
256,304,24387,2,0,P|336:304|368:176,1,210,4|0,0:0|0:0,0:0:0:0:
192,224,24923,2,0,L|160:176,1,52.5
128,160,25101,6,0,P|144:64|224:32,1,165.374994953156,2|0,0:0|0:0,0:0:0:0:
368,48,25458,2,0,P|448:80|480:144,1,110.249996635437
352,144,25815,2,0,P|256:176|192:224,1,165.374994953156,2|0,0:0|0:0,0:0:0:0:
384,256,26173,2,0,P|400:320|352:352,1,110.249996635437
208,352,26530,5,2,0:0:0:0:
384,320,26708,1,0,0:0:0:0:
256,256,26887,1,2,0:0:0:0:
432,224,27065,1,0,0:0:0:0:
160,208,27244,2,0,P|96:176|112:64,1,165.374994953156,2|0,0:0|0:0,0:0:0:0:
304,80,27601,2,0,L|400:80,1,55.1249983177186
208,80,27780,2,0,L|144:80,1,55.1249983177186
416,80,27958,6,0,P|448:144|448:240,1,165.374994953156,2|0,0:0|0:0,0:0:0:0:
272,256,28315,2,0,P|240:192|240:144,1,110.249996635437
336,112,28673,6,0,P|368:176|368:272,1,165.374994953156,2|0,0:0|0:0,0:0:0:0:
144,288,29030,2,0,P|112:224|112:176,1,110.249996635437
352,160,29387,5,4,0:0:0:0:
496,144,29565,1,0,0:0:0:0:
144,144,29744,2,0,L|160:112,1,27.5624991588593
288,96,29923,2,0,L|272:64,1,27.5624991588593
144,32,30101,6,0,P|64:80|48:192,1,165.374994953156,4|0,0:0|0:0,0:0:0:0:
256,144,30458,2,0,P|303:171|331:217,1,110.249996635437,2|0,0:0|0:0,0:0:0:0:
208,272,30815,6,0,L|80:288,1,110.249996635437,2|0,0:0|0:0,0:0:0:0:
192,176,31173,2,0,L|320:160,1,110.249996635437
448,160,31530,2,0,L|320:160,2,110.249996635437,2|0|0,0:0|0:0|0:0,0:0:0:0:
192,160,32065,1,0,0:0:0:0:
64,160,32244,6,0,P|32:224|64:288,1,110.249996635437,2|0,0:0|0:0,0:0:0:0:
400,304,32601,2,0,P|432:240|400:176,1,110.249996635437
112,128,32958,2,0,P|106:74|135:29,1,110.249996635437,2|0,0:0|0:0,0:0:0:0:
288,128,33315,2,0,P|240:208|192:208,1,110.249996635437
368,32,33673,6,0,P|432:80|432:176,1,165.374994953156,2|0,0:0|0:0,0:0:0:0:
208,208,34030,2,0,L|288:302,1,110.249996635437
144,32,34387,6,0,P|80:80|80:176,1,165.374994953156,2|0,0:0|0:0,0:0:0:0:
416,176,34744,2,0,L|336:270,1,110.249996635437
176,208,35101,6,0,L|131:266,2,73.4999977569581,2|0|0,0:0|0:0|0:0,0:0:0:0:
304,208,35458,2,0,L|368:208,1,55.1249983177186
432,160,35637,2,0,L|384:96,1,55.1249983177186
352,80,35815,2,0,P|288:48|208:80,1,110.249996635437,2|0,0:0|0:0,0:0:0:0:
96,112,36173,1,0,0:0:0:0:
400,192,36351,1,0,0:0:0:0:
272,320,36530,6,0,L|224:288,1,55.1249983177186,2|0,0:0|0:0,0:0:0:0:
176,256,36708,2,0,L|128:224,1,55.1249983177186
64,192,36887,2,0,L|192:128,1,110.249996635437
416,96,37244,5,2,0:0:0:0:
272,64,37423,2,0,P|176:64|48:112,1,220.499993270874
224,208,37958,6,0,L|304:224,1,55.1249983177186,2|0,0:0|0:0,0:0:0:0:
336,224,38137,2,0,L|416:240,1,55.1249983177186
432,240,38315,2,0,P|480:176|480:112,1,110.249996635437
208,128,38673,5,2,0:0:0:0:
64,96,38851,2,0,P|144:48|288:48,1,220.499993270874
432,96,39387,6,0,L|400:176,1,55.1249983177186,2|0,0:0|0:0,0:0:0:0:
304,176,39565,2,0,L|336:240,1,55.1249983177186
432,256,39744,2,0,L|400:320,1,55.1249983177186,2|0,0:0|0:0,0:0:0:0:
320,336,39923,2,0,L|256:336,1,55.1249983177186
208,336,40101,6,0,L|80:320,1,110.249996635437,4|0,0:0|0:0,0:0:0:0:
368,288,40458,2,0,L|496:272,1,110.249996635437,4|0,0:0|0:0,0:0:0:0:
208,224,40815,6,0,L|144:224,2,55.1249983177186
384,224,41173,1,0,0:0:0:0:
208,224,41351,1,0,0:0:0:0:
48,160,41530,2,0,P|129:168|198:213,1,165.374994953156,2|0,0:0|0:0,0:0:0:0:
416,192,41887,2,0,P|420:138|460:103,1,110.249996635437
272,64,42244,6,0,L|165:37,1,110.249996635437,4|0,0:0|0:0,0:0:0:0:
336,224,42512,1,0,0:0:0:0:
304,256,42601,2,0,L|192:288,1,110.249996635437
352,208,42958,6,0,L|480:176,1,110.249996635437,4|0,0:0|0:0,0:0:0:0:
400,160,43226,1,0,0:0:0:0:
128,144,43315,2,0,L|78:119,1,55.1249983177186
160,96,43494,2,0,L|204:62,1,55.1249983177186
288,64,43673,6,0,L|400:64,1,110.249996635437,4|0,0:0|0:0,0:0:0:0:
288,144,44030,2,0,L|416:144,1,110.249996635437,4|0,0:0|0:0,0:0:0:0:
144,224,44387,2,0,L|80:224,2,55.1249983177186,8|0|0,0:0|0:0|0:0,0:0:0:0:
304,288,44744,2,0,L|432:288,1,110.249996635437
288,224,45101,6,0,P|240:192|208:80,1,165.374994953156,2|0,0:0|0:0,0:0:0:0:
448,256,45458,2,0,P|496:160|480:112,1,110.249996635437
176,96,45815,1,2,0:0:0:0:
48,160,45994,1,0,0:0:0:0:
224,208,46173,1,2,0:0:0:0:
96,272,46351,1,0,0:0:0:0:
256,336,46530,6,0,P|336:320|400:240,1,165.374994953156,4|0,0:0|0:0,0:0:0:0:
144,208,46887,2,0,L|144:96,1,110.249996635437
272,48,47244,2,0,P|350:47|389:115,1,165.374994953156
192,160,47601,2,0,L|144:256,1,92.4000028198243,2|0,0:0|0:0,0:0:0:0:
400,304,47958,6,0,P|480:208|400:48,1,319.199996103516,4|0,0:0|0:0,0:0:0:0:
192,64,49387,2,0,P|96:96|80:304,1,319.199996103516,2|0,0:0|0:0,0:0:0:0:
224,272,50458,2,0,L|128:272,1,79.7999990258789
384,208,50815,6,0,P|304:144|272:144,2,119.699998538818,2|0|0,0:0|0:0|0:0,0:0:0:0:
352,240,51440,1,0,0:0:0:0:
128,208,51530,6,0,P|208:144|240:144,2,119.699998538818,2|0|0,0:0|0:0|0:0,0:0:0:0:
160,240,52155,1,0,0:0:0:0:
240,256,52244,6,0,P|320:176|336:112,1,159.599998051758,2|0,0:0|0:0,0:0:0:0:
208,128,52780,1,0,0:0:0:0:
480,96,52958,2,0,L|352:64,1,90.3000013778687,8|0,0:0|0:0,0:0:0:0:
256,48,53315,2,0,L|128:48,1,90.3000013778687,8|0,0:0|0:0,0:0:0:0:
48,80,53673,6,0,P|80:160|160:208,1,151.200003691406,4|0,0:0|0:0,0:0:0:0:
288,224,54030,2,0,P|320:304|304:336,1,100.800002460938
144,336,54387,6,0,P|121:264|142:193,1,151.200003691406,4|0,0:0|0:0,0:0:0:0:
320,144,54744,2,0,P|272:112|224:112,1,100.800002460938
96,80,55101,6,0,L|192:32,1,100.800002460938,4|0,0:0|0:0,0:0:0:0:
336,32,55458,2,0,L|448:80,1,100.800002460938
160,304,55815,5,4,0:0:0:0:
320,288,55994,1,0,0:0:0:0:
192,240,56173,1,4,0:0:0:0:
352,224,56351,1,0,0:0:0:0:
448,208,56530,5,0,0:0:0:0:
304,128,56708,2,0,P|224:144|208:336,1,302.400007382813,2|0,0:0|0:0,0:0:0:0:
400,336,57601,1,0,0:0:0:0:
96,336,57780,6,0,P|112:256|144:160,1,151.200003691406,4|0,0:0|0:0,0:0:0:0:
400,224,58137,2,0,L|464:224,1,50.4000012304688
288,160,58315,2,0,L|112:160,1,121.800003717041
48,64,58673,6,0,L|161:64,1,113.400002768555,4|0,0:0|0:0,0:0:0:0:
448,176,59030,2,0,L|512:176,1,56.7000013842774
336,128,59208,1,0,0:0:0:0:
256,128,59298,1,0,0:0:0:0:
160,128,59387,6,0,L|16:160,1,125.999996154785,4|0,0:0|0:0,0:0:0:0:
320,240,59744,2,0,L|448:272,1,125.999996154785
128,320,60101,2,0,P|64:256|96:80,1,251.999992309571,4|0,0:0|0:0,0:0:0:0:
448,112,60637,1,0,0:0:0:0:
304,160,60815,5,4,0:0:0:0:
160,208,60994,1,0,0:0:0:0:
336,224,61173,1,4,0:0:0:0:
192,272,61351,1,0,0:0:0:0:
464,272,61530,2,0,P|464:208|352:128,1,188.999994232178,4|0,0:0|0:0,0:0:0:0:
112,240,61887,2,0,L|48:240,1,62.9999980773926
208,240,62065,2,0,L|272:240,1,62.9999980773926
352,240,62244,6,0,L|384:112,1,125.999996154785,4|0,0:0|0:0,0:0:0:0:
176,144,62601,2,0,L|144:0,1,125.999996154785
416,208,62958,2,0,L|448:80,1,125.999996154785,4|0,0:0|0:0,0:0:0:0:
352,80,63226,1,0,0:0:0:0:
256,208,63315,2,0,L|224:64,1,125.999996154785
416,64,63673,6,0,L|290:77,1,125.999996154785,4|0,0:0|0:0,0:0:0:0:
144,192,64030,2,0,L|288:176,1,125.999996154785,4|0,0:0|0:0,0:0:0:0:
448,160,64387,1,4,0:0:0:0:
272,128,64565,1,0,0:0:0:0:
96,96,64744,5,4,0:0:0:0:
64,48,64833,1,0,0:0:0:0:
288,48,64923,1,0,0:0:0:0:
352,48,65012,1,0,0:0:0:0:
144,96,65101,6,0,P|64:112|32:240,1,188.999994232178,4|0,0:0|0:0,0:0:0:0:
208,176,65458,2,0,P|256:256|256:288,1,125.999996154785
80,320,65815,2,0,B|64:256|64:256|96:160,1,125.999996154785,4|0,0:0|0:0,0:0:0:0:
272,160,66173,2,0,L|400:128,1,125.999996154785
144,48,66530,6,0,L|16:48,3,125.999996154785,4|0|0|0,0:0|0:0|0:0|0:0,0:0:0:0:
399,47,67244,2,0,P|437:97|451:158,1,125.999996154785,4|0,0:0|0:0,0:0:0:0:
368,192,67512,1,0,0:0:0:0:
160,192,67601,2,0,P|112:272|112:336,1,125.999996154785
288,352,67958,6,0,P|400:352|480:256,1,188.999994232178,4|0,0:0|0:0,0:0:0:0:
256,272,68315,2,0,L|192:272,1,62.9999980773926
384,208,68494,2,0,L|448:208,1,62.9999980773926
160,176,68673,2,0,B|128:112|144:96|336:96,1,188.999994232178,4|0,0:0|0:0,0:0:0:0:
336,96,69030,1,0,0:0:0:0:
80,112,69208,1,0,0:0:0:0:
320,224,69387,6,0,L|480:224,1,125.999996154785,4|0,0:0|0:0,0:0:0:0:
304,304,69744,2,0,L|430:304,1,125.999996154785,4|0,0:0|0:0,0:0:0:0:
160,256,70101,2,0,P|112:192|160:144,1,157.5,4|0,0:0|0:0,0:0:0:0:
368,96,70458,2,0,L|304:96,1,52.5
160,64,70637,2,0,L|224:64,1,52.5
384,64,70815,6,0,P|432:128|384:256,1,188.999994232178,4|0,0:0|0:0,0:0:0:0:
256,240,71173,2,0,P|192:272|160:336,1,125.999996154785
304,336,71530,6,0,L|432:320,1,125.999996154785,4|0,0:0|0:0,0:0:0:0:
272,240,71887,2,0,L|400:224,1,125.999996154785,0|0,0:0|0:0,0:0:0:0:
160,176,72244,6,0,P|80:128|48:64,1,125.999996154785,4|0,0:0|0:0,0:0:0:0:
352,160,72601,2,0,P|284:84|289:12,1,125.999996154785
432,192,72958,2,0,L|448:256,1,62.9999980773926,4|0,0:0|0:0,0:0:0:0:
240,336,73137,2,0,L|224:272,1,62.9999980773926
400,256,73315,2,0,P|448:208|352:144,1,188.999994232178
128,128,73673,6,0,L|272:64,1,125.999996154785,4|0,0:0|0:0,0:0:0:0:
432,80,74030,2,0,L|288:16,1,125.999996154785
48,160,74387,2,0,L|192:96,2,125.999996154785,4|0|0,0:0|0:0|0:0,0:0:0:0:
192,208,74923,1,4,0:0:0:0:
320,240,75101,6,0,P|400:224|448:176,1,125.999996154785,4|0,0:0|0:0,0:0:0:0:
272,128,75458,2,0,P|192:144|144:192,1,125.999996154785,4|0,0:0|0:0,0:0:0:0:
288,224,75815,5,4,0:0:0:0:
480,272,75994,1,0,0:0:0:0:
144,336,76173,2,0,L|192:272,1,62.9999980773926
368,336,76351,2,0,L|320:272,1,62.9999980773926
32,240,76530,6,0,P|80:128|208:64,1,251.999992309571,4|0,0:0|0:0,0:0:0:0:
368,64,77065,1,0,0:0:0:0:
64,96,77244,2,0,P|32:192|32:240,1,125.999996154785,4|0,0:0|0:0,0:0:0:0:
352,176,77601,2,0,P|384:272|384:320,1,125.999996154785,4|0,0:0|0:0,0:0:0:0:
96,336,77958,2,0,P|64:256|64:192,2,125.999996154785,4|0|0,0:0|0:0|0:0,0:0:0:0:
256,352,78494,1,0,0:0:0:0:
416,336,78673,6,0,L|448:272,3,62.9999980773926,4|0|0|0,0:0|0:0|0:0|0:0,0:0:0:0:
496,256,79030,6,0,P|464:160|416:128,1,125.999996154785
32,144,79387,1,4,0:0:0:0:
256,144,79744,6,0,P|336:128|400:96,1,125.999996154785
64,64,80101,1,4,0:0:0:0:
336,160,80458,6,0,L|213:129,1,125.999996154785
64,208,80815,2,0,L|186:180,1,125.999996154785,4|0,0:0|0:0,0:0:0:0:
352,176,81173,1,4,0:0:0:0:
64,208,81351,1,0,0:0:0:0:
336,176,81530,6,0,L|416:176,1,62.9999980773926
224,144,81708,2,0,L|160:144,1,62.9999980773926
384,112,81887,2,0,L|448:112,1,62.9999980773926
256,80,82065,2,0,L|176:80,1,62.9999980773926
128,96,82244,6,0,P|96:160|96:240,1,125.999996154785,4|0,0:0|0:0,0:0:0:0:
336,320,82601,2,0,P|272:256|240:240,1,125.999996154785
480,288,82958,5,0,0:0:0:0:
448,240,83048,1,0,0:0:0:0:
384,208,83137,1,0,0:0:0:0:
144,192,83315,2,0,L|0:192,1,125.999996154785
336,176,83673,6,0,L|480:176,1,125.999996154785,4|0,0:0|0:0,0:0:0:0:
224,240,84030,2,0,P|237:283|336:320,1,125.999996154785
64,320,84387,5,0,0:0:0:0:
16,256,84477,1,0,0:0:0:0:
64,192,84566,1,0,0:0:0:0:
384,96,84744,2,0,L|528:96,1,125.999996154785
96,144,85101,6,0,P|48:224|32:288,1,125.999996154785,8|0,0:0|0:0,0:0:0:0:
320,144,85458,2,0,P|368:224|384:288,1,125.999996154785
129,336,85815,2,0,L|192:336,1,62.9999980773926
272,336,85994,1,0,0:0:0:0:
96,256,86173,2,0,B|115:195|177:164,1,125.999996154785
432,144,86530,6,0,P|464:224|464:288,1,125.999996154785,4|0,0:0|0:0,0:0:0:0:
144,144,86887,2,0,P|112:224|112:288,1,125.999996154785,4|0,0:0|0:0,0:0:0:0:
288,336,87244,2,0,L|352:304,1,62.9999980773926,4|0,0:0|0:0,0:0:0:0:
432,288,87423,2,0,L|352:256,1,62.9999980773926
176,224,87601,2,0,L|96:192,1,62.9999980773926,4|0,0:0|0:0,0:0:0:0:
48,176,87779,2,0,L|128:160,1,62.9999980773926
320,160,87958,5,4,0:0:0:0:
480,144,88137,1,0,0:0:0:0:
288,96,88315,1,0,0:0:0:0:
448,80,88494,1,0,0:0:0:0:
272,112,88673,2,0,L|176:112,1,59.8499992694092,4|0,0:0|0:0,0:0:0:0:
128,48,88851,2,0,L|192:48,1,59.8499992694092
288,32,89030,1,0,0:0:0:0:
432,16,89208,1,0,0:0:0:0:
192,224,89387,5,4,0:0:0:0:
32,240,89566,1,0,0:0:0:0:
224,288,89744,1,0,0:0:0:0:
64,304,89923,1,0,0:0:0:0:
224,272,90102,2,0,L|336:272,1,78.7500030040742,4|0,0:0|0:0,0:0:0:0:
464,336,90280,2,0,L|400:336,1,59.8499992694092
224,352,90459,1,4,0:0:0:0:
80,368,90637,1,0,0:0:0:0:
400,272,90815,6,0,L|448:160,1,119.699998538818,4|0,0:0|0:0,0:0:0:0:
208,160,91173,2,0,L|256:48,1,119.699998538818,4|0,0:0|0:0,0:0:0:0:
448,48,91530,2,0,L|384:96,1,59.8499992694092,4|0,0:0|0:0,0:0:0:0:
208,288,91708,2,0,L|149:299,1,59.8499992694092
320,336,91887,2,0,L|439:336,1,119.699998538818,4|0,0:0|0:0,0:0:0:0:
48,144,92244,6,0,L|48:272,1,119.699998538818,4|0,0:0|0:0,0:0:0:0:
464,272,92601,2,0,L|464:144,1,119.699998538818,4|0,0:0|0:0,0:0:0:0:
160,112,92958,5,4,0:0:0:0:
80,96,93048,1,0,0:0:0:0:
16,80,93137,1,0,0:0:0:0:
80,64,93226,1,0,0:0:0:0:
256,112,93315,1,0,0:0:0:0:
336,96,93405,1,0,0:0:0:0:
400,80,93494,1,0,0:0:0:0:
336,64,93583,1,0,0:0:0:0:
96,176,93673,6,0,L|32:192,1,59.8499992694092,4|0,0:0|0:0,0:0:0:0:
240,208,93851,2,0,L|320:224,1,59.8499992694092
256,256,94030,6,0,L|192:272,1,59.8499992694092
400,288,94208,2,0,L|480:304,1,59.8499992694092
144,320,94387,6,0,L|176:256,1,59.8499992694092,4|0,0:0|0:0,0:0:0:0:
400,192,94565,2,0,L|480:192,1,59.8499992694092
288,176,94744,2,0,L|220:177,1,59.8499992694092,4|0,0:0|0:0,0:0:0:0:
80,160,94923,2,0,L|48:96,1,59.8499992694092
368,64,95101,5,0,0:0:0:0:
427,64,95190,1,0,0:0:0:0:
336,112,95280,1,0,0:0:0:0:
276,112,95369,1,0,0:0:0:0:
368,160,95458,1,0,0:0:0:0:
427,160,95547,1,0,0:0:0:0:
336,208,95637,1,0,0:0:0:0:
276,208,95726,1,0,0:0:0:0:
112,96,95815,5,0,0:0:0:0:
52,96,95904,1,0,0:0:0:0:
144,144,95994,1,0,0:0:0:0:
203,144,96083,1,0,0:0:0:0:
112,192,96172,1,0,0:0:0:0:
52,192,96261,1,0,0:0:0:0:
144,240,96351,1,0,0:0:0:0:
203,240,96440,1,0,0:0:0:0:
384,240,96530,1,0,0:0:0:0:
128,96,96887,6,0,P|64:160|96:272,2,176.399994616699
256,192,97958,1,2,0:0:0:0:
256,192,106530,12,0,107958,0:0:0:0:
256,240,108315,6,0,L|352:240,1,88.1999973083497
256,240,108673,2,0,L|160:240,1,88.1999973083497
304,240,109030,2,0,P|336:176|336:144,1,88.1999973083497
256,48,109387,6,0,L|256:256,1,176.399994616699
48,304,110101,2,0,P|64:256|112:176,1,132.299995962525
176,176,110458,2,0,P|224:112|208:48,1,132.299995962525
144,48,110815,6,0,P|128:112|176:240,1,176.399994616699
320,240,111530,2,0,L|416:208,1,88.1999973083497
256,176,111887,2,0,L|320:96,1,88.1999973083497
160,128,112244,6,0,P|128:176|256:320,1,264.599991925049
336,272,112958,2,0,L|64:176,1,264.599991925049
176,48,113673,2,0,P|240:96|272:288,1,264.599991925049
160,288,114387,1,0,0:0:0:0:
64,144,114744,1,0,0:0:0:0:
208,64,115101,6,0,P|272:96|288:288,1,264.599991925049
144,272,115815,2,0,L|256:128,1,176.399994616699
352,96,116351,1,0,0:0:0:0:
224,96,116530,2,0,P|176:112|192:304,1,264.599991925049
304,304,117244,2,0,P|432:208|432:176,1,176.399994616699
256,192,117958,12,0,120101,0:0:0:0:
288,256,120458,6,0,L|416:240,1,98.6999984939576
496,208,120815,2,0,P|432:144|336:128,1,148.049997740936,4|0,0:0|0:0,0:0:0:0:
210,159,121173,2,0,L|304:128,1,98.6999984939576
64,192,121530,2,0,P|80:256|192:304,1,197.399996987915,4|0,0:0|0:0,0:0:0:0:
352,288,122065,1,0,0:0:0:0:
48,256,122244,2,0,L|64:128,1,98.6999984939576,4|0,0:0|0:0,0:0:0:0:
464,256,122601,2,0,L|448:128,1,98.6999984939576
176,96,122958,6,0,P|272:112|384:144,1,197.399996987915,4|0,0:0|0:0,0:0:0:0:
208,208,123494,1,0,0:0:0:0:
32,240,123673,5,4,0:0:0:0:
192,240,123851,2,0,L|256:240,2,49.3499992469788
32,240,124208,1,0,0:0:0:0:
480,240,124387,5,4,0:0:0:0:
320,240,124565,2,0,L|256:240,2,49.3499992469788
480,240,124922,1,0,0:0:0:0:
208,240,125101,6,0,P|128:224|96:176,1,98.6999984939576,4|0,0:0|0:0,0:0:0:0:
304,176,125458,2,0,P|384:160|416:80,1,148.049997740936
256,80,125815,2,0,P|160:80|96:128,1,148.049997740936,4|0,0:0|0:0,0:0:0:0:
64,160,126173,2,0,L|112:224,3,49.3499992469788
80,288,126530,6,0,L|208:272,1,98.6999984939576,4|0,0:0|0:0,0:0:0:0:
448,208,126887,2,0,L|320:192,1,98.6999984939576
80,176,127244,2,0,L|64:64,2,98.6999984939576,4|0|0,0:0|0:0|0:0,0:0:0:0:
352,192,127780,1,0,0:0:0:0:
480,144,127958,6,0,P|432:80|352:64,1,148.049997740936,4|0,0:0|0:0,0:0:0:0:
77,64,128315,2,0,L|160:144,1,98.6999984939576
400,144,128673,2,0,L|464:256,1,98.6999984939576,4|0,0:0|0:0,0:0:0:0:
304,288,129030,2,0,L|160:288,1,98.6999984939576
64,208,129387,5,8,0:0:0:0:
336,160,129565,2,0,L|400:160,2,49.3499992469788
176,112,129923,1,0,0:0:0:0:
352,64,130101,1,8,0:0:0:0:
80,32,130280,2,0,L|16:32,2,49.3499992469788
384,16,130637,1,0,0:0:0:0:
208,16,130815,5,8,0:0:0:0:
48,80,130994,1,0,0:0:0:0:
208,160,131173,1,8,0:0:0:0:
48,224,131351,1,0,0:0:0:0:
352,288,131530,6,0,P|448:224|448:160,1,157.5
160,288,131887,2,0,P|64:224|64:160,1,157.5
240,160,132244,6,0,L|416:160,1,125.999996154785,4|0,0:0|0:0,0:0:0:0:
192,80,132601,2,0,L|112:80,1,62.9999980773926
48,144,132780,2,0,L|128:144,1,62.9999980773926
192,144,132958,2,0,L|320:144,1,125.999996154785,4|0,0:0|0:0,0:0:0:0:
160,240,133315,2,0,L|320:240,1,125.999996154785
432,176,133673,2,0,L|288:176,1,125.999996154785,4|0,0:0|0:0,0:0:0:0:
48,176,134030,2,0,P|96:64|208:32,1,188.999994232178
336,48,134387,6,0,P|423:42|480:128,1,188.999994232178,4|0,0:0|0:0,0:0:0:0:
176,144,134744,2,0,L|320:144,1,125.999996154785
464,224,135101,1,0,0:0:0:0:
192,208,135280,2,0,L|112:192,2,62.9999980773926
320,160,135637,1,4,0:0:0:0:
80,144,135815,6,0,L|112:16,1,125.999996154785,4|0,0:0|0:0,0:0:0:0:
288,64,136173,2,0,L|432:32,1,125.999996154785
80,176,136530,2,0,L|48:48,1,125.999996154785,4|0,0:0|0:0,0:0:0:0:
384,144,136887,2,0,L|262:172,1,125.999996154785
128,192,137244,6,0,P|48:240|16:336,1,188.999994232178,4|0,0:0|0:0,0:0:0:0:
272,336,137601,2,0,P|368:320|384:256,1,125.999996154785
192,256,137958,2,0,L|144:192,3,62.9999980773926,4|0|0|0,0:0|0:0|0:0|0:0,0:0:0:0:
96,192,138315,2,0,L|96:48,1,125.999996154785
336,64,138672,6,0,L|480:64,2,125.999996154785,4|0|0,0:0|0:0|0:0,0:0:0:0:
64,64,139208,1,0,0:0:0:0:
192,96,139386,2,0,P|272:128|256:272,1,251.999992309571,4|0,0:0|0:0,0:0:0:0:
112,304,139922,1,0,0:0:0:0:
288,352,140101,6,0,P|400:352|480:256,1,188.999994232178,4|0,0:0|0:0,0:0:0:0:
256,272,140458,2,0,L|192:272,1,62.9999980773926
384,208,140637,2,0,L|448:208,1,62.9999980773926
160,176,140816,2,0,B|128:112|144:96|336:96,1,188.999994232178,4|0,0:0|0:0,0:0:0:0:
336,96,141173,1,0,0:0:0:0:
80,112,141351,1,0,0:0:0:0:
128,64,141440,1,0,0:0:0:0:
304,176,141529,6,0,L|464:144,1,125.999996154785,4|0,0:0|0:0,0:0:0:0:
144,112,141886,2,0,L|16:112,1,125.999996154785,4|0,0:0|0:0,0:0:0:0:
320,64,142244,2,0,B|448:112|416:176|416:208|384:208,1,157.5,4|0,0:0|0:0,0:0:0:0:
192,224,142601,2,0,L|160:288,1,52.5
352,272,142779,2,0,L|384:336,1,52.5
96,288,142958,6,0,L|80:144,1,125.999996154785,4|0,0:0|0:0,0:0:0:0:
352,96,143315,2,0,L|368:240,1,125.999996154785
176,272,143672,2,0,L|32:208,2,125.999996154785,4|0|0,0:0|0:0|0:0,0:0:0:0:
432,288,144208,1,0,0:0:0:0:
288,224,144386,6,0,L|192:128,1,125.999996154785,4|0,0:0|0:0,0:0:0:0:
384,112,144744,2,0,L|496:32,1,125.999996154785
224,32,145101,2,0,P|112:64|64:160,1,188.999994232178,4|0,0:0|0:0,0:0:0:0:
336,160,145458,2,0,L|432:176,1,62.9999980773926
112,224,145636,2,0,L|48:240,1,62.9999980773926
448,224,145815,6,0,B|464:160|464:160|384:128,1,125.999996154785,4|0,0:0|0:0,0:0:0:0:
240,112,146172,2,0,P|80:112|64:208,1,251.999992309571,4|4,0:0|0:0,0:0:0:0:
208,208,146708,1,0,0:0:0:0:
64,256,146886,1,4,0:0:0:0:
416,304,147065,1,4,0:0:0:0:
288,336,147244,6,0,P|224:320|160:272,1,125.999996154785,4|0,0:0|0:0,0:0:0:0:
32,240,147601,2,0,P|80:176|144:144,1,125.999996154785
368,128,147958,2,0,L|496:80,1,125.999996154785,4|0,0:0|0:0,0:0:0:0:
160,144,148315,6,0,L|192:80,1,62.9999980773926
448,128,148494,2,0,L|400:64,1,62.9999980773926
256,208,148672,6,0,P|192:192|160:144,1,125.999996154785,4|0,0:0|0:0,0:0:0:0:
304,144,149029,2,0,L|448:96,1,125.999996154785
288,80,149386,2,0,P|224:80|160:32,1,125.999996154785,4|0,0:0|0:0,0:0:0:0:
384,32,149655,2,0,L|464:32,1,62.9999980773926
192,48,149922,1,0,0:0:0:0:
48,112,150101,6,0,P|62:191|80:256,1,125.999996154785,4|0,0:0|0:0,0:0:0:0:
320,240,150458,2,0,L|160:240,1,125.999996154785,4|0,0:0|0:0,0:0:0:0:
448,176,150815,2,0,P|480:240|480:304,1,125.999996154785,4|0,0:0|0:0,0:0:0:0:
416,320,151083,1,0,0:0:0:0:
240,336,151172,2,0,P|176:336|96:288,1,125.999996154785
272,272,151529,1,4,0:0:0:0:
64,208,151886,6,0,L|160:112,1,125.999996154785
464,128,152244,1,4,0:0:0:0:
256,320,152601,2,0,L|384:224,1,125.999996154785
80,176,152958,6,0,L|16:176,1,62.9999980773926,4|0,0:0|0:0,0:0:0:0:
304,128,153136,2,0,L|368:128,1,62.9999980773926
208,80,153315,2,0,L|144:80,1,62.9999980773926,4|0,0:0|0:0,0:0:0:0:
432,48,153494,2,0,L|496:48,1,62.9999980773926
64,96,153672,6,0,L|32:160,1,52.5,4|0,0:0|0:0,0:0:0:0:
208,192,153851,1,0,0:0:0:0:
304,192,153940,1,0,0:0:0:0:
464,96,154029,6,0,L|496:160,1,52.5,4|0,0:0|0:0,0:0:0:0:
304,192,154208,1,0,0:0:0:0:
208,192,154297,1,0,0:0:0:0:
368,256,154387,6,0,P|448:240|464:176,1,126
384,192,154744,2,0,P|368:96|400:64,1,126
464,32,155101,2,0,P|352:48|288:112,1,168,2|0,0:0|0:0,0:0:0:0:
240,128,155636,1,0,0:0:0:0:
384,256,155815,6,0,L|448:160,1,84,2|0,0:0|0:0,0:0:0:0:
272,192,156172,2,0,L|240:96,1,84
416,48,156530,2,0,P|400:144|352:160,1,126
208,96,156886,2,0,L|135:52,1,84
416,160,157244,5,2,0:0:0:0:
304,240,157422,1,0,0:0:0:0:
304,282,157511,1,0,0:0:0:0:
304,320,157601,1,0,0:0:0:0:
48,176,157779,1,0,0:0:0:0:
352,176,157958,5,2,0:0:0:0:
208,240,158137,1,0,0:0:0:0:
208,282,158226,1,0,0:0:0:0:
208,320,158316,1,0,0:0:0:0:
96,224,158493,1,0,0:0:0:0:
336,192,158672,6,0,L|432:144,1,84,2|0,0:0|0:0,0:0:0:0:
128,112,159029,2,0,P|144:48|256:32,1,168
368,32,159565,2,0,L|304:128,2,84
240,16,160101,6,0,P|144:64|128:96,1,126,2|0,0:0|0:0,0:0:0:0:
208,112,160458,2,0,P|176:176|208:240,1,126
128,272,160815,2,0,L|240:272,1,84,2|0,0:0|0:0,0:0:0:0:
352,224,161172,2,0,L|352:112,1,84
192,80,161529,6,0,P|112:96|96:128,2,84,2|0|0,0:0|0:0|0:0,0:0:0:0:
336,80,162065,1,0,0:0:0:0:
80,80,162244,2,0,P|128:128|192:144,1,126
256,144,162601,2,0,L|368:144,1,84
464,144,162958,5,2,0:0:0:0:
320,192,163136,2,0,L|320:256,2,42
192,144,163494,1,0,0:0:0:0:
48,144,163672,5,2,0:0:0:0:
192,192,163851,2,0,L|192:240,2,42
320,144,164208,1,0,0:0:0:0:
432,112,164386,6,0,L|352:64,1,84,2|0,0:0|0:0,0:0:0:0:
176,48,164744,2,0,L|64:16,1,84
400,32,165101,6,0,B|464:80|416:160|240:160|240:160|272:192|272:208,1,336
