osu file format v14

[General]
AudioFilename: GReeeeN - Shinobi.mp3
AudioLeadIn: 0
PreviewTime: 131530
Countdown: 0
SampleSet: Soft
StackLeniency: 0.3
Mode: 2
LetterboxInBreaks: 0
WidescreenStoryboard: 0

[Editor]
DistanceSpacing: 0.6
BeatDivisor: 4
GridSize: 8
TimelineZoom: 1.4

[Metadata]
Title:Shinobi
TitleUnicode:忍
Artist:GReeeeN
ArtistUnicode:GReeeeN
Creator:_Asriel
Version:Frobe's Platter
Source:Teenage Mutant Ninja Turtles
Tags:Kirigaya- 224 224dj Frobe Brobe TMNT Teenage Mutant Ninja Turtles 2012 Nickelodeon
BeatmapID:772551
BeatmapSetID:335338

[Difficulty]
HPDrainRate:5
CircleSize:4
OverallDifficulty:8
ApproachRate:8
SliderMultiplier:1.7
SliderTickRate:2

[Events]
//Background and Video events
0,0,"BG.png",0,0
//Break Periods
2,48158,51494
2,98158,105780
//Storyboard Layer 0 (Background)
//Storyboard Layer 1 (Fail)
//Storyboard Layer 2 (Pass)
//Storyboard Layer 3 (Foreground)
//Storyboard Sound Samples

[TimingPoints]
816,357.142857142857,4,2,2,60,1,0
13226,-100,4,2,0,60,0,0
13405,-100,4,2,2,60,0,0
36530,-100,4,2,7,50,0,0
36619,-100,4,2,7,60,0,0
41798,-100,4,2,0,50,0,0
42155,-100,4,2,7,60,0,0
47601,-100,4,2,2,50,0,0
48048,-100,4,2,2,60,0,0
59387,-100,4,2,2,80,0,1
76173,-100,4,2,2,60,0,1
76530,-100,4,2,2,80,0,1
82244,-100,4,2,2,60,0,0
96530,-100,4,2,2,20,0,0
97244,-100,4,2,2,30,0,0
97601,-100,4,2,2,40,0,0
97958,-100,4,2,2,70,0,0
106530,-133.333333333333,4,2,2,30,0,0
106619,-133.333333333333,4,2,2,7,0,0
108315,-133.333333333333,4,2,2,30,0,0
109387,-133.333333333333,4,2,2,50,0,0
109487,-133.333333333333,4,2,2,30,0,0
120815,-133.333333333333,4,2,2,60,0,0
126530,-100,4,2,2,60,0,0
131530,357.142857142857,4,2,2,80,1,1
148315,-100,4,2,2,60,0,1
148672,-100,4,2,2,80,0,1
154119,-100,4,2,2,50,0,1
154387,-133.333333333333,4,2,2,20,0,0

[Colours]
Combo1 : 81,81,255
Combo2 : 0,128,255
Combo3 : 0,128,192
Combo4 : 128,128,255

[HitObjects]
179,193,1530,5,0,0:0:0:0:
371,291,1887,2,0,P|333:297|278:269,1,85
452,60,2244,6,0,L|440:237,1,170,4|0,0:0|0:0,0:0:0:0:
352,140,2780,1,0,0:0:0:0:
171,210,2958,2,0,P|125:193|122:77,1,170,4|0,0:0|0:0,0:0:0:0:
222,52,3494,1,0,0:0:0:0:
74,282,3673,6,0,L|107:376,1,85,4|0,0:0|0:0,0:0:0:0:
243,258,4030,2,0,L|276:352,1,85
438,282,4387,1,4,0:0:0:0:
438,282,4744,1,0,0:0:0:0:
302,159,4923,1,0,0:0:0:0:
416,27,5101,6,0,P|448:63|445:120,1,85,4|0,0:0|0:0,0:0:0:0:
424,119,5369,1,0,0:0:0:0:
395,137,5458,1,0,0:0:0:0:
256,194,5637,1,0,0:0:0:0:
96,27,5815,6,0,P|64:63|67:120,1,85,4|0,0:0|0:0,0:0:0:0:
88,119,6083,1,0,0:0:0:0:
117,137,6172,1,0,0:0:0:0:
256,194,6351,1,0,0:0:0:0:
169,259,6530,6,0,P|169:304|194:352,1,85,0|0,1:0|0:0,0:0:0:0:
343,259,6887,2,0,P|343:304|318:352,1,85,0|0,1:0|0:0,0:0:0:0:
57,212,7244,2,0,L|249:197,1,170,0|0,1:0|1:0,0:0:0:0:
463,126,7958,6,0,L|343:112,1,85
228,79,8315,2,0,L|348:65,1,85
454,218,8673,2,0,P|494:273|441:365,1,170
371,291,9208,1,0,0:0:0:0:
220,360,9387,6,0,P|196:329|186:282,1,85
322,299,9744,2,0,P|346:268|356:221,1,85
179,24,10101,2,0,L|193:208,1,170
264,101,10637,1,0,0:0:0:0:
429,193,10815,6,0,P|372:204|328:186,1,85,0|0,1:0|1:0,0:0:0:0:
315,183,11083,1,0,1:0:0:0:
283,169,11173,1,0,1:0:0:0:
348,61,11351,1,0,1:0:0:0:
202,37,11530,6,0,P|259:26|303:44,1,85,0|0,1:0|1:0,0:0:0:0:
316,47,11798,1,0,1:0:0:0:
348,61,11888,1,0,1:0:0:0:
283,169,12066,1,0,1:0:0:0:
121,246,12244,6,0,P|91:247|51:200,1,85,0|0,1:0|0:0,0:0:0:0:
197,278,12601,2,0,P|167:279|156:223,1,85,0|0,1:0|0:0,0:0:0:0:
273,310,12958,2,0,L|292:114,1,170,0|8,0:0|0:0,0:0:0:0:
188,69,13494,1,0,0:0:0:0:
430,15,13673,6,0,P|471:49|457:175,1,170,4|0,0:3|1:0,0:0:0:0:
233,239,14387,2,0,L|154:197,1,85
292,294,14744,2,0,L|371:252,2,85,0|0|0,1:0|0:0|0:0,0:0:0:0:
427,154,15280,5,0,0:0:0:0:
282,76,15458,2,0,L|331:162,1,85,0|0,1:0|0:0,0:0:0:0:
306,155,15726,1,0,0:0:0:0:
223,181,15815,2,0,P|132:164|102:97,1,170,0|0,0:0|1:0,0:0:0:0:
111,20,16351,1,0,0:0:0:0:
351,93,16530,6,0,P|391:107|411:143,1,85
424,181,16798,1,0,0:0:0:0:
410,223,16887,2,0,P|390:259|351:273,1,85,0|0,1:0|0:0,0:0:0:0:
159,272,17244,6,0,P|120:259|100:223,1,85
86,181,17512,1,0,0:0:0:0:
99,142,17601,2,0,P|119:106|159:93,1,85,0|0,1:0|0:0,0:0:0:0:
312,150,17958,6,0,L|215:158,1,85
370,235,18315,2,0,L|182:255,1,170,0|0,1:0|0:0,0:0:0:0:
407,47,19030,1,0,1:0:0:0:
115,99,19387,6,0,L|129:195,1,85,4|0,0:3|0:0,0:0:0:0:
276,340,19744,2,0,L|295:163,1,170,0|0,1:0|0:0,0:0:0:0:
204,106,20280,1,0,0:0:0:0:
376,32,20458,2,0,P|379:75|356:124,1,85,0|0,1:0|0:0,0:0:0:0:
459,303,20815,6,0,L|409:215,1,85
263,60,21173,2,0,L|248:170,1,85,0|0,1:0|0:0,0:0:0:0:
272,161,21440,1,0,0:0:0:0:
349,185,21530,2,0,P|427:165|449:87,1,170,0|0,0:0|1:0,0:0:0:0:
433,15,22065,1,0,0:0:0:0:
160,291,22244,6,0,P|120:277|100:241,1,85
87,203,22512,1,0,0:0:0:0:
101,161,22601,2,0,P|121:125|160:111,1,85,0|0,1:0|0:0,0:0:0:0:
352,112,22958,6,0,P|391:125|411:161,1,85
425,203,23226,1,0,0:0:0:0:
412,242,23315,2,0,P|392:278|352:291,1,85,0|0,1:0|0:0,0:0:0:0:
199,234,23672,6,0,L|296:226,1,85
141,149,24029,2,0,L|264:140,2,85,0|0|0,1:0|0:0|0:0,0:0:0:0:
408,337,24744,1,0,1:0:0:0:
115,285,25101,6,0,L|129:189,1,85,4|0,0:3|0:0,0:0:0:0:
297,112,25458,2,0,P|211:110|140:62,2,170,8|0|8,1:0|1:0|1:0,1:0:0:0:
135,271,26530,5,0,0:0:0:0:
72,252,26708,1,0,0:0:0:0:
143,261,26887,1,8,1:0:0:0:
65,266,27065,1,0,0:0:0:0:
236,168,27244,2,0,P|272:242|214:328,1,170,0|8,0:0|1:0,0:0:0:0:
125,317,27780,1,8,0:1:0:0:
235,315,27958,6,0,L|328:255,1,85
131,109,28315,2,0,P|72:156|129:205,1,170,8|0,1:0|0:0,0:0:0:0:
381,275,29030,2,0,P|440:228|383:179,1,170,8|2,1:0|0:0,0:0:0:0:
301,163,29565,5,2,0:0:0:0:
217,145,29744,1,8,0:1:0:0:
382,105,29923,1,2,0:0:0:0:
217,145,30101,2,0,L|234:287,1,127.5,0|2,0:0|0:0,0:0:0:0:
308,310,30458,2,0,P|315:266|302:229,1,85,8|0,0:1|0:0,0:0:0:0:
127,186,30815,6,0,P|115:131|168:30,1,170,0|8,0:0|1:0,0:0:0:0:
385,185,31530,2,0,P|393:103|348:33,1,170,0|8,0:0|1:0,0:0:0:0:
165,240,32244,6,0,L|207:161,1,85
347,240,32601,2,0,L|305:161,1,85,8|0,1:0|0:0,0:0:0:0:
149,36,32958,2,0,P|104:66|120:191,1,170,0|8,0:0|1:0,0:0:0:0:
188,200,33494,1,0,0:0:0:0:
363,36,33673,6,0,P|408:66|392:191,1,170,0|8,0:0|1:0,0:0:0:0:
324,200,34208,1,0,0:0:0:0:
148,347,34387,2,0,P|103:317|119:192,1,170,0|8,0:0|1:0,0:0:0:0:
188,200,34923,1,0,0:0:0:0:
50,45,35101,6,0,L|62:144,1,85
192,103,35458,2,0,L|204:202,1,85,8|0,1:0|0:0,0:0:0:0:
339,240,35815,2,0,P|401:201|410:85,1,170,0|8,0:0|1:0,0:0:0:0:
305,47,36351,1,0,0:0:0:0:
474,364,36530,6,0,L|482:264,1,85,4|0,0:1|0:0,0:0:0:0:
453,246,36798,1,0,0:0:0:0:
425,213,36887,1,0,0:0:0:0:
256,179,37065,1,0,0:0:0:0:
362,79,37244,2,0,P|385:119|353:168,1,85,8|0,0:0|0:0,0:0:0:0:
132,266,37780,1,0,0:0:0:0:
92,280,37869,1,0,0:0:0:0:
78,320,37958,5,0,0:0:0:0:
214,356,38137,2,0,L|256:313,2,42.5
109,175,38494,1,0,0:0:0:0:
274,215,38673,2,0,P|317:216|353:176,1,85,8|0,0:0|0:0,0:0:0:0:
172,112,39208,1,0,0:0:0:0:
150,75,39298,1,0,0:0:0:0:
129,36,39387,5,0,0:0:0:0:
284,167,39565,1,0,0:0:0:0:
307,130,39655,1,0,0:0:0:0:
328,92,39744,1,0,0:0:0:0:
173,270,39923,1,0,0:0:0:0:
150,307,40013,1,0,0:0:0:0:
129,345,40101,2,0,L|219:356,1,85
383,39,40458,2,0,L|293:28,1,85
431,109,40815,6,0,P|445:151|425:204,1,85,4|0,0:0|0:0,0:0:0:0:
275,195,41173,2,0,P|289:237|269:290,1,85,4|0,0:0|0:0,0:0:0:0:
125,274,41530,1,4,0:0:0:0:
74,315,41888,2,0,P|60:273|80:220,1,85,2|0,0:0|0:0,0:0:0:0:
225,94,42244,6,0,L|232:231,1,127.5,0|0,3:0|0:0,0:0:0:0:
125,274,42780,1,2,0:0:0:0:
292,384,42958,2,0,L|299:247,1,127.5,0|0,3:0|0:0,0:0:0:0:
192,205,43494,1,2,0:0:0:0:
374,32,43673,6,0,L|425:106,1,85,12|0,3:2|0:0,0:0:0:0:
272,34,44030,2,0,L|221:108,1,85,12|0,3:2|0:0,0:0:0:0:
374,218,44387,1,12,0:0:0:0:
422,295,44744,1,0,0:0:0:0:
315,315,44923,1,0,0:0:0:0:
72,254,45101,6,0,B|49:234|49:234|27:120,2,127.5,12|0|0,3:2|3:0|0:0,0:0:0:0:
222,116,45815,2,0,P|186:94|144:99,1,85,8|0,3:2|0:0,0:0:0:0:
18,318,46173,2,0,P|53:339|95:334,1,85,2|0,3:2|0:0,0:0:0:0:
248,369,46530,6,0,L|388:361,1,127.5
202,263,47065,1,0,0:0:0:0:
445,193,47244,1,0,0:0:0:0:
445,193,47601,1,0,0:0:0:0:
397,113,47780,1,0,0:0:0:0:
357,198,47958,5,4,0:3:0:0:
192,274,52244,5,4,0:0:0:0:
143,184,52601,1,4,0:0:0:0:
307,60,52958,2,0,L|300:161,1,85,4|0,0:0|0:0,0:0:0:0:
431,126,53315,2,0,L|424:227,1,85
262,249,53673,6,0,P|226:237|178:248,1,85,4|0,0:3|0:0,0:0:0:0:
147,270,53940,2,0,P|160:254|180:246,1,42.5,0|8,0:0|3:1,0:0:0:0:
312,329,54208,1,0,0:0:0:0:
147,271,54387,6,0,P|111:283|63:272,1,85
32,249,54654,2,0,P|45:266|65:274,1,42.5,0|8,0:0|3:1,0:0:0:0:
179,164,54922,1,0,0:0:0:0:
32,249,55101,6,0,P|22:178|58:120,1,127.5
86,112,55458,1,8,3:1:0:0:
251,121,55637,1,0,0:0:0:0:
144,195,55815,2,0,P|177:217|223:182,1,85
377,47,56173,2,0,P|344:25|298:60,1,85,8|0,3:1|0:0,0:0:0:0:
144,195,56530,5,0,1:0:0:0:
144,195,57780,6,0,P|212:229|323:208,1,170,0|0,1:0|1:0,0:0:0:0:
386,105,58315,1,0,1:0:0:0:
252,25,58494,1,0,1:0:0:0:
488,40,58673,2,0,L|475:237,1,170,0|8,1:0|1:0,0:0:0:0:
181,295,59387,6,0,L|84:291,1,85,4|0,0:3|0:0,0:0:0:0:
271,335,59744,2,0,P|309:284|294:205,1,127.5,8|0,1:0|0:0,0:0:0:0:
275,190,60101,1,0,0:0:0:0:
182,104,60280,1,0,0:0:0:0:
354,35,60458,2,0,L|347:130,1,85,8|0,1:0|0:0,0:0:0:0:
213,239,60815,6,0,P|169:254|114:242,1,85
299,145,61173,2,0,P|343:130|398:142,2,85,8|0|0,1:0|0:0|0:0,0:0:0:0:
55,336,61887,2,0,P|96:339|136:325,1,85,8|0,1:0|0:0,0:0:0:0:
299,144,62244,5,0,0:0:0:0:
128,195,62423,2,0,L|111:242,1,42.5
128,195,62601,2,0,L|220:195,1,85,8|0,1:0|0:0,0:0:0:0:
64,21,62958,5,0,0:0:0:0:
235,72,63137,2,0,L|252:119,1,42.5
235,72,63315,2,0,L|143:72,1,85,8|0,1:0|0:0,0:0:0:0:
322,109,63673,6,0,P|339:162|310:200,1,85
208,333,64030,2,0,P|191:280|220:242,1,85,8|0,1:0|0:0,0:0:0:0:
363,360,64387,6,0,L|271:364,1,85
40,294,64744,1,8,1:0:0:0:
160,94,65101,6,0,P|191:131|174:216,1,127.5,4|0,0:3|0:0,0:0:0:0:
152,233,65458,1,8,1:0:0:0:
40,294,65637,1,0,0:0:0:0:
202,336,65815,2,0,P|265:329|370:363,1,170,0|8,0:0|1:0,0:0:0:0:
439,283,66351,1,0,0:0:0:0:
283,148,66530,6,0,P|248:159|219:117,1,85
390,95,66887,2,0,P|425:84|454:126,1,85,8|0,1:0|0:0,0:0:0:0:
284,300,67244,2,0,P|241:228|286:156,1,170,0|8,0:0|1:0,0:0:0:0:
390,95,67780,1,0,0:0:0:0:
357,229,67958,5,0,0:0:0:0:
186,280,68137,2,0,L|169:327,1,42.5
186,280,68315,2,0,L|278:280,1,85,8|0,1:0|0:0,0:0:0:0:
122,106,68672,5,0,0:0:0:0:
293,157,68851,2,0,L|310:204,1,42.5
293,157,69029,2,0,L|201:157,1,85,8|0,1:0|0:0,0:0:0:0:
374,81,69387,5,0,0:0:0:0:
445,91,69565,1,0,0:0:0:0:
370,99,69744,1,8,1:0:0:0:
449,73,69922,1,0,0:0:0:0:
187,121,70101,6,0,P|131:171|188:219,1,170,0|8,0:0|1:0,0:0:0:0:
325,240,70637,1,0,0:0:0:0:
54,348,70815,6,0,L|63:173,1,170,4|8,0:3|1:0,0:0:0:0:
217,33,71351,2,0,L|261:78,1,42.5
306,115,71530,2,0,L|294:216,1,85
115,231,71887,2,0,L|127:332,1,85,8|0,1:0|0:0,0:0:0:0:
251,351,72244,6,0,P|297:355|332:317,1,85
473,199,72601,2,0,P|427:195|392:233,2,85,8|0|0,1:0|0:0|0:0,0:0:0:0:
271,60,73315,2,0,L|163:56,1,85,8|0,1:0|0:0,0:0:0:0:
63,191,73673,6,0,L|171:187,1,85
177,186,73940,1,0,0:0:0:0:
188,213,74030,1,8,1:0:0:0:
83,319,74208,1,0,0:0:0:0:
248,152,74387,6,0,L|356:148,1,85
362,147,74654,1,0,0:0:0:0:
373,174,74744,1,8,1:0:0:0:
268,280,74922,1,0,0:0:0:0:
439,344,75101,6,0,P|452:291|432:248,1,85
269,101,75458,2,0,P|256:154|276:197,1,85,8|0,1:0|0:0,0:0:0:0:
291,206,75726,1,0,0:0:0:0:
367,252,75815,6,0,L|355:346,1,85
76,357,76173,1,8,1:0:0:0:
34,327,76262,1,0,1:0:0:0:
19,278,76351,1,0,1:0:0:0:
42,233,76440,1,0,1:0:0:0:
88,210,76530,6,0,L|192:206,1,85,4|0,0:3|0:0,0:0:0:0:
354,277,76887,2,0,P|388:223|375:144,1,127.5,8|0,1:0|0:0,0:0:0:0:
312,133,77244,2,0,P|288:85|305:57,1,85
469,127,77601,2,0,P|493:79|476:51,1,85,8|0,1:0|0:0,0:0:0:0:
242,279,77958,6,0,P|218:231|235:203,1,85
399,273,78315,2,0,P|423:225|406:197,1,85,8|0,1:0|0:0,0:0:0:0:
260,356,78673,2,0,P|208:344|193:241,1,170,0|8,0:0|1:0,0:0:0:0:
278,173,79208,1,0,0:0:0:0:
449,193,79387,6,0,L|341:197,1,85
335,198,79654,1,0,0:0:0:0:
324,171,79744,1,8,1:0:0:0:
429,65,79922,1,0,0:0:0:0:
264,232,80101,6,0,L|156:236,1,85
150,237,80368,1,0,0:0:0:0:
139,210,80458,1,8,1:0:0:0:
244,104,80636,1,0,0:0:0:0:
73,40,80815,6,0,L|5:124,1,85
180,106,81173,2,0,L|112:190,1,85,8|0,1:0|0:0,0:0:0:0:
287,172,81530,6,0,L|171:326,2,170,0|8|0,0:0|1:0|0:0,0:0:0:0:
339,142,82423,5,0,0:0:0:0:
360,86,82601,1,0,0:0:0:0:
339,30,82780,1,0,0:0:0:0:
177,27,82958,2,0,L|143:77,2,42.5
291,87,83315,1,0,1:0:0:0:
177,27,83494,1,0,1:0:0:0:
431,203,83673,5,0,1:0:0:0:
376,225,83851,1,0,0:0:0:0:
356,281,84030,1,0,0:0:0:0:
380,334,84208,1,0,0:0:0:0:
218,331,84387,1,0,0:0:0:0:
189,321,84477,1,0,0:0:0:0:
161,311,84566,1,0,0:0:0:0:
271,232,84744,1,0,1:0:0:0:
161,152,84923,1,0,1:0:0:0:
421,32,85101,5,0,1:0:0:0:
471,64,85280,1,0,0:0:0:0:
494,118,85458,1,0,0:0:0:0:
471,173,85637,1,0,0:0:0:0:
309,170,85815,2,0,L|282:127,2,42.5
441,232,86173,2,0,P|450:277|434:322,1,85,0|0,1:0|1:0,0:0:0:0:
132,357,86530,5,0,1:0:0:0:
76,335,86708,1,0,0:0:0:0:
47,282,86887,1,0,1:0:0:0:
75,229,87065,1,0,0:0:0:0:
231,135,87244,1,0,1:0:0:0:
202,126,87333,1,0,0:0:0:0:
173,117,87423,1,0,0:0:0:0:
47,74,87601,1,0,1:0:0:0:
76,65,87690,1,0,0:0:0:0:
105,56,87780,1,0,0:0:0:0:
223,32,87958,5,0,1:0:0:0:
356,57,88137,1,0,0:0:0:0:
250,109,88315,1,0,0:0:0:0:
356,57,88494,1,0,0:0:0:0:
108,246,88673,1,0,0:0:0:0:
68,230,88762,1,0,0:0:0:0:
48,192,88851,1,0,0:0:0:0:
64,134,89030,1,0,1:0:0:0:
115,104,89208,1,0,1:0:0:0:
238,85,89387,5,0,1:0:0:0:
352,159,89565,1,0,0:0:0:0:
238,85,89744,1,0,0:0:0:0:
352,159,89923,1,0,0:0:0:0:
111,266,90101,1,0,0:0:0:0:
132,302,90190,1,0,0:0:0:0:
154,338,90280,1,0,0:0:0:0:
236,355,90458,1,0,1:0:0:0:
265,275,90637,1,0,1:0:0:0:
174,126,90815,5,0,1:0:0:0:
39,223,90994,1,0,0:0:0:0:
144,47,91173,1,0,0:0:0:0:
39,223,91351,1,0,0:0:0:0:
306,30,91530,1,0,0:0:0:0:
347,47,91619,1,0,0:0:0:0:
367,85,91708,1,0,0:0:0:0:
351,143,91887,1,0,1:0:0:0:
300,173,92065,1,0,1:0:0:0:
152,90,92244,5,0,1:0:0:0:
38,167,92423,1,0,0:0:0:0:
152,90,92601,1,0,1:0:0:0:
38,167,92780,1,0,0:0:0:0:
287,265,92958,5,0,1:0:0:0:
315,256,93047,1,0,0:0:0:0:
343,248,93136,1,0,0:0:0:0:
494,321,93315,1,0,1:0:0:0:
466,312,93404,1,0,0:0:0:0:
438,304,93493,1,0,0:0:0:0:
287,154,93673,5,0,1:0:0:0:
315,145,93762,1,0,0:0:0:0:
343,137,93851,1,0,0:0:0:0:
494,210,94030,1,0,1:0:0:0:
466,201,94119,1,0,0:0:0:0:
438,193,94208,1,0,0:0:0:0:
287,43,94387,6,0,L|243:91,2,42.5,0|0|0,1:0|0:0|0:0,0:0:0:0:
438,78,94744,2,0,L|482:126,2,42.5,0|0|0,1:0|0:0|0:0,0:0:0:0:
299,192,95101,6,0,L|214:192,1,85,0|0,1:0|1:0,0:0:0:0:
185,181,95369,1,0,0:0:0:0:
124,107,95458,2,0,L|209:107,1,85,0|0,1:0|1:0,0:0:0:0:
237,117,95726,1,0,0:0:0:0:
185,181,95815,5,0,1:0:0:0:
159,196,95905,1,0,0:0:0:0:
147,223,95994,1,0,1:0:0:0:
154,251,96083,1,0,0:0:0:0:
235,233,96173,5,0,1:0:0:0:
261,248,96263,1,0,0:0:0:0:
273,275,96352,1,0,1:0:0:0:
266,303,96441,1,0,0:0:0:0:
204,287,96530,5,0,0:0:0:0:
129,180,96887,1,0,0:0:0:0:
165,66,97244,1,0,0:0:0:0:
277,26,97601,1,0,0:0:0:0:
52,88,97958,5,4,0:1:0:0:
168,288,106530,6,0,P|256:57|344:288,1,637.500024318696
267,321,109387,6,0,P|198:341|88:112,1,382.500014591218,4|0,0:3|0:0,0:0:0:0:
245,321,110815,2,0,P|314:341|424:112,1,382.500014591218
208,26,112244,6,0,L|82:264,2,255.000009727478
382,66,114387,2,0,P|404:118|376:194,1,127.500004863739
152,299,115101,6,0,P|22:193|150:86,1,382.500014591218
359,85,116530,2,0,P|489:191|361:298,1,382.500014591218
256,192,117958,12,0,120458,0:0:0:0:
192,192,120815,5,4,0:0:0:0:
320,192,121530,1,4,0:0:0:0:
115,191,122244,6,0,P|70:239|69:321,2,127.500004863739,4|0|4,0:0|0:0|0:0,0:0:0:0:
343,191,123315,1,0,0:0:0:0:
194,45,123673,6,0,P|108:94|143:235,1,255.000009727478,4|4,0:0|0:0,0:0:0:0:
281,349,124744,1,0,0:0:0:0:
134,229,125101,6,0,L|182:159,2,63.7500024318696,4|0|0,0:0|0:0|0:0,0:0:0:0:
333,158,125815,1,4,0:0:0:0:
134,229,126173,1,0,0:0:0:0:
378,229,126530,6,0,P|412:193|413:144,1,85,4|0,0:0|0:0,0:0:0:0:
286,38,126887,2,0,P|200:58|133:6,1,170,8|0,0:1|0:0,0:0:0:0:
254,222,127601,2,0,P|296:217|336:231,1,85,8|0,0:1|0:0,0:0:0:0:
129,301,127958,5,0,0:0:0:0:
78,291,128137,1,0,0:0:0:0:
129,301,128315,1,8,0:1:0:0:
78,291,128494,1,0,0:0:0:0:
243,362,128673,2,0,P|280:301|244:191,1,170,0|8,0:0|0:1,0:0:0:0:
177,141,129208,1,0,0:0:0:0:
331,11,129387,6,0,L|331:104,1,85
308,116,129655,1,0,0:0:0:0:
224,117,129744,2,0,L|224:210,1,85,8|0,0:1|0:0,0:0:0:0:
247,222,130012,1,0,0:0:0:0:
331,221,130101,6,0,L|331:128,1,85
308,116,130369,1,0,0:0:0:0:
224,115,130458,2,0,L|224:22,1,85,8|0,0:1|0:0,0:0:0:0:
247,10,130726,1,0,0:0:0:0:
331,11,130815,5,0,0:0:0:0:
352,66,130994,1,0,0:0:0:0:
314,112,131173,1,0,0:0:0:0:
257,93,131351,1,0,0:0:0:0:
21,273,131530,6,0,P|102:232|192:267,1,170,4|8,0:3|1:0,0:0:0:0:
333,322,132155,1,0,0:0:0:0:
376,290,132244,2,0,B|396:245|396:245|373:204,1,85
229,158,132601,2,0,B|209:113|209:113|232:72,1,85,8|0,1:0|0:0,0:0:0:0:
375,47,132958,6,0,P|332:29|281:37,1,85
118,158,133315,2,0,P|161:176|212:168,1,85,8|0,1:0|0:0,0:0:0:0:
375,316,133672,2,0,P|306:279|203:328,1,170,0|8,0:0|1:0,0:0:0:0:
296,379,134208,1,0,0:0:0:0:
416,231,134387,5,0,0:0:0:0:
296,167,134565,2,0,L|214:157,2,42.5,0|0|8,0:0|0:0|1:0,0:0:0:0:
396,86,134922,1,0,0:0:0:0:
253,161,135101,1,0,0:0:0:0:
396,86,135279,2,0,L|478:76,2,42.5,0|0|8,0:0|0:0|1:0,0:0:0:0:
296,5,135636,1,0,0:0:0:0:
136,69,135815,6,0,P|138:119|172:156,1,85
312,212,136172,2,0,P|314:262|348:299,1,85,8|0,1:0|0:0,0:0:0:0:
56,357,136530,2,0,L|124:186,1,170,0|8,0:0|1:0,0:0:0:0:
443,301,137244,6,0,P|394:313|313:265,1,127.5,4|0,0:3|0:0,0:0:0:0:
299,242,137601,1,8,1:0:0:0:
385,155,137780,1,0,0:0:0:0:
232,80,137958,2,0,L|225:184,1,85
397,189,138315,2,0,L|404:293,1,85,8|0,1:0|0:0,0:0:0:0:
237,319,138672,6,0,P|283:338|326:326,1,85
466,188,139030,2,0,P|420:169|377:181,1,85,8|0,1:0|0:0,0:0:0:0:
229,129,139387,2,0,P|292:100|264:4,1,170,0|8,0:0|1:0,0:0:0:0:
216,167,139922,1,0,0:0:0:0:
88,242,140101,5,0,0:0:0:0:
216,167,140279,2,0,L|298:157,2,42.5,0|0|8,0:0|0:0|1:0,0:0:0:0:
116,86,140636,1,0,0:0:0:0:
258,161,140815,1,0,0:0:0:0:
116,86,140994,2,0,L|34:76,2,42.5,0|0|8,0:0|0:0|1:0,0:0:0:0:
216,5,141350,1,0,0:0:0:0:
376,69,141529,6,0,P|374:119|340:156,1,85
175,200,141887,2,0,P|177:250|211:287,1,85,8|0,1:0|0:0,0:0:0:0:
481,359,142244,2,0,L|303:351,1,170,0|8,0:0|1:0,0:0:0:0:
357,247,142780,1,0,0:0:0:0:
90,309,142958,6,0,P|47:256|52:209,1,85,4|0,0:3|0:0,0:0:0:0:
202,172,143315,2,0,P|219:133|198:51,1,127.5,8|0,1:0|0:0,0:0:0:0:
162,24,143672,1,0,0:0:0:0:
24,151,143851,1,0,0:0:0:0:
186,266,144030,2,0,P|202:218|179:168,1,85,8|0,1:0|0:0,0:0:0:0:
93,100,144387,6,0,P|146:104|181:78,1,85
335,23,144744,2,0,P|282:19|247:45,2,85,8|0|0,1:0|0:0|0:0,0:0:0:0:
474,143,145458,2,0,L|461:233,1,85,8|0,1:0|0:0,0:0:0:0:
288,245,145815,6,0,P|259:275|218:280,1,85
186,266,146083,1,0,0:0:0:0:
154,252,146173,1,8,1:0:0:0:
261,155,146351,1,0,0:0:0:0:
76,90,146530,6,0,P|105:60|146:55,1,85
178,69,146798,1,0,0:0:0:0:
210,83,146888,1,8,1:0:0:0:
103,180,147066,1,0,0:0:0:0:
348,292,147244,6,0,P|394:291|435:335,1,85
253,337,147601,2,0,P|207:338|166:294,1,85,8|0,1:0|0:0,0:0:0:0:
348,292,147958,2,0,P|394:291|435:335,1,85
253,337,148315,1,8,1:0:0:0:
209,309,148405,1,0,1:0:0:0:
189,261,148494,1,0,1:0:0:0:
213,216,148583,1,0,1:0:0:0:
258,192,148672,6,0,L|114:186,1,127.5,4|0,0:3|0:0,0:0:0:0:
196,100,149030,2,0,P|238:90|283:113,1,85,8|0,1:0|0:0,0:0:0:0:
446,225,149387,2,0,P|390:246|307:182,1,170,0|8,0:0|1:0,0:0:0:0:
350,59,149922,1,0,0:0:0:0:
464,120,150101,6,0,P|418:111|400:164,1,85
222,229,150458,2,0,P|176:238|158:185,1,85,8|0,1:0|0:0,0:0:0:0:
331,338,150815,1,0,0:0:0:0:
331,338,151172,1,8,1:0:0:0:
296,313,151351,1,0,0:0:0:0:
425,278,151530,6,0,P|458:217|429:102,1,170,0|8,0:0|1:0,0:0:0:0:
361,87,152065,1,0,0:0:0:0:
87,106,152244,6,0,P|54:167|83:282,1,170,0|8,0:0|1:0,0:0:0:0:
151,297,152779,1,0,0:0:0:0:
425,278,152958,6,0,L|510:266,1,85
371,196,153315,2,0,L|456:184,1,85,8|0,1:0|0:0,0:0:0:0:
275,121,153672,2,0,L|460:96,1,170,0|0,0:0|1:0,0:0:0:0:
396,27,154208,1,0,0:0:0:0:
443,98,154387,5,0,0:0:0:0:
230,218,154744,2,0,P|189:178|212:108,1,127.500004863739
325,272,155458,2,0,P|343:306|337:358,1,63.7500024318696
194,368,155815,6,0,L|52:362,1,127.500004863739
263,228,156530,2,0,L|405:234,1,127.500004863739
175,157,157244,6,0,L|90:153,1,63.7500024318696
87,124,157511,1,0,0:0:0:0:
82,85,157601,1,0,0:0:0:0:
205,48,157780,1,0,0:0:0:0:
304,162,157958,6,0,L|389:165,1,63.7500024318696
394,136,158225,1,0,0:0:0:0:
402,97,158315,1,0,0:0:0:0:
282,50,158494,1,0,0:0:0:0:
131,154,158672,6,0,P|70:142|3:149,2,127.500004863739
63,222,159565,1,0,0:0:0:0:
121,297,159744,1,0,0:0:0:0:
52,363,159922,1,0,0:0:0:0:
205,364,160101,6,0,P|243:301|245:238,1,127.500004863739
420,40,160815,2,0,P|382:103|380:166,1,127.500004863739
463,204,161351,1,0,0:0:0:0:
317,282,161530,6,0,L|171:273,1,127.500004863739
11,196,162244,2,0,P|71:178|157:187,1,127.500004863739
403,230,162958,5,0,0:0:0:0:
118,100,163672,1,0,0:0:0:0:
433,26,164387,6,0,P|415:99|354:120,2,127.500004863739
395,35,165280,1,0,0:0:0:0:
358,45,165458,1,0,0:0:0:0:
