osu file format v14

[General]
AudioFilename: GReeeeN - Shinobi.mp3
AudioLeadIn: 0
PreviewTime: 131530
Countdown: 0
SampleSet: Soft
StackLeniency: 0.7
Mode: 2
LetterboxInBreaks: 0
WidescreenStoryboard: 0

[Editor]
Bookmarks: 13494
DistanceSpacing: 1.9
BeatDivisor: 4
GridSize: 16
TimelineZoom: 2.899999

[Metadata]
Title:Shinobi
TitleUnicode:忍
Artist:GReeeeN
ArtistUnicode:GReeeeN
Creator:_Asriel
Version:Collab Rain
Source:Teenage Mutant Ninja Turtles
Tags:Kirigaya- 224 224dj Frobe Brobe TMNT Teenage Mutant Ninja Turtles 2012 Nickelodeon
BeatmapID:747304
BeatmapSetID:335338

[Difficulty]
HPDrainRate:6
CircleSize:4
OverallDifficulty:9
ApproachRate:9
SliderMultiplier:2.1
SliderTickRate:2

[Events]
//Background and Video events
0,0,"BG.png",0,0
//Break Periods
2,48158,51644
2,98158,105930
//Storyboard Layer 0 (Background)
//Storyboard Layer 1 (Fail)
//Storyboard Layer 2 (Pass)
//Storyboard Layer 3 (Foreground)
//Storyboard Sound Samples

[TimingPoints]
816,357.142857142857,4,3,0,70,1,0
12958,-133.333333333333,4,1,0,60,0,0
25101,-111.111111111111,4,3,0,40,0,0
29387,-100,4,3,0,60,0,0
30815,-125,4,3,0,40,0,0
33315,-100,4,3,0,60,0,0
34744,-100,4,3,0,50,0,0
35101,-111.111111111111,4,3,0,40,0,0
35458,-125,4,3,0,30,0,0
35815,-142.857142857143,4,3,0,20,0,0
36173,-100,4,3,0,10,0,0
36530,-83.3333333333333,4,3,0,50,0,0
40815,-100,4,3,0,40,0,0
42244,-83.3333333333333,4,3,0,30,0,0
46530,-125,4,3,0,30,0,0
47601,-133.333333333333,4,2,0,30,0,0
52958,-100,4,3,0,50,0,0
53673,-83.3333333333333,4,3,0,60,0,0
56530,-83.3333333333333,4,3,0,40,0,0
59030,-76.9230769230769,4,3,0,70,0,1
82244,-90.9090909090909,4,3,0,40,0,0
88137,-90.9090909090909,4,3,0,50,0,0
96530,-133.333333333333,4,2,0,20,0,0
97958,-133.333333333333,4,2,0,20,0,0
109387,-181.818181818181,4,2,0,20,0,0
120815,-100,4,1,0,60,0,0
131530,357.142857142857,4,1,0,60,1,0
131530,-76.9230769230769,4,3,0,70,0,0
132244,-76.9230769230769,4,3,0,70,0,1
152958,-100,4,3,0,70,0,1
154387,-133.333333333333,4,2,0,30,0,0

[Colours]
Combo1 : 81,81,255
Combo2 : 0,128,255
Combo3 : 0,128,192
Combo4 : 128,128,255

[HitObjects]
112,256,1530,5,2,0:0:0:0:
400,256,1887,1,0,0:0:0:0:
176,192,2244,6,0,P|96:208|48:208,1,105,2|0,0:0|0:0,0:0:0:0:
192,96,2601,2,0,P|240:112|288:144,2,105
368,336,3315,1,0,0:0:0:0:
176,336,3494,1,0,0:0:0:0:
304,304,3672,5,0,0:0:0:0:
262,234,3851,1,0,0:0:0:0:
262,153,4029,1,0,0:0:0:0:
303,82,4208,1,0,0:0:0:0:
376,40,4386,1,0,0:0:0:0:
208,32,4744,5,0,0:0:0:0:
464,208,4923,1,0,0:0:0:0:
400,144,5101,5,2,0:0:0:0:
128,144,5280,2,0,L|64:144,2,52.5
256,112,5637,1,0,0:0:0:0:
128,112,5815,5,2,0:0:0:0:
384,144,5994,2,0,L|448:144,2,52.5
256,112,6351,1,0,0:0:0:0:
288,176,6529,5,4,0:0:0:0:
160,176,6708,1,0,0:0:0:0:
304,240,6887,1,0,0:0:0:0:
64,240,7065,1,0,0:0:0:0:
208,240,7244,2,0,P|240:192|128:112,1,210,4|0,0:0|0:0,0:0:0:0:
416,128,7958,6,0,P|400:208|320:240,1,157.5,2|0,0:0|0:0,0:0:0:0:
272,240,8315,1,0,0:0:0:0:
432,240,8494,1,0,0:0:0:0:
176,144,8673,2,0,P|128:112|208:48,1,157.5
240,32,9030,1,0,0:0:0:0:
80,48,9208,1,0,0:0:0:0:
352,64,9387,5,2,0:0:0:0:
448,160,9565,1,0,0:0:0:0:
304,208,9744,1,0,0:0:0:0:
400,304,9922,1,0,0:0:0:0:
240,304,10101,1,2,0:0:0:0:
80,304,10280,6,0,L|48:352,2,52.5
192,240,10637,1,0,0:0:0:0:
464,224,10815,6,0,P|416:128|400:112,1,105,4|0,0:0|0:0,0:0:0:0:
336,112,11083,1,0,0:0:0:0:
256,96,11172,2,0,P|208:144|208:208,1,105
288,192,11440,1,0,0:0:0:0:
368,192,11529,6,0,P|336:256|288:288,1,105,4|0,0:0|0:0,0:0:0:0:
224,288,11797,1,0,0:0:0:0:
144,288,11886,1,0,0:0:0:0:
304,304,12065,1,0,0:0:0:0:
448,304,12244,6,0,P|384:272|336:272,1,105,4|0,0:0|0:0,0:0:0:0:
176,256,12601,2,0,P|256:224|304:224,1,105
448,97,12958,2,0,P|442:173|384:224,1,157.500006008148
208,224,13494,1,0,0:0:0:0:
96,176,13673,6,0,P|112:96|160:80,1,118.125004506111
224,96,14030,2,0,P|240:144|240:192,1,78.7500030040742
102,221,14387,2,0,P|83:292|144:336,1,157.500006008148
272,304,14923,1,0,0:0:0:0:
416,240,15101,6,0,L|400:144,1,78.7500030040742
240,82,15458,2,0,L|256:160,1,78.7500030040742
400,64,15815,1,0,0:0:0:0:
112,64,16173,1,0,0:0:0:0:
240,64,16351,1,0,0:0:0:0:
368,96,16530,6,0,P|384:176|336:224,1,118.125004506111
288,224,16887,2,0,L|208:240,1,78.7500030040742
384,304,17244,2,0,P|400:240|384:128,1,157.500006008148
272,112,17780,5,0,0:0:0:0:
32,96,17958,2,0,P|96:128|112:128,1,78.7500030040742
224,192,18315,2,0,P|176:176|144:176,1,78.7500030040742
400,192,18673,5,2,0:0:0:0:
112,192,19030,1,0,0:0:0:0:
400,192,19387,6,0,P|400:240|384:320,1,118.125004506111
304,320,19744,2,0,L|208:320,1,78.7500030040742
80,176,20101,2,0,P|158:178|235:193,1,157.500006008148
368,208,20637,1,0,0:0:0:0:
96,176,20815,5,0,0:0:0:0:
176,128,20994,1,0,0:0:0:0:
416,176,21173,1,0,0:0:0:0:
384,80,21352,1,0,0:0:0:0:
128,112,21530,2,0,P|128:176|192:208,1,118.125004506111
240,208,21887,1,0,0:0:0:0:
384,160,22065,1,0,0:0:0:0:
144,112,22244,6,0,P|128:192|160:224,1,118.125004506111
224,224,22601,2,0,L|304:224,1,78.7500030040742
32,272,22958,2,0,L|192:272,1,157.500006008148
480,272,23494,6,0,L|320:272,1,157.500006008148
176,240,24029,1,0,0:0:0:0:
304,192,24208,1,0,0:0:0:0:
160,144,24387,2,0,P|203:85|288:80,1,157.500006008148
96,240,25101,6,0,P|160:208|208:208,1,94.499997116089,4|0,0:0|0:0,0:0:0:0:
320,208,25458,2,0,P|256:240|224:240,1,94.499997116089
80,224,25815,2,0,P|48:160|48:112,1,94.499997116089
208,208,26173,2,0,P|176:144|176:96,1,94.499997116089
336,192,26530,5,4,0:0:0:0:
96,272,26708,1,0,0:0:0:0:
224,224,26886,1,0,0:0:0:0:
192,128,27065,1,0,0:0:0:0:
80,64,27244,5,4,0:0:0:0:
272,112,27423,1,0,0:0:0:0:
160,48,27601,1,0,0:0:0:0:
336,96,27780,1,0,0:0:0:0:
96,160,27958,6,0,L|128:256,1,94.499997116089,4|0,0:0|0:0,0:0:0:0:
288,160,28315,2,0,L|320:256,1,94.499997116089,4|0,0:0|0:0,0:0:0:0:
160,160,28673,2,0,L|192:256,1,94.499997116089,4|0,0:0|0:0,0:0:0:0:
432,160,29030,2,0,L|464:256,1,94.499997116089,4|0,0:0|0:0,0:0:0:0:
192,240,29387,5,2,0:0:0:0:
336,192,29565,1,0,0:0:0:0:
80,192,29744,1,0,0:0:0:0:
336,192,29923,1,0,0:0:0:0:
192,160,30101,2,0,P|256:224|176:304,1,210
448,192,30637,1,0,0:0:0:0:
208,320,30815,6,0,L|160:224,1,84
304,192,31173,2,0,L|352:96,1,84
208,80,31530,2,0,L|112:80,1,84
256,160,31887,2,0,L|160:160,1,84
416,256,32244,1,0,0:0:0:0:
320,320,32423,5,0,0:0:0:0:
160,368,32601,1,0,0:0:0:0:
96,208,32780,1,0,0:0:0:0:
224,320,32958,1,0,0:0:0:0:
400,304,33315,6,0,P|384:224|368:192,1,105
48,32,33673,1,4,0:0:0:0:
176,304,34030,6,0,P|224:240|272:240,1,105
512,176,34388,1,4,0:0:0:0:
304,176,34744,6,0,P|256:112|240:80,1,105
128,80,35101,2,0,P|192:112|240:128,1,94.499997116089
272,144,35369,2,0,L|336:160,1,47.2499985580445
64,160,35637,2,0,P|112:224|128:240,2,84
256,240,36173,2,0,L|128:240,1,105
416,176,36530,6,0,L|480:176,2,62.9999980773926,4|0|0,0:0|0:0|0:0,0:0:0:0:
288,288,36887,2,0,L|240:240,2,62.9999980773926
432,272,37244,1,0,0:0:0:0:
176,256,37423,2,0,P|160:176|256:144,1,188.999994232178
400,96,37780,5,0,0:0:0:0:
430,155,37869,1,0,0:0:0:0:
400,208,37958,1,4,0:0:0:0:
256,224,38137,1,0,0:0:0:0:
288,288,38226,1,0,0:0:0:0:
352,320,38315,1,0,0:0:0:0:
176,352,38494,1,0,0:0:0:0:
226,352,38583,1,0,0:0:0:0:
292,352,38672,1,4,0:0:0:0:
48,320,38851,6,0,P|32:240|160:112,1,251.999992309571
192,112,39298,1,0,0:0:0:0:
352,112,39387,2,0,P|384:208|368:272,1,125.999996154785,4|0,0:0|0:0,0:0:0:0:
320,240,39655,1,0,0:0:0:0:
224,240,39744,2,0,P|223:176|272:112,1,125.999996154785
304,112,40012,1,0,0:0:0:0:
464,112,40101,6,0,P|496:192|496:240,1,125.999996154785,4|0,0:0|0:0,0:0:0:0:
256,272,40458,1,0,0:0:0:0:
384,288,40637,1,0,0:0:0:0:
144,240,40815,6,0,P|80:176|64:144,1,105,2|0,0:0|0:0,0:0:0:0:
208,128,41173,2,0,P|256:64|272:16,1,105
96,48,41530,1,2,0:0:0:0:
272,224,41887,2,0,P|256:160|208:112,1,105
80,96,42244,6,0,P|240:96|256:16,1,251.999992309571,4|0,0:0|0:0,0:0:0:0:
112,32,42780,1,0,0:0:0:0:
368,112,42958,2,0,P|416:208|384:272,1,125.999996154785
144,112,43315,2,0,P|96:208|128:272,1,125.999996154785
256,288,43673,6,0,P|336:240|336:208,1,125.999996154785,4|0,0:0|0:0,0:0:0:0:
320,160,43940,1,0,0:0:0:0:
256,288,44030,2,0,P|176:240|176:208,1,125.999996154785
224,160,44297,1,0,0:0:0:0:
322,208,44387,2,0,P|368:176|336:64,1,188.999994232178
256,48,44744,2,0,L|128:48,1,125.999996154785
304,272,45101,6,0,P|368:160|240:80,1,251.999992309571,2|0,0:0|0:0,0:0:0:0:
432,80,45637,1,0,0:0:0:0:
96,272,45815,1,0,0:0:0:0:
256,272,45994,1,0,0:0:0:0:
128,192,46173,1,0,0:0:0:0:
288,192,46351,1,0,0:0:0:0:
464,352,46530,6,0,L|336:16,1,336,2|0,0:0|0:0,0:0:0:0:
192,240,47601,1,0,0:0:0:0:
112,176,47780,1,0,0:0:0:0:
432,176,47958,1,0,0:0:0:0:
272,208,52244,5,0,0:0:0:0:
160,208,52601,1,0,0:0:0:0:
384,208,52958,1,0,0:0:0:0:
96,176,53137,2,0,P|176:128|224:112,1,105
352,112,53494,1,0,0:0:0:0:
96,176,53673,6,0,L|32:192,1,62.9999980773926,2|0,0:0|0:0,0:0:0:0:
64,240,53851,1,0,0:0:0:0:
192,224,54030,2,0,L|176:368,1,125.999996154785
416,176,54387,6,0,L|480:192,1,62.9999980773926,2|0,0:0|0:0,0:0:0:0:
448,240,54565,1,0,0:0:0:0:
320,224,54744,2,0,L|368:368,1,125.999996154785
112,112,55101,2,0,P|96:192|256:288,1,251.999992309571
96,80,55637,1,0,0:0:0:0:
256,80,55815,2,0,P|336:112|400:96,2,125.999996154785
416,128,56351,1,0,0:0:0:0:
96,128,56530,5,0,0:0:0:0:
256,192,56619,12,0,57601,0:0:0:0:
176,112,57780,6,0,L|432:288,1,251.999992309571,4|0,0:0|0:0,0:0:0:0:
224,272,58316,1,0,0:0:0:0:
480,272,58494,1,0,0:0:0:0:
384,272,58673,2,0,P|320:256|256:144,1,188.999994232178
432,144,59030,2,0,L|448:0,1,136.499993751526
208,128,59387,6,0,P|150:135|64:272,1,204.749990627289
128,272,59744,1,0,0:0:0:0:
288,256,59923,1,0,0:0:0:0:
144,224,60101,2,0,P|112:144|256:80,1,272.999987503052
384,128,60637,1,0,0:0:0:0:
112,160,60815,6,0,P|80:256|96:288,1,136.499993751526
240,288,61173,1,0,0:0:0:0:
80,336,61352,1,0,0:0:0:0:
320,176,61530,2,0,P|384:224|320:304,1,204.749990627289
256,272,61887,2,0,L|400:272,1,136.499993751526
128,304,62244,6,0,P|112:224|192:128,1,204.749990627289
256,112,62601,1,0,0:0:0:0:
416,96,62780,1,0,0:0:0:0:
256,64,62958,2,0,P|224:144|256:192,1,136.499993751526
384,208,63315,2,0,P|400:304|352:320,1,136.499993751526
144,224,63673,5,0,0:0:0:0:
272,160,63851,1,0,0:0:0:0:
80,160,64030,1,4,0:0:0:0:
208,96,64208,1,0,0:0:0:0:
448,208,64387,5,4,0:0:0:0:
288,208,64565,1,0,0:0:0:0:
400,160,64744,2,0,P|448:80|368:32,1,204.749990627289
192,304,65101,6,0,P|112:256|128:144,1,204.749990627289
160,112,65458,1,0,0:0:0:0:
400,112,65637,1,0,0:0:0:0:
272,128,65815,6,0,P|192:176|144:224,1,136.499993751526,4|0,0:0|0:0,0:0:0:0:
336,256,66173,1,0,0:0:0:0:
288,160,66351,1,0,0:0:0:0:
448,160,66530,5,0,0:0:0:0:
144,272,66708,2,0,L|224:144,1,136.499993751526
64,144,67065,1,0,0:0:0:0:
352,144,67244,2,0,P|371:224|320:288,1,136.499993751526
208,272,67601,5,0,0:0:0:0:
64,208,67780,1,0,0:0:0:0:
400,48,67958,6,0,L|192:48,1,204.749990627289,4|0,0:0|0:0,0:0:0:0:
112,48,68315,1,0,0:0:0:0:
256,96,68494,1,0,0:0:0:0:
112,160,68673,6,4,L|336:160,1,204.749990627289,4|0,0:0|0:0,0:0:0:0:
400,160,69030,2,0,P|352:80|272:64,1,136.499993751526
96,320,69387,6,0,L|80:176,1,136.499993751526
240,192,69744,2,0,L|256:48,1,136.499993751526
400,64,70101,5,0,0:0:0:0:
454,103,70190,1,0,0:0:0:0:
462,169,70279,1,0,0:0:0:0:
420,220,70368,1,0,0:0:0:0:
354,224,70458,1,0,0:0:0:0:
176,224,70637,1,0,0:0:0:0:
448,192,70815,6,0,P|432:272|320:320,1,204.749990627289,4|0,0:0|0:0,0:0:0:0:
256,320,71173,1,0,0:0:0:0:
416,320,71351,1,0,0:0:0:0:
128,304,71530,6,0,P|128:192|240:144,1,204.749990627289,4|0,0:0|0:0,0:0:0:0:
288,176,71887,2,0,P|272:64|224:0,1,136.499993751526,0|4,0:0|0:0,0:0:0:0:
112,48,72244,5,4,0:0:0:0:
240,80,72423,1,0,0:0:0:0:
80,160,72601,1,0,0:0:0:0:
208,192,72780,1,0,0:0:0:0:
352,224,72958,2,0,P|416:272|368:368,1,204.749990627289,4|0,0:0|0:0,0:0:0:0:
272,368,73315,2,0,P|256:288|272:208,1,136.499993751526
416,192,73673,5,0,0:0:0:0:
160,208,73851,2,0,L|176:288,1,68.2499968757631
256,304,74030,1,0,0:0:0:0:
416,336,74208,1,0,0:0:0:0:
176,352,74387,6,0,P|96:304|80:192,1,204.749990627289,4|0,0:0|0:0,0:0:0:0:
160,192,74744,5,0,0:0:0:0:
320,160,74922,1,0,0:0:0:0:
64,176,75101,5,0,0:0:0:0:
144,96,75279,1,0,0:0:0:0:
448,176,75458,1,0,0:0:0:0:
368,96,75636,1,0,0:0:0:0:
192,96,75815,2,0,L|160:32,2,68.2499968757631
320,240,76173,2,0,P|384:160|352:64,1,204.749990627289
96,304,76530,6,0,P|80:208|144:128,1,204.749990627289
224,112,76887,1,0,0:0:0:0:
368,112,77065,1,0,0:0:0:0:
112,320,77244,6,0,P|80:240|80:160,1,136.499993751526,4|0,0:0|0:0,0:0:0:0:
208,144,77601,1,0,0:0:0:0:
464,144,77780,1,0,0:0:0:0:
176,224,77958,6,0,P|112:176|112:96,1,136.499993751526
368,144,78315,1,4,0:0:0:0:
240,96,78493,1,0,0:0:0:0:
368,48,78672,1,4,0:0:0:0:
80,240,79030,6,0,P|80:160|128:128,1,136.499993751526
272,128,79387,2,0,P|336:192|288:288,1,204.749990627289,4|0,0:0|0:0,0:0:0:0:
224,288,79744,1,0,0:0:0:0:
384,288,79923,1,0,0:0:0:0:
240,128,80101,6,0,P|176:192|224:288,1,204.749990627289,4|0,0:0|0:0,0:0:0:0:
288,288,80458,1,0,0:0:0:0:
128,288,80637,1,0,0:0:0:0:
400,256,80815,2,0,L|432:96,1,136.499993751526
112,256,81173,2,0,L|80:96,1,136.499993751526
336,176,81530,6,0,L|352:96,1,68.2499968757631
256,112,81708,2,0,L|240:16,1,68.2499968757631
336,176,81887,2,0,L|352:96,1,68.2499968757631
256,112,82065,2,0,L|240:16,1,68.2499968757631
480,208,82244,5,4,0:0:0:0:
336,144,82423,1,0,0:0:0:0:
480,208,82601,1,4,0:0:0:0:
336,144,82780,1,0,0:0:0:0:
192,128,82958,2,0,P|128:192|160:272,1,173.250005287171
224,288,83315,1,0,0:0:0:0:
368,320,83494,1,0,0:0:0:0:
32,208,83673,5,0,0:0:0:0:
176,144,83852,1,0,0:0:0:0:
32,208,84030,1,4,0:0:0:0:
176,144,84209,1,0,0:0:0:0:
320,128,84387,2,0,P|384:192|352:272,1,173.250005287171
288,288,84744,1,0,0:0:0:0:
144,320,84923,1,0,0:0:0:0:
432,336,85101,6,0,L|448:208,1,115.50000352478,4|0,0:0|0:0,0:0:0:0:
288,224,85458,2,0,P|288:160|352:112,1,115.50000352478
464,96,85815,2,0,P|432:176|304:240,1,231.000007049561
432,288,86351,1,0,0:0:0:0:
192,272,86530,6,0,L|48:272,1,115.50000352478
192,160,86887,2,0,L|64:160,1,115.50000352478
335,65,87244,1,0,0:0:0:0:
383,95,87333,1,0,0:0:0:0:
390,150,87422,1,0,0:0:0:0:
352,192,87511,1,0,0:0:0:0:
176,64,87601,1,0,0:0:0:0:
129,94,87690,1,0,0:0:0:0:
122,149,87779,1,0,0:0:0:0:
160,191,87868,1,0,0:0:0:0:
352,192,87958,5,4,0:0:0:0:
448,96,88137,1,0,0:0:0:0:
288,48,88315,1,0,0:0:0:0:
144,48,88494,1,0,0:0:0:0:
240,160,88673,5,0,0:0:0:0:
288,192,88762,1,0,0:0:0:0:
272,240,88851,1,0,0:0:0:0:
16,192,89030,2,0,L|16:336,1,115.50000352478
192,320,89387,5,4,0:0:0:0:
288,240,89565,1,0,0:0:0:0:
128,272,89744,1,0,0:0:0:0:
160,160,89923,1,0,0:0:0:0:
336,160,90101,5,0,0:0:0:0:
320,160,90190,1,0,0:0:0:0:
304,160,90279,1,0,0:0:0:0:
32,192,90458,2,0,L|32:336,1,115.50000352478
416,256,90815,5,4,0:0:0:0:
336,160,90994,1,0,0:0:0:0:
96,256,91173,5,4,0:0:0:0:
176,160,91352,1,0,0:0:0:0:
352,112,91530,5,0,0:0:0:0:
304,112,91619,1,0,0:0:0:0:
256,112,91708,1,0,0:0:0:0:
80,112,91887,2,0,L|80:256,1,115.50000352478
320,272,92244,5,4,0:0:0:0:
448,208,92423,1,0,0:0:0:0:
272,208,92601,1,0,0:0:0:0:
416,144,92780,1,0,0:0:0:0:
176,64,92958,5,0,0:0:0:0:
112,96,93047,1,0,0:0:0:0:
64,144,93136,1,0,0:0:0:0:
96,208,93226,1,0,0:0:0:0:
272,144,93315,5,0,0:0:0:0:
336,176,93404,1,0,0:0:0:0:
384,224,93493,1,0,0:0:0:0:
352,288,93583,1,0,0:0:0:0:
272,304,93673,5,0,0:0:0:0:
217,288,93762,1,0,0:0:0:0:
173,252,93851,1,0,0:0:0:0:
147,201,93940,1,0,0:0:0:0:
368,256,94030,5,0,0:0:0:0:
400,192,94119,1,0,0:0:0:0:
384,128,94208,1,0,0:0:0:0:
318,101,94297,1,0,0:0:0:0:
144,32,94387,6,0,L|80:32,1,57.7500017623902
160,32,94565,2,0,L|240:32,1,57.7500017623902
144,32,94744,2,0,L|80:32,1,57.7500017623902
160,32,94923,2,0,L|224:32,1,57.7500017623902
128,112,95101,6,0,L|96:192,1,57.7500017623902
272,176,95280,2,0,L|304:256,1,57.7500017623902
144,256,95458,2,0,L|96:335,1,57.7500017623902
288,288,95637,2,0,L|336:368,1,57.7500017623902
160,352,95815,1,0,0:0:0:0:
122,309,95904,1,0,0:0:0:0:
113,253,95993,1,0,0:0:0:0:
136,201,96082,1,0,0:0:0:0:
352,224,96173,6,0,L|384:304,1,57.7500017623902
208,288,96352,2,0,L|176:352,1,57.7500017623902
416,352,96530,1,0,0:0:0:0:
208,320,96887,6,0,P|128:272|96:192,2,157.500006008148
336,208,97958,5,0,0:0:0:0:
256,192,106530,12,0,107958,0:0:0:0:
384,128,108315,5,0,0:0:0:0:
256,128,108673,2,0,P|176:160|160:224,1,157.500006008148
352,208,109387,6,0,P|384:272|256:352,1,231.000007049561
144,240,110458,1,0,0:0:0:0:
320,256,110815,6,0,P|320:176|288:160,1,115.50000352478
112,240,111530,2,0,L|144:160,1,86.6250026435853
224,288,111887,2,0,L|256:208,1,86.6250026435853
336,304,112244,6,0,B|416:288|464:240|384:128,2,231.000007049561
176,304,114030,1,0,0:0:0:0:
128,208,114387,5,0,0:0:0:0:
185,208,114565,1,0,0:0:0:0:
243,208,114744,2,0,P|272:256|256:320,1,115.50000352478
144,112,115458,6,0,P|128:176|160:240,1,115.50000352478
256,224,115994,1,0,0:0:0:0:
352,176,116173,6,0,P|304:112|256:96,2,115.50000352478
288,208,117065,1,0,0:0:0:0:
224,160,117244,5,0,0:0:0:0:
352,160,117601,1,0,0:0:0:0:
480,160,117958,1,0,0:0:0:0:
256,192,118137,12,0,120101,0:0:0:0:
256,176,120458,5,0,0:0:0:0:
352,176,120637,1,4,0:0:0:0:
448,176,120815,1,0,0:0:0:0:
224,352,121173,2,0,L|128:272,1,105
112,224,121530,1,4,0:0:0:0:
432,288,121887,2,0,L|464:176,1,105
352,128,122244,2,0,P|256:80|160:144,2,210,4|0|0,0:0|0:0|0:0,0:0:0:0:
192,304,123315,2,0,L|112:224,1,105
80,192,123673,5,4,0:0:0:0:
256,192,124387,1,4,0:0:0:0:
432,192,125101,5,4,0:0:0:0:
288,192,125458,2,0,L|128:192,1,157.5
336,144,125815,2,0,L|464:144,1,105
304,112,126173,2,0,P|288:256|352:288,1,210,0|4,0:0|0:0,0:0:0:0:
80,288,126708,6,0,P|160:272|208:288,1,105
32,224,127065,1,0,0:0:0:0:
288,176,127244,2,0,P|192:160|32:176,1,210
128,96,127780,1,0,0:0:0:0:
256,96,127958,6,0,P|352:112|368:144,1,105,4|0,0:0|0:0,0:0:0:0:
240,192,128315,2,0,P|160:208|112:192,1,105
256,272,128673,5,0,0:0:0:0:
400,240,129030,6,0,P|368:192|320:160,1,105
80,176,129387,1,4,0:0:0:0:
128,176,129476,1,0,0:0:0:0:
176,176,129565,1,0,0:0:0:0:
32,144,129744,1,0,0:0:0:0:
80,144,129833,1,0,0:0:0:0:
160,144,129922,1,0,0:0:0:0:
432,176,130101,5,4,0:0:0:0:
384,176,130190,1,0,0:0:0:0:
336,176,130279,1,0,0:0:0:0:
480,144,130458,1,0,0:0:0:0:
432,144,130547,1,0,0:0:0:0:
352,144,130636,1,0,0:0:0:0:
112,96,130815,5,4,0:0:0:0:
400,80,130994,2,0,L|288:96,2,105
128,176,131530,5,4,0:0:0:0:
384,176,131887,1,4,0:0:0:0:
240,80,132244,6,0,P|224:160|272:224,1,136.499993751526,4|0,0:0|0:0,0:0:0:0:
304,224,132512,1,0,0:0:0:0:
384,240,132601,2,0,P|400:160|352:96,1,136.499993751526
64,240,132958,1,4,0:0:0:0:
208,112,133137,1,0,0:0:0:0:
48,176,133315,1,0,0:0:0:0:
224,176,133494,1,0,0:0:0:0:
400,256,133672,6,0,P|432:176|416:112,1,136.499993751526
384,64,133940,2,0,L|304:32,1,68.2499968757631
144,48,134208,2,0,L|128:128,1,68.2499968757631
192,144,134387,6,0,P|288:160|256:240,1,204.749990627289
208,224,134744,1,0,0:0:0:0:
80,160,134923,1,0,0:0:0:0:
384,64,135101,6,0,P|400:160|304:192,1,204.749990627289,4|0,0:0|0:0,0:0:0:0:
240,192,135458,1,0,0:0:0:0:
80,208,135637,1,0,0:0:0:0:
448,224,135815,2,0,P|416:288|352:352,1,136.499993751526,4|0,0:0|0:0,0:0:0:0:
64,224,136172,2,0,P|96:288|160:352,1,136.499993751526,4|0,0:0|0:0,0:0:0:0:
304,320,136530,6,0,P|352:256|272:176,1,204.749990627289
192,160,136887,2,0,L|160:96,1,68.2499968757631
272,112,137065,2,0,L|304:48,1,68.2499968757631
176,32,137244,6,0,P|96:48|112:176,1,204.749990627289
160,192,137601,1,0,0:0:0:0:
336,240,137780,1,0,0:0:0:0:
160,336,137958,6,0,L|144:192,1,136.499993751526,4|0,0:0|0:0,0:0:0:0:
224,192,138226,1,0,0:0:0:0:
304,192,138315,2,0,L|320:48,1,136.499993751526
64,176,138672,6,0,P|112:112|208:112,1,136.499993751526
432,96,139030,2,0,L|272:96,2,136.499993751526
160,112,139565,2,0,L|128:176,1,68.2499968757631
208,208,139744,5,0,0:0:0:0:
368,240,139922,1,4,0:0:0:0:
208,272,140101,1,0,0:0:0:0:
496,64,140458,5,0,0:0:0:0:
336,96,140636,1,0,0:0:0:0:
496,128,140815,1,4,0:0:0:0:
304,176,140994,2,0,L|208:176,1,68.2499968757631
64,128,141173,6,0,L|192:224|192:224,1,136.499993751526
432,320,141530,6,0,P|416:224|368:192,1,136.499993751526
320,192,141797,1,0,0:0:0:0:
235,176,141887,1,0,0:0:0:0:
384,96,142065,1,0,0:0:0:0:
80,64,142244,6,0,P|112:192|192:192,1,204.749990627289
336,64,142601,1,0,0:0:0:0:
400,96,142690,1,0,0:0:0:0:
432,160,142779,1,0,0:0:0:0:
368,208,142868,1,0,0:0:0:0:
112,240,142958,6,0,P|160:144|208:128,1,136.499993751526,4|0,0:0|0:0,0:0:0:0:
256,128,143226,1,0,0:0:0:0:
336,128,143315,2,0,P|336:48|288:0,1,136.499993751526
128,128,143672,6,0,P|264:87|405:101,1,272.999987503052,4|0,0:0|0:0,0:0:0:0:
256,80,144208,1,0,0:0:0:0:
16,176,144387,5,4,0:0:0:0:
176,208,144565,1,0,0:0:0:0:
240,240,144655,1,0,0:0:0:0:
176,272,144744,1,0,0:0:0:0:
16,320,144923,1,0,0:0:0:0:
272,240,145101,2,0,P|336:272|416:272,1,136.499993751526,4|0,0:0|0:0,0:0:0:0:
224,304,145458,2,0,L|192:240,1,68.2499968757631
288,224,145637,2,0,L|336:144,1,68.2499968757631
112,272,145815,6,0,P|144:192|224:144,1,136.499993751526
256,192,146083,1,0,0:0:0:0:
330,223,146172,2,0,P|379:176|400:112,1,136.499993751526
128,144,146530,2,0,P|224:160|304:192,1,136.499993751526,4|0,0:0|0:0,0:0:0:0:
128,224,146887,1,0,0:0:0:0:
400,224,147065,1,0,0:0:0:0:
96,304,147244,6,0,P|112:208|144:144,1,136.499993751526
416,304,147601,6,0,P|400:208|368:144,1,136.499993751526
144,160,147958,1,4,0:0:0:0:
80,144,148047,1,0,0:0:0:0:
48,80,148136,1,0,0:0:0:0:
288,144,148315,1,4,0:0:0:0:
320,96,148404,1,0,0:0:0:0:
288,64,148493,1,0,0:0:0:0:
144,64,148672,6,0,P|112:160|128:192,1,136.499993751526
192,208,148940,1,0,0:0:0:0:
256,224,149030,2,0,L|416:256,1,136.499993751526
224,128,149387,6,0,P|192:224|208:256,1,136.499993751526
272,272,149655,1,0,0:0:0:0:
336,288,149745,2,0,L|496:320,1,136.499993751526
192,336,150101,2,0,P|160:256|208:192,1,136.499993751526
320,192,150458,2,0,P|400:192|480:224,2,136.499993751526,4|0|4,0:0|0:0|0:0,0:0:0:0:
160,240,151173,5,0,0:0:0:0:
320,208,151352,1,0,0:0:0:0:
64,176,151531,1,4,0:0:0:0:
352,240,151887,5,0,0:0:0:0:
192,208,152066,1,0,0:0:0:0:
448,176,152245,1,4,0:0:0:0:
176,272,152601,6,0,L|272:272|336:272,1,136.499993751526
64,224,152958,1,0,0:0:0:0:
59,172,153047,1,0,0:0:0:0:
82,126,153136,1,0,0:0:0:0:
126,98,153225,1,0,0:0:0:0:
288,160,153315,2,0,L|336:80,1,52.5
144,144,153494,2,0,L|96:64,1,52.5
368,128,153673,6,0,L|448:128,1,52.5
272,112,153851,2,0,L|208:112,1,52.5
432,320,154030,1,0,0:0:0:0:
472,288,154119,1,0,0:0:0:0:
477,237,154208,1,0,0:0:0:0:
444,198,154297,1,0,0:0:0:0:
336,96,154387,5,0,0:0:0:0:
160,48,154744,1,0,0:0:0:0:
96,48,154922,1,0,0:0:0:0:
32,48,155101,2,0,L|160:192,1,157.500006008148
272,176,155637,1,0,0:0:0:0:
288,256,155816,5,0,0:0:0:0:
128,112,155994,1,0,0:0:0:0:
102,189,156173,1,0,0:0:0:0:
128,265,156351,1,0,0:0:0:0:
228,308,156530,2,0,P|308:340|372:340,1,118.125004506111
416,288,156887,6,0,L|336:240,1,78.7500030040742
224,224,157244,2,0,P|242:142|320:96,1,157.500006008148
432,96,157780,1,0,0:0:0:0:
304,208,157958,2,0,P|240:224|208:304,1,157.500006008148
288,256,158494,1,0,0:0:0:0:
160,224,158672,5,0,0:0:0:0:
192,144,158851,1,0,0:0:0:0:
336,112,159030,1,0,0:0:0:0:
256,80,159208,1,0,0:0:0:0:
192,32,159387,2,0,P|240:112|304:128,1,157.500006008148
176,144,160101,6,0,P|142:226|80:288,2,157.500006008148
272,96,160994,1,0,0:0:0:0:
368,144,161172,2,0,L|320:224,1,78.7500030040742
240,192,161530,6,0,L|192:272,1,78.7500030040742
336,272,161887,2,0,L|288:352,1,78.7500030040742
176,320,162244,2,0,P|112:320|32:288,1,118.125004506111
112,256,162601,5,0,0:0:0:0:
288,224,162780,1,0,0:0:0:0:
176,176,162958,2,0,P|112:160|80:48,1,157.500006008148
224,64,163494,1,0,0:0:0:0:
336,112,163672,6,0,P|368:160|320:272,1,157.500006008148
208,224,164208,1,0,0:0:0:0:
288,112,164387,6,0,L|368:64,1,78.7500030040742
464,80,164744,2,0,L|384:128,2,78.7500030040742
288,128,165280,1,0,0:0:0:0:
160,96,165458,1,0,0:0:0:0:
