osu file format v14

[General]
AudioFilename: audio.mp3
AudioLeadIn: 0
PreviewTime: 92850
Countdown: 0
SampleSet: None
StackLeniency: 0.7
Mode: 1
LetterboxInBreaks: 0
WidescreenStoryboard: 0

[Editor]
DistanceSpacing: 1.8
BeatDivisor: 4
GridSize: 4
TimelineZoom: 1.9

[Metadata]
Title:Ikaros
TitleUnicode:イカロス
Artist:GReeeeN
ArtistUnicode:GReeeeN
Creator:iloveyou4ever
Version:Inner Oni
Source:
Tags:Iine!(´・ω・`)☆
BeatmapID:1990470
BeatmapSetID:953311

[Difficulty]
HPDrainRate:6
CircleSize:5
OverallDifficulty:6
ApproachRate:5
SliderMultiplier:1.4
SliderTickRate:1

[Events]
//Background and Video events
0,0,"bg123.jpg",-70,-70
//Break Periods
//Storyboard Layer 0 (Background)
//Storyboard Layer 1 (Fail)
//Storyboard Layer 2 (Pass)
//Storyboard Layer 3 (Foreground)
//Storyboard Sound Samples

[TimingPoints]
3444,375,4,1,0,30,1,0
3444,-119.047619047619,4,1,0,30,0,0
14319,-119.047619047619,4,1,0,38,0,0
14694,-119.047619047619,4,1,0,45,0,0
15069,-116.279069767442,4,1,0,45,0,0
15256,-113.636363636364,4,1,0,45,0,0
15444,-111.111111111111,4,1,0,45,0,0
27069,-109.493047191503,4,1,0,45,0,0
27256,-107.921433196633,4,1,0,45,0,0
27444,-106.382978723404,4,1,0,45,0,0
36069,-109.89010989011,4,1,0,45,0,0
36444,-114.942528735632,4,1,0,40,0,0
36819,-121.951219512195,4,1,0,36,0,0
37194,-131.578947368421,4,1,0,33,0,0
37569,-126.582278481013,4,1,0,31,0,0
37756,-121.951219512195,4,1,0,35,0,0
37944,-117.647058823529,4,1,0,38,0,0
38131,-114.942528735632,4,1,0,43,0,0
38694,-114.942528735632,4,1,0,48,0,0
39069,-114.942528735632,4,1,0,54,0,0
39444,-107.52688172043,4,1,0,60,0,0
39819,-107.52688172043,4,1,0,67,0,0
40194,-107.52688172043,4,1,0,75,0,0
40381,-104.89877268436,4,1,0,75,0,0
40756,-102.396067990989,4,1,0,75,0,0
40944,-100,4,1,0,80,0,0
63725,-98.5221674876847,4,1,0,80,0,0
64006,-96.8992248062015,4,1,0,80,0,0
64194,-95.2380952380952,4,1,0,80,0,0
64475,-93.4579439252336,4,1,0,80,0,0
64756,-92.4214417744917,4,1,0,80,0,0
64944,-90.0900900900901,4,1,0,40,0,0
66444,-97.0873786407767,4,1,0,40,0,0
67569,-102.040816326531,4,1,0,55,0,0
67756,-104.166666666667,4,1,0,55,0,0
67944,375,4,1,0,60,1,0
67944,-106.382978723404,4,1,0,60,0,0
79569,-104.931794333683,4,1,0,60,0,0
79756,-103.51966873706,4,1,0,60,0,0
79944,-102.040816326531,4,1,0,60,0,0
88194,-102.040816326531,4,1,0,62,0,0
88475,-104.166666666667,4,1,0,62,0,0
88756,-106.382978723404,4,1,0,62,0,0
88850,-107.52688172043,4,1,0,62,0,0
88944,-108.695652173913,4,1,0,62,0,0
89131,-111.111111111111,4,1,0,62,0,0
89319,-113.636363636364,4,1,0,62,0,0
90444,-112.107623318386,4,1,0,65,0,0
90631,-110.619469026549,4,1,0,65,0,0
90819,-109.170305676856,4,1,0,65,0,0
91194,-108.108108108108,4,1,0,67,0,0
91381,-107.066381156317,4,1,0,68,0,0
91475,-105.708245243129,4,1,0,69,0,0
91569,-104.384133611691,4,1,0,70,0,0
91756,-103.092783505155,4,1,0,72,0,0
91944,-101.83299389002,4,1,0,75,0,0
92881,-99.502487562189,4,1,0,75,0,0
93256,-98.2800982800983,4,1,0,75,0,0
93444,-97.0873786407767,4,1,0,85,0,1
117444,-97.0873786407767,4,1,0,77,0,0
117725,-99.009900990099,4,1,0,77,0,0
118006,-101.010101010101,4,1,0,77,0,0
118194,-102.040816326531,4,1,0,77,0,0
123444,-106.382978723404,4,1,0,70,0,0
127944,-113.636363636364,4,1,0,60,0,0
129444,-102.040816326531,4,1,0,77,0,0
136756,-101.522842639594,4,1,0,77,0,0
136850,-101.010101010101,4,1,0,77,0,0
136944,-100.502512562814,4,1,0,77,0,0
137506,-99.3443274389032,4,1,0,77,0,0
137600,-98.6874568242376,4,1,0,77,0,0
137694,-97.8473581213307,4,1,0,77,0,0
138256,-97.0873786407767,4,1,0,77,0,0
138444,-96.1538461538461,4,1,0,77,0,0
139006,-95.2380952380952,4,1,0,77,0,0
139194,-94.3396226415094,4,1,0,77,0,0
139756,-93.8086303939962,4,1,0,77,0,0
139850,-93.1966449207828,4,1,0,77,0,0
139944,-92.5925925925926,4,1,0,77,0,0
140506,-91.743119266055,4,1,0,65,0,0
142944,-97.0873786407767,4,1,0,65,0,0
144069,-102.040816326531,4,1,0,55,0,0
152131,-101.317122593718,4,1,0,55,0,0
152225,-100.603621730382,4,1,0,55,0,0
152319,-99.9000999000999,4,1,0,80,0,0
152600,-98.8142292490118,4,1,0,80,0,0
152694,-98.8142292490118,4,1,0,80,0,0
152881,-98.135426889107,4,1,0,80,0,0
152975,-97.4658869395711,4,1,0,80,0,0
153069,-96.8054211035818,4,1,0,80,0,0
153162,-96.1538461538461,4,1,0,80,0,0
153256,-95.5109837631328,4,1,0,80,0,0
153444,-94.7867298578199,4,1,0,88,0,1
177444,-94.7867298578199,4,1,0,40,0,0
178944,-105.263157894737,4,1,0,40,0,0
180069,-117.647058823529,4,1,0,32,0,0
180444,387.096774193548,4,1,0,32,1,0
180444,-113.970588235294,4,1,0,32,0,0
181219,393.44262295082,4,1,0,32,1,8
181219,-112.132352941176,4,1,0,32,0,0
182005,383.386581469649,4,1,0,32,1,0
182005,-115.073529411765,4,1,0,32,0,0
182771,392.156862745098,4,1,0,32,1,8
182771,-112.5,4,1,0,32,0,0
183557,394.736842105263,4,1,0,32,1,0
183557,-111.764705882353,4,1,0,32,0,0
184342,393.44262295082,4,1,0,32,1,8
184342,-112.132352941176,4,1,0,32,0,0
185135,390.879478827362,4,1,0,32,1,0
185135,-112.868091061976,4,1,0,32,0,0
186698,390.879478827362,4,1,0,32,1,8
186712,402.684563758389,4,1,0,32,1,0
186712,-109.558823529412,4,1,0,32,0,0
187529,400,4,1,0,32,1,8
187529,-110.294928639181,4,1,0,32,0,8
188322,402.684563758389,4,1,0,32,1,8
188328,419.58041958042,4,1,0,32,1,0
188328,-105.147058823529,4,1,0,32,0,0
188743,483.870967741935,4,1,0,32,1,8
188743,-91.1764705882354,4,1,0,32,0,0

[HitObjects]
256,192,13944,12,0,14694,0:0:0:0:
453,180,15069,5,0,0:0:0:0:
401,152,15256,1,0,0:0:0:0:
460,158,15444,1,8,0:0:0:0:
442,169,15819,1,0,0:0:0:0:
389,163,16194,1,8,0:0:0:0:
373,166,16569,1,0,0:0:0:0:
424,190,16944,1,8,0:0:0:0:
424,190,17319,1,8,0:0:0:0:
424,190,17694,1,8,0:0:0:0:
430,156,18069,1,0,0:0:0:0:
504,168,18256,1,8,0:0:0:0:
504,168,18444,1,8,0:0:0:0:
459,170,18819,1,0,0:0:0:0:
465,166,19194,1,8,0:0:0:0:
460,176,19569,1,0,0:0:0:0:
453,155,19944,1,8,0:0:0:0:
453,155,20319,1,8,0:0:0:0:
468,165,20694,1,0,0:0:0:0:
447,164,21069,1,8,0:0:0:0:
419,171,21256,1,0,0:0:0:0:
447,164,21444,1,8,0:0:0:0:
453,155,21819,1,0,0:0:0:0:
449,177,22194,1,8,0:0:0:0:
446,169,22569,1,0,0:0:0:0:
427,154,22944,1,8,0:0:0:0:
427,154,23319,1,8,0:0:0:0:
427,154,23694,1,8,0:0:0:0:
439,165,24069,1,0,0:0:0:0:
456,167,24256,1,8,0:0:0:0:
472,170,24444,1,8,0:0:0:0:
484,156,24819,1,0,0:0:0:0:
446,159,25194,1,8,0:0:0:0:
451,161,25569,1,0,0:0:0:0:
451,161,25756,1,0,0:0:0:0:
463,166,25944,1,8,0:0:0:0:
440,177,26319,1,8,0:0:0:0:
411,203,26694,1,0,0:0:0:0:
458,204,27069,1,8,0:0:0:0:
447,179,27256,1,0,0:0:0:0:
476,182,27444,1,8,0:0:0:0:
476,182,27819,1,8,0:0:0:0:
487,171,28194,1,0,0:0:0:0:
448,175,28569,1,8,0:0:0:0:
468,155,28944,1,0,0:0:0:0:
475,154,29319,1,8,0:0:0:0:
475,154,29506,1,8,0:0:0:0:
492,193,29694,1,0,0:0:0:0:
472,177,30069,1,0,0:0:0:0:
424,164,30256,1,8,0:0:0:0:
424,164,30444,1,8,0:0:0:0:
472,177,30819,1,8,0:0:0:0:
387,165,31194,1,0,0:0:0:0:
503,171,31569,1,8,0:0:0:0:
466,163,31944,1,0,0:0:0:0:
460,173,32319,1,8,0:0:0:0:
451,159,32506,1,0,0:0:0:0:
346,118,32694,1,0,0:0:0:0:
441,161,33069,1,8,0:0:0:0:
441,161,33256,1,8,0:0:0:0:
474,383,33444,1,0,0:0:0:0:
440,187,33819,1,0,0:0:0:0:
449,183,34194,1,8,0:0:0:0:
493,202,34569,1,8,0:0:0:0:
493,202,34756,1,8,0:0:0:0:
493,202,34944,1,8,0:0:0:0:
469,181,35319,1,0,0:0:0:0:
399,182,35694,1,4,0:0:0:0:
435,158,36069,1,8,0:0:0:0:
433,157,36444,1,8,0:0:0:0:
435,158,36819,1,8,0:0:0:0:
433,157,37194,1,8,0:0:0:0:
441,158,37569,1,8,0:0:0:0:
430,169,37756,1,0,0:0:0:0:
430,169,37944,1,0,0:0:0:0:
256,192,38131,12,0,40194,0:0:0:0:
367,169,40381,5,8,0:0:0:0:
367,169,40756,1,8,0:0:0:0:
354,148,40944,1,4,0:0:0:0:
389,172,41319,1,8,0:0:0:0:
389,172,41694,1,8,0:0:0:0:
445,174,42069,1,0,0:0:0:0:
445,174,42256,1,0,0:0:0:0:
435,178,42444,1,8,0:0:0:0:
435,178,42725,1,8,0:0:0:0:
445,174,43006,1,0,0:0:0:0:
366,164,43194,1,8,0:0:0:0:
419,171,43569,1,8,0:0:0:0:
448,216,43756,1,0,0:0:0:0:
428,232,43850,1,0,0:0:0:0:
396,164,43944,1,0,0:0:0:0:
430,163,44225,1,8,0:0:0:0:
420,157,44506,1,0,0:0:0:0:
468,174,44694,1,8,0:0:0:0:
444,163,44881,1,8,0:0:0:0:
423,167,45069,1,0,0:0:0:0:
428,171,45256,1,8,0:0:0:0:
479,178,45444,1,0,0:0:0:0:
456,192,45725,1,0,0:0:0:0:
456,192,45819,1,8,0:0:0:0:
470,161,46006,1,0,0:0:0:0:
416,163,46194,1,8,0:0:0:0:
484,168,46569,1,8,0:0:0:0:
433,167,46756,1,0,0:0:0:0:
433,167,46850,1,0,0:0:0:0:
432,160,46944,1,0,0:0:0:0:
452,172,47225,1,8,0:0:0:0:
472,172,47506,1,0,0:0:0:0:
436,176,47694,1,8,0:0:0:0:
412,168,47975,1,8,0:0:0:0:
412,168,48256,1,0,0:0:0:0:
436,176,48444,1,8,0:0:0:0:
400,168,48725,1,0,0:0:0:0:
444,188,49006,1,8,0:0:0:0:
412,168,49194,1,8,0:0:0:0:
408,176,49569,1,0,0:0:0:0:
448,192,49756,1,8,0:0:0:0:
416,176,49850,1,0,0:0:0:0:
416,176,49944,1,0,0:0:0:0:
472,188,50319,1,0,0:0:0:0:
452,176,50600,1,0,0:0:0:0:
420,172,50694,1,8,0:0:0:0:
448,156,51069,1,8,0:0:0:0:
472,168,51256,1,0,0:0:0:0:
472,168,51350,1,0,0:0:0:0:
472,168,51444,1,0,0:0:0:0:
492,168,51725,1,8,0:0:0:0:
472,164,52006,1,0,0:0:0:0:
480,164,52194,1,8,0:0:0:0:
472,168,52381,1,0,0:0:0:0:
472,168,52475,1,0,0:0:0:0:
408,176,52569,1,8,0:0:0:0:
408,176,52756,1,8,0:0:0:0:
424,188,52944,1,4,0:0:0:0:
463,167,53319,1,8,0:0:0:0:
428,167,53506,1,0,0:0:0:0:
463,167,53694,1,8,0:0:0:0:
426,184,54069,1,0,0:0:0:0:
426,184,54256,1,0,0:0:0:0:
404,166,54444,1,8,0:0:0:0:
418,159,54725,1,8,0:0:0:0:
448,173,54819,1,0,0:0:0:0:
447,174,55006,1,8,0:0:0:0:
443,155,55194,1,0,0:0:0:0:
424,218,55569,1,8,0:0:0:0:
442,178,55756,1,0,0:0:0:0:
442,178,55850,1,0,0:0:0:0:
442,178,55944,1,0,0:0:0:0:
426,171,56225,1,8,0:0:0:0:
390,164,56506,1,0,0:0:0:0:
442,178,56694,1,8,0:0:0:0:
416,180,56881,1,0,0:0:0:0:
417,169,57069,1,8,0:0:0:0:
417,169,57256,1,8,0:0:0:0:
411,154,57444,1,0,0:0:0:0:
451,222,57725,1,0,0:0:0:0:
414,170,57819,1,8,0:0:0:0:
417,169,58006,1,8,0:0:0:0:
445,178,58194,1,0,0:0:0:0:
440,159,58475,1,8,0:0:0:0:
396,168,58756,1,0,0:0:0:0:
396,168,58850,1,0,0:0:0:0:
396,168,58944,1,0,0:0:0:0:
428,152,59225,1,8,0:0:0:0:
446,154,59506,1,8,0:0:0:0:
453,165,59694,1,0,0:0:0:0:
419,155,59975,1,8,0:0:0:0:
445,191,60256,1,8,0:0:0:0:
449,163,60350,1,0,0:0:0:0:
436,157,60444,1,0,0:0:0:0:
419,148,60725,1,0,0:0:0:0:
397,154,61006,1,0,0:0:0:0:
430,172,61194,1,8,0:0:0:0:
461,175,61381,1,0,0:0:0:0:
439,182,61475,1,8,0:0:0:0:
439,171,61756,1,8,0:0:0:0:
431,154,61944,1,0,0:0:0:0:
497,151,62225,1,8,0:0:0:0:
497,151,62319,1,8,0:0:0:0:
468,191,62506,1,0,0:0:0:0:
466,163,62694,1,0,0:0:0:0:
464,157,62975,1,0,0:0:0:0:
402,169,63069,1,8,0:0:0:0:
440,157,63256,1,8,0:0:0:0:
434,171,63444,1,0,0:0:0:0:
420,153,63725,1,8,0:0:0:0:
392,174,64006,1,0,0:0:0:0:
429,162,64194,1,8,0:0:0:0:
427,162,64475,1,8,0:0:0:0:
449,172,64756,1,8,0:0:0:0:
256,192,64944,12,0,66444,0:0:0:0:
429,196,67569,5,8,0:0:0:0:
429,196,67756,1,8,0:0:0:0:
320,181,67944,1,4,0:0:0:0:
450,184,68319,1,8,0:0:0:0:
440,180,68694,1,0,0:0:0:0:
433,162,69069,1,8,0:0:0:0:
433,162,69256,1,8,0:0:0:0:
491,187,69444,1,0,0:0:0:0:
446,193,69819,1,8,0:0:0:0:
326,175,70194,1,0,0:0:0:0:
352,156,70569,1,0,0:0:0:0:
438,162,70756,1,8,0:0:0:0:
367,170,70944,1,0,0:0:0:0:
453,174,71319,1,8,0:0:0:0:
419,161,71694,1,0,0:0:0:0:
470,148,72069,1,8,0:0:0:0:
470,148,72256,1,8,0:0:0:0:
447,169,72444,1,0,0:0:0:0:
447,169,72819,1,0,0:0:0:0:
447,169,73006,1,8,0:0:0:0:
447,169,73194,1,0,0:0:0:0:
447,169,73569,1,8,0:0:0:0:
447,169,73756,1,8,0:0:0:0:
465,167,73944,1,0,0:0:0:0:
436,186,74319,1,8,0:0:0:0:
454,159,74694,1,0,0:0:0:0:
420,152,75069,1,0,0:0:0:0:
453,171,75256,1,8,0:0:0:0:
439,183,75444,1,0,0:0:0:0:
458,155,75819,1,8,0:0:0:0:
468,166,76194,1,0,0:0:0:0:
421,153,76569,1,8,0:0:0:0:
431,165,76756,1,8,0:0:0:0:
476,168,76944,1,0,0:0:0:0:
393,176,77319,1,8,0:0:0:0:
412,169,77694,1,0,0:0:0:0:
432,175,78069,1,0,0:0:0:0:
435,165,78256,1,8,0:0:0:0:
435,165,78444,1,8,0:0:0:0:
449,165,78819,1,8,0:0:0:0:
453,174,79006,1,0,0:0:0:0:
435,181,79194,1,8,0:0:0:0:
472,177,79569,1,8,0:0:0:0:
418,180,79756,1,8,0:0:0:0:
443,175,79944,1,0,0:0:0:0:
391,201,80131,1,8,0:0:0:0:
466,154,80225,1,8,0:0:0:0:
466,154,80506,1,8,0:0:0:0:
466,154,80600,1,8,0:0:0:0:
422,193,80694,1,0,0:0:0:0:
435,172,80881,1,8,0:0:0:0:
407,169,80975,1,8,0:0:0:0:
436,210,81256,1,8,0:0:0:0:
436,210,81350,1,8,0:0:0:0:
424,176,81444,1,0,0:0:0:0:
397,158,81631,1,0,0:0:0:0:
460,193,81725,1,8,0:0:0:0:
422,172,81819,1,8,0:0:0:0:
382,165,82006,1,8,0:0:0:0:
371,180,82194,1,0,0:0:0:0:
422,172,82569,1,8,0:0:0:0:
422,180,82756,1,8,0:0:0:0:
422,180,82850,1,8,0:0:0:0:
451,180,82944,1,0,0:0:0:0:
378,177,83131,1,8,0:0:0:0:
378,177,83225,1,8,0:0:0:0:
386,212,83506,1,8,0:0:0:0:
386,212,83600,1,8,0:0:0:0:
461,177,83694,1,0,0:0:0:0:
431,180,83881,1,8,0:0:0:0:
431,180,83975,1,8,0:0:0:0:
435,176,84256,1,8,0:0:0:0:
435,176,84350,1,8,0:0:0:0:
447,197,84444,1,0,0:0:0:0:
468,198,84631,1,0,0:0:0:0:
454,172,84725,1,8,0:0:0:0:
454,172,84819,1,8,0:0:0:0:
454,172,85006,1,8,0:0:0:0:
452,154,85194,1,0,0:0:0:0:
439,179,85381,1,8,0:0:0:0:
439,179,85475,1,8,0:0:0:0:
478,185,85569,1,8,0:0:0:0:
439,156,85756,1,8,0:0:0:0:
426,161,85944,1,0,0:0:0:0:
463,186,86131,1,8,0:0:0:0:
438,197,86225,1,8,0:0:0:0:
378,166,86506,1,8,0:0:0:0:
378,166,86600,1,8,0:0:0:0:
457,190,86694,1,0,0:0:0:0:
404,180,86881,1,8,0:0:0:0:
404,180,86975,1,8,0:0:0:0:
459,200,87256,1,8,0:0:0:0:
459,200,87350,1,8,0:0:0:0:
452,194,87444,1,0,0:0:0:0:
452,194,87631,1,0,0:0:0:0:
457,194,87725,1,0,0:0:0:0:
393,170,87819,1,8,0:0:0:0:
361,177,88006,1,0,0:0:0:0:
405,164,88194,1,4,0:0:0:0:
430,171,88475,1,8,0:0:0:0:
493,168,88756,1,8,0:0:0:0:
493,168,88850,1,8,0:0:0:0:
440,172,88944,1,0,0:0:0:0:
439,172,89131,1,0,0:0:0:0:
439,172,89319,1,0,0:0:0:0:
458,180,89694,1,8,0:0:0:0:
462,171,89975,1,8,0:0:0:0:
462,171,90256,1,8,0:0:0:0:
386,176,90444,1,0,0:0:0:0:
452,180,90631,1,0,0:0:0:0:
452,180,90819,1,0,0:0:0:0:
482,182,91194,1,0,0:0:0:0:
464,167,91381,1,0,0:0:0:0:
452,180,91475,1,8,0:0:0:0:
437,171,91569,1,8,0:0:0:0:
491,166,91756,1,8,0:0:0:0:
256,192,91944,12,0,92694,0:0:0:0:
385,180,92881,5,8,0:0:0:0:
385,180,93256,1,8,0:0:0:0:
388,161,93444,1,4,0:0:0:0:
442,200,93819,1,8,0:0:0:0:
475,168,94006,1,0,0:0:0:0:
475,168,94100,1,0,0:0:0:0:
475,177,94194,1,8,0:0:0:0:
491,197,94381,1,0,0:0:0:0:
441,174,94569,1,8,0:0:0:0:
413,167,94756,1,8,0:0:0:0:
412,158,94944,1,0,0:0:0:0:
492,172,95037,1,0,0:0:0:0:
492,172,95131,1,0,0:0:0:0:
441,174,95319,1,8,0:0:0:0:
441,180,95506,1,0,0:0:0:0:
444,192,95600,1,8,0:0:0:0:
471,188,95694,1,8,0:0:0:0:
408,184,95881,1,0,0:0:0:0:
424,184,95975,1,0,0:0:0:0:
428,176,96069,1,8,0:0:0:0:
395,140,96256,1,0,0:0:0:0:
446,185,96444,1,8,0:0:0:0:
396,200,96631,1,0,0:0:0:0:
388,120,96725,1,8,0:0:0:0:
444,176,96819,1,0,0:0:0:0:
428,176,97006,1,0,0:0:0:0:
448,172,97194,1,8,0:0:0:0:
412,176,97287,1,0,0:0:0:0:
456,176,97381,1,8,0:0:0:0:
456,176,97475,1,8,0:0:0:0:
456,176,97569,1,0,0:0:0:0:
456,176,97756,1,0,0:0:0:0:
460,168,97944,1,8,0:0:0:0:
440,172,98131,1,0,0:0:0:0:
424,164,98225,1,8,0:0:0:0:
424,164,98319,1,8,0:0:0:0:
464,180,98506,1,8,0:0:0:0:
472,180,98694,1,0,0:0:0:0:
472,172,98787,1,8,0:0:0:0:
392,172,98881,1,0,0:0:0:0:
392,172,98975,1,0,0:0:0:0:
424,168,99069,1,8,0:0:0:0:
380,172,99256,1,0,0:0:0:0:
480,380,99444,1,8,0:0:0:0:
384,184,99631,1,0,0:0:0:0:
435,165,99725,1,8,0:0:0:0:
460,180,99819,1,8,0:0:0:0:
480,180,100006,1,0,0:0:0:0:
424,160,100194,1,8,0:0:0:0:
418,232,100287,1,0,0:0:0:0:
464,160,100475,1,0,0:0:0:0:
424,160,100569,1,8,0:0:0:0:
472,236,100756,1,8,0:0:0:0:
472,200,100944,1,0,0:0:0:0:
484,168,101131,1,0,0:0:0:0:
429,176,101225,1,8,0:0:0:0:
411,200,101319,1,0,0:0:0:0:
459,182,101506,1,8,0:0:0:0:
440,180,101694,1,0,0:0:0:0:
436,144,101881,1,12,0:0:0:0:
384,160,102069,1,12,0:0:0:0:
392,172,102256,1,0,0:0:0:0:
432,268,102350,1,0,0:0:0:0:
430,189,102444,1,8,0:0:0:0:
412,168,102631,1,0,0:0:0:0:
412,184,102819,1,8,0:0:0:0:
449,162,103006,1,8,0:0:0:0:
469,176,103194,1,0,0:0:0:0:
441,157,103287,1,0,0:0:0:0:
441,157,103381,1,0,0:0:0:0:
441,157,103475,1,0,0:0:0:0:
449,162,103569,1,8,0:0:0:0:
469,228,103756,1,8,0:0:0:0:
471,167,103944,1,0,0:0:0:0:
457,178,104131,1,0,0:0:0:0:
491,161,104225,1,8,0:0:0:0:
510,127,104319,1,8,0:0:0:0:
488,163,104506,1,8,0:0:0:0:
496,180,104600,1,8,0:0:0:0:
418,171,104694,1,0,0:0:0:0:
440,196,104787,1,8,0:0:0:0:
492,168,104881,1,0,0:0:0:0:
492,168,104975,1,0,0:0:0:0:
467,169,105069,1,8,0:0:0:0:
467,169,105256,1,8,0:0:0:0:
412,152,105444,1,4,0:0:0:0:
404,156,105819,1,8,0:0:0:0:
404,156,106006,1,8,0:0:0:0:
404,156,106100,1,8,0:0:0:0:
448,164,106194,1,0,0:0:0:0:
448,164,106381,1,0,0:0:0:0:
452,152,106569,1,8,0:0:0:0:
448,152,106756,1,0,0:0:0:0:
448,152,106850,1,0,0:0:0:0:
432,156,106944,1,8,0:0:0:0:
448,164,107131,1,0,0:0:0:0:
416,156,107319,1,8,0:0:0:0:
408,232,107412,1,0,0:0:0:0:
452,152,107506,1,8,0:0:0:0:
424,152,107694,1,0,0:0:0:0:
448,168,107787,1,8,0:0:0:0:
424,152,107881,1,0,0:0:0:0:
408,176,107975,1,0,0:0:0:0:
448,172,108069,1,8,0:0:0:0:
488,168,108256,1,0,0:0:0:0:
476,164,108444,1,8,0:0:0:0:
444,216,108631,1,0,0:0:0:0:
472,168,108725,1,8,0:0:0:0:
424,176,108819,1,8,0:0:0:0:
456,168,109006,1,0,0:0:0:0:
468,168,109194,1,8,0:0:0:0:
504,164,109287,1,0,0:0:0:0:
456,172,109381,1,8,0:0:0:0:
456,172,109475,1,8,0:0:0:0:
472,168,109569,1,0,0:0:0:0:
472,168,109662,1,0,0:0:0:0:
440,172,109756,1,8,0:0:0:0:
452,176,109944,1,0,0:0:0:0:
484,172,110131,1,0,0:0:0:0:
468,180,110225,1,8,0:0:0:0:
464,180,110319,1,8,0:0:0:0:
488,172,110506,1,8,0:0:0:0:
452,176,110694,1,0,0:0:0:0:
464,172,110787,1,8,0:0:0:0:
420,164,110881,1,0,0:0:0:0:
420,164,110975,1,0,0:0:0:0:
464,172,111069,1,8,0:0:0:0:
496,180,111256,1,8,0:0:0:0:
476,180,111444,1,0,0:0:0:0:
452,244,111631,1,0,0:0:0:0:
496,164,111725,1,8,0:0:0:0:
390,151,111819,1,8,0:0:0:0:
432,244,112006,1,8,0:0:0:0:
464,180,112194,1,0,0:0:0:0:
432,168,112287,1,8,0:0:0:0:
448,176,112475,1,8,0:0:0:0:
480,172,112569,1,0,0:0:0:0:
430,157,112756,1,0,0:0:0:0:
458,177,112850,1,8,0:0:0:0:
512,152,112944,1,0,0:0:0:0:
433,178,113131,1,8,0:0:0:0:
408,188,113225,1,0,0:0:0:0:
420,164,113319,1,0,0:0:0:0:
476,182,113506,1,0,0:0:0:0:
442,184,113694,1,8,0:0:0:0:
418,180,113787,1,0,0:0:0:0:
460,180,113881,1,8,0:0:0:0:
448,172,113975,1,8,0:0:0:0:
472,164,114069,1,0,0:0:0:0:
475,200,114256,1,0,0:0:0:0:
443,171,114444,1,8,0:0:0:0:
492,172,114631,1,8,0:0:0:0:
492,172,114725,1,8,0:0:0:0:
480,172,114819,1,0,0:0:0:0:
480,192,115006,1,8,0:0:0:0:
492,176,115194,1,0,0:0:0:0:
492,176,115287,1,0,0:0:0:0:
468,190,115381,1,8,0:0:0:0:
440,168,115475,1,8,0:0:0:0:
456,176,115569,1,0,0:0:0:0:
440,160,115756,1,8,0:0:0:0:
436,172,115944,1,0,0:0:0:0:
480,160,116131,1,0,0:0:0:0:
476,176,116225,1,8,0:0:0:0:
406,180,116319,1,8,0:0:0:0:
379,192,116506,1,8,0:0:0:0:
447,182,116694,1,0,0:0:0:0:
429,177,116787,1,8,0:0:0:0:
436,172,116881,1,0,0:0:0:0:
424,164,116975,1,0,0:0:0:0:
412,176,117069,1,8,0:0:0:0:
413,208,117162,1,0,0:0:0:0:
332,216,117256,1,8,0:0:0:0:
368,184,117444,1,4,0:0:0:0:
200,184,117725,1,0,0:0:0:0:
260,188,118006,1,0,0:0:0:0:
424,188,118194,1,8,0:0:0:0:
453,172,118756,1,8,0:0:0:0:
421,164,118850,1,0,0:0:0:0:
421,164,118944,1,0,0:0:0:0:
461,199,119225,1,0,0:0:0:0:
461,199,119506,1,0,0:0:0:0:
496,172,119694,1,8,0:0:0:0:
474,168,119881,1,0,0:0:0:0:
474,168,119975,1,0,0:0:0:0:
500,176,120069,1,8,0:0:0:0:
474,207,120256,1,8,0:0:0:0:
456,176,120444,1,0,0:0:0:0:
448,176,120725,1,0,0:0:0:0:
448,176,121006,1,0,0:0:0:0:
314,165,121100,1,0,0:0:0:0:
425,175,121194,1,8,0:0:0:0:
460,211,121756,1,0,0:0:0:0:
460,211,121850,1,0,0:0:0:0:
475,168,121944,1,0,0:0:0:0:
481,212,122225,1,0,0:0:0:0:
446,215,122506,1,0,0:0:0:0:
399,165,122600,1,0,0:0:0:0:
462,189,122694,1,8,0:0:0:0:
462,189,122787,1,8,0:0:0:0:
492,181,122881,1,0,0:0:0:0:
492,181,122975,1,0,0:0:0:0:
436,171,123069,1,8,0:0:0:0:
443,172,123162,1,0,0:0:0:0:
436,171,123256,1,8,0:0:0:0:
475,211,123444,1,0,0:0:0:0:
477,166,124006,1,0,0:0:0:0:
401,177,124194,1,8,0:0:0:0:
480,206,124756,1,8,0:0:0:0:
448,178,124944,1,0,0:0:0:0:
448,178,125225,1,0,0:0:0:0:
483,172,125506,1,8,0:0:0:0:
483,172,125694,1,8,0:0:0:0:
507,167,126069,1,0,0:0:0:0:
451,153,126256,1,8,0:0:0:0:
451,153,126444,1,8,0:0:0:0:
483,159,127194,1,8,0:0:0:0:
448,166,127944,1,0,0:0:0:0:
460,199,129444,5,0,0:0:0:0:
379,176,129725,1,0,0:0:0:0:
379,176,130006,1,0,0:0:0:0:
369,167,130194,1,8,0:0:0:0:
338,190,130756,1,8,0:0:0:0:
417,179,130850,1,0,0:0:0:0:
417,179,130944,1,0,0:0:0:0:
449,211,131225,1,0,0:0:0:0:
419,172,131506,1,0,0:0:0:0:
491,181,131694,1,8,0:0:0:0:
459,172,131881,1,8,0:0:0:0:
437,175,131975,1,0,0:0:0:0:
459,172,132069,1,8,0:0:0:0:
437,175,132256,1,0,0:0:0:0:
439,168,132444,1,8,0:0:0:0:
442,166,132725,1,0,0:0:0:0:
408,130,133006,1,0,0:0:0:0:
360,171,133194,1,8,0:0:0:0:
441,174,133756,1,0,0:0:0:0:
441,174,133850,1,0,0:0:0:0:
441,174,133944,1,0,0:0:0:0:
470,184,134225,1,0,0:0:0:0:
416,149,134319,1,8,0:0:0:0:
470,184,134506,1,0,0:0:0:0:
380,185,134694,1,8,0:0:0:0:
428,163,134881,1,0,0:0:0:0:
428,163,134975,1,0,0:0:0:0:
470,174,135069,1,8,0:0:0:0:
405,175,135256,1,0,0:0:0:0:
419,158,135444,1,0,0:0:0:0:
394,177,135725,1,8,0:0:0:0:
442,164,136006,1,8,0:0:0:0:
426,166,136194,1,0,0:0:0:0:
408,163,136475,1,8,0:0:0:0:
468,167,136756,1,0,0:0:0:0:
467,167,136850,1,0,0:0:0:0:
452,167,136944,1,8,0:0:0:0:
429,151,137225,1,0,0:0:0:0:
453,163,137506,1,8,0:0:0:0:
434,165,137600,1,0,0:0:0:0:
453,163,137694,1,8,0:0:0:0:
460,167,137975,1,8,0:0:0:0:
440,188,138256,1,0,0:0:0:0:
421,172,138444,1,8,0:0:0:0:
445,157,138725,1,0,0:0:0:0:
445,157,139006,1,0,0:0:0:0:
485,166,139194,1,8,0:0:0:0:
491,160,139475,1,0,0:0:0:0:
497,161,139756,1,8,0:0:0:0:
497,161,139850,1,8,0:0:0:0:
456,184,139944,1,0,0:0:0:0:
439,163,140225,1,8,0:0:0:0:
414,163,140506,1,0,0:0:0:0:
480,171,140600,1,8,0:0:0:0:
479,171,140694,1,8,0:0:0:0:
435,221,140787,1,0,0:0:0:0:
446,172,140881,1,0,0:0:0:0:
429,174,140975,1,8,0:0:0:0:
435,166,141069,1,8,0:0:0:0:
444,172,141162,1,0,0:0:0:0:
435,166,141256,1,8,0:0:0:0:
256,192,141444,12,0,144069,0:0:0:0:
431,154,144256,5,8,0:0:0:0:
431,154,144350,1,8,0:0:0:0:
439,164,144444,1,0,0:0:0:0:
416,156,144631,1,8,0:0:0:0:
416,156,144725,1,8,0:0:0:0:
416,156,145006,1,8,0:0:0:0:
416,156,145100,1,8,0:0:0:0:
402,172,145194,1,0,0:0:0:0:
467,175,145381,1,8,0:0:0:0:
491,184,145475,1,8,0:0:0:0:
491,184,145569,1,8,0:0:0:0:
491,184,145662,1,8,0:0:0:0:
491,184,145756,1,8,0:0:0:0:
466,170,145850,1,8,0:0:0:0:
439,177,145944,1,0,0:0:0:0:
440,183,146131,1,8,0:0:0:0:
482,166,146225,1,8,0:0:0:0:
461,150,146506,1,8,0:0:0:0:
473,171,146694,1,0,0:0:0:0:
466,170,146881,1,8,0:0:0:0:
466,174,146975,1,8,0:0:0:0:
466,174,147069,1,8,0:0:0:0:
466,174,147162,1,8,0:0:0:0:
466,174,147256,1,8,0:0:0:0:
471,197,147350,1,8,0:0:0:0:
439,212,147444,1,0,0:0:0:0:
509,169,147631,1,8,0:0:0:0:
509,169,147725,1,8,0:0:0:0:
422,231,148006,1,8,0:0:0:0:
360,168,148100,1,8,0:0:0:0:
465,168,148194,1,0,0:0:0:0:
445,153,148381,1,8,0:0:0:0:
445,153,148475,1,8,0:0:0:0:
445,153,148569,1,8,0:0:0:0:
445,153,148662,1,8,0:0:0:0:
445,153,148756,1,8,0:0:0:0:
436,152,148850,1,8,0:0:0:0:
447,171,148944,1,0,0:0:0:0:
458,178,149131,1,8,0:0:0:0:
458,178,149225,1,8,0:0:0:0:
488,184,149319,1,0,0:0:0:0:
481,165,149506,1,8,0:0:0:0:
424,164,149694,1,0,0:0:0:0:
502,174,149881,1,8,0:0:0:0:
497,174,149975,1,8,0:0:0:0:
497,174,150069,1,8,0:0:0:0:
497,174,150162,1,8,0:0:0:0:
497,174,150256,1,8,0:0:0:0:
443,175,150350,1,8,0:0:0:0:
419,174,150444,1,0,0:0:0:0:
443,175,150631,1,8,0:0:0:0:
443,175,150725,1,8,0:0:0:0:
443,175,151006,1,8,0:0:0:0:
443,175,151100,1,8,0:0:0:0:
434,180,151194,1,0,0:0:0:0:
388,172,151381,1,8,0:0:0:0:
388,172,151475,1,8,0:0:0:0:
477,170,151756,1,8,0:0:0:0:
477,170,151850,1,8,0:0:0:0:
423,174,151944,1,0,0:0:0:0:
428,172,152131,1,0,0:0:0:0:
436,172,152225,1,8,0:0:0:0:
436,172,152319,1,8,0:0:0:0:
408,172,152600,1,0,0:0:0:0:
468,180,152694,1,8,0:0:0:0:
464,176,152881,5,8,0:0:0:0:
449,167,152975,1,0,0:0:0:0:
458,187,153069,1,8,0:0:0:0:
430,184,153162,1,0,0:0:0:0:
454,187,153256,1,8,0:0:0:0:
416,164,153444,1,4,0:0:0:0:
458,187,153725,1,0,0:0:0:0:
464,176,153819,1,8,0:0:0:0:
408,172,154006,1,0,0:0:0:0:
408,172,154100,1,0,0:0:0:0:
452,168,154194,1,8,0:0:0:0:
425,162,154287,1,0,0:0:0:0:
424,164,154381,1,0,0:0:0:0:
424,172,154569,1,8,0:0:0:0:
456,168,154756,1,0,0:0:0:0:
456,172,154944,1,8,0:0:0:0:
456,172,155037,1,8,0:0:0:0:
408,172,155131,1,0,0:0:0:0:
424,168,155319,1,8,0:0:0:0:
420,168,155506,1,0,0:0:0:0:
420,168,155600,1,0,0:0:0:0:
464,184,155694,1,8,0:0:0:0:
460,184,155787,1,8,0:0:0:0:
424,172,155881,1,0,0:0:0:0:
388,168,156069,1,8,0:0:0:0:
468,172,156256,1,0,0:0:0:0:
429,167,156350,1,0,0:0:0:0:
424,172,156444,1,8,0:0:0:0:
373,156,156631,1,0,0:0:0:0:
442,182,156725,1,8,0:0:0:0:
348,183,156819,1,0,0:0:0:0:
424,172,157006,1,8,0:0:0:0:
276,176,157100,1,0,0:0:0:0:
419,161,157194,1,8,0:0:0:0:
400,172,157287,1,8,0:0:0:0:
464,184,157475,1,0,0:0:0:0:
412,176,157569,1,8,0:0:0:0:
456,172,157662,1,0,0:0:0:0:
384,188,157756,1,8,0:0:0:0:
384,188,157850,1,8,0:0:0:0:
396,184,157944,1,0,0:0:0:0:
468,172,158131,1,0,0:0:0:0:
464,180,158225,1,8,0:0:0:0:
464,180,158319,1,8,0:0:0:0:
464,180,158506,1,8,0:0:0:0:
448,172,158694,1,0,0:0:0:0:
436,188,158787,1,8,0:0:0:0:
443,171,158881,1,0,0:0:0:0:
432,176,158975,1,0,0:0:0:0:
432,184,159069,1,8,0:0:0:0:
462,198,159256,1,0,0:0:0:0:
447,158,159444,1,8,0:0:0:0:
480,172,159631,1,0,0:0:0:0:
400,168,159725,1,8,0:0:0:0:
392,188,159819,1,0,0:0:0:0:
440,168,160006,1,8,0:0:0:0:
428,168,160194,1,8,0:0:0:0:
488,164,160287,1,0,0:0:0:0:
488,164,160381,1,0,0:0:0:0:
472,164,160475,1,8,0:0:0:0:
432,176,160569,1,8,0:0:0:0:
464,152,160756,1,8,0:0:0:0:
440,184,160944,1,0,0:0:0:0:
472,176,161037,1,0,0:0:0:0:
472,176,161225,1,0,0:0:0:0:
448,176,161319,1,8,0:0:0:0:
480,200,161506,1,8,0:0:0:0:
480,200,161600,1,8,0:0:0:0:
408,184,161694,1,0,0:0:0:0:
441,189,161881,1,12,0:0:0:0:
426,186,162069,1,12,0:0:0:0:
420,180,162256,1,0,0:0:0:0:
424,180,162350,1,0,0:0:0:0:
456,192,162444,1,8,0:0:0:0:
369,176,162631,1,0,0:0:0:0:
410,173,162819,1,8,0:0:0:0:
456,182,162912,1,0,0:0:0:0:
455,182,163006,1,0,0:0:0:0:
455,182,163100,1,0,0:0:0:0:
401,171,163194,1,8,0:0:0:0:
420,165,163381,1,0,0:0:0:0:
400,175,163569,1,8,0:0:0:0:
443,166,163662,1,0,0:0:0:0:
448,172,163756,1,8,0:0:0:0:
447,172,163850,1,8,0:0:0:0:
391,175,163944,1,0,0:0:0:0:
388,174,164037,1,0,0:0:0:0:
434,171,164225,1,8,0:0:0:0:
413,174,164319,1,0,0:0:0:0:
411,174,164412,1,0,0:0:0:0:
385,169,164506,1,8,0:0:0:0:
422,171,164694,1,0,0:0:0:0:
424,161,164881,1,0,0:0:0:0:
424,161,164975,1,0,0:0:0:0:
425,166,165069,1,8,0:0:0:0:
408,169,165162,1,0,0:0:0:0:
425,166,165256,1,8,0:0:0:0:
428,170,165444,1,4,0:0:0:0:
475,214,165725,1,0,0:0:0:0:
401,157,165819,1,8,0:0:0:0:
458,164,166006,1,8,0:0:0:0:
458,164,166100,1,8,0:0:0:0:
452,174,166194,1,0,0:0:0:0:
432,169,166287,1,0,0:0:0:0:
451,175,166381,1,0,0:0:0:0:
464,156,166569,1,8,0:0:0:0:
434,147,166756,1,0,0:0:0:0:
434,147,166850,1,0,0:0:0:0:
408,147,166944,1,8,0:0:0:0:
413,164,167131,1,0,0:0:0:0:
443,151,167319,1,8,0:0:0:0:
456,168,167506,1,8,0:0:0:0:
460,165,167600,1,0,0:0:0:0:
432,161,167694,1,8,0:0:0:0:
458,165,167787,1,8,0:0:0:0:
394,162,167881,1,0,0:0:0:0:
392,166,168069,1,8,0:0:0:0:
394,162,168256,1,0,0:0:0:0:
480,172,168350,1,0,0:0:0:0:
440,182,168444,1,8,0:0:0:0:
468,160,168537,1,8,0:0:0:0:
440,146,168725,1,0,0:0:0:0:
444,154,168819,1,8,0:0:0:0:
372,176,168912,1,0,0:0:0:0:
372,176,169006,1,0,0:0:0:0:
428,160,169100,1,8,0:0:0:0:
384,148,169287,1,8,0:0:0:0:
432,164,169381,1,0,0:0:0:0:
448,168,169475,1,0,0:0:0:0:
440,160,169569,1,8,0:0:0:0:
396,164,169662,1,0,0:0:0:0:
384,168,169756,1,8,0:0:0:0:
440,160,169850,1,8,0:0:0:0:
400,168,169944,1,0,0:0:0:0:
480,148,170131,1,0,0:0:0:0:
384,152,170225,1,8,0:0:0:0:
389,184,170319,1,8,0:0:0:0:
432,192,170412,1,0,0:0:0:0:
452,192,170506,1,8,0:0:0:0:
452,192,170694,1,8,0:0:0:0:
416,176,170881,1,0,0:0:0:0:
468,161,170975,1,0,0:0:0:0:
440,168,171069,1,8,0:0:0:0:
392,176,171256,1,0,0:0:0:0:
472,180,171444,1,8,0:0:0:0:
432,172,171631,1,0,0:0:0:0:
476,172,171725,1,8,0:0:0:0:
468,184,171819,1,0,0:0:0:0:
440,168,172006,1,8,0:0:0:0:
440,168,172194,1,8,0:0:0:0:
480,172,172287,1,0,0:0:0:0:
480,172,172381,1,0,0:0:0:0:
464,176,172475,1,8,0:0:0:0:
428,155,172569,1,0,0:0:0:0:
409,174,172756,1,8,0:0:0:0:
480,172,172944,1,8,0:0:0:0:
435,183,173131,1,0,0:0:0:0:
480,172,173225,1,8,0:0:0:0:
504,168,173319,1,0,0:0:0:0:
492,176,173506,1,8,0:0:0:0:
466,166,173694,1,8,0:0:0:0:
466,166,173787,1,8,0:0:0:0:
478,197,173881,1,0,0:0:0:0:
478,179,173975,1,0,0:0:0:0:
458,175,174069,1,8,0:0:0:0:
428,181,174256,1,0,0:0:0:0:
433,166,174444,1,8,0:0:0:0:
481,193,174631,1,0,0:0:0:0:
481,193,174725,1,0,0:0:0:0:
481,193,175006,1,0,0:0:0:0:
481,193,175100,1,0,0:0:0:0:
464,201,175194,1,8,0:0:0:0:
475,180,175381,1,0,0:0:0:0:
475,180,175475,1,0,0:0:0:0:
443,177,175756,1,8,0:0:0:0:
430,202,175850,1,0,0:0:0:0:
443,177,175944,1,8,0:0:0:0:
488,172,176131,1,0,0:0:0:0:
488,172,176225,1,0,0:0:0:0:
470,184,176319,1,8,0:0:0:0:
458,181,176506,1,8,0:0:0:0:
466,178,176600,1,8,0:0:0:0:
490,183,176694,1,0,0:0:0:0:
464,184,176787,1,8,0:0:0:0:
446,191,176881,1,0,0:0:0:0:
446,191,176975,1,0,0:0:0:0:
459,178,177069,1,8,0:0:0:0:
420,177,177162,1,0,0:0:0:0:
459,178,177256,1,8,0:0:0:0:
374,189,177350,1,8,0:0:0:0:
256,192,177444,12,0,179881,0:0:0:0:
432,212,180069,5,8,0:0:0:0:
463,183,180256,1,8,0:0:0:0:
408,158,180444,1,8,0:0:0:0:
374,161,180831,1,0,0:0:0:0:
360,164,181218,1,8,0:0:0:0:
390,189,181612,1,0,0:0:0:0:
385,167,182004,1,8,0:0:0:0:
432,174,182387,1,0,0:0:0:0:
432,174,182770,1,0,0:0:0:0:
423,166,183162,1,8,0:0:0:0:
423,166,183358,1,8,0:0:0:0:
441,144,183557,1,0,0:0:0:0:
377,181,183951,1,0,0:0:0:0:
434,173,184342,1,8,0:0:0:0:
492,158,184735,1,0,0:0:0:0:
449,177,185135,1,8,0:0:0:0:
390,183,185525,1,0,0:0:0:0:
398,172,185916,1,8,0:0:0:0:
341,163,186307,1,0,0:0:0:0:
472,177,186503,1,8,0:0:0:0:
446,166,186712,1,8,0:0:0:0:
418,175,187114,1,8,0:0:0:0:
448,189,187529,1,8,0:0:0:0:
426,229,187929,1,0,0:0:0:0:
431,216,188328,1,0,0:0:0:0:
372,193,188743,1,8,0:0:0:0:
419,164,189225,1,0,0:0:0:0:
