osu file format v14

[General]
AudioFilename: audio.mp3
AudioLeadIn: 0
PreviewTime: 65688
Countdown: 0
SampleSet: Soft
StackLeniency: 0.4
Mode: 0
LetterboxInBreaks: 0
WidescreenStoryboard: 0

[Editor]
DistanceSpacing: 1.4
BeatDivisor: 4
GridSize: 4
TimelineZoom: 2.1

[Metadata]
Title:HIGHNACHTSMANN (Cut Ver.)
TitleUnicode:HIGHNACHTSMANN (Cut Ver.)
Artist:GReeeN
ArtistUnicode:GReeeN
Creator:PaRaDogi
Version:Hard
Source:
Tags:komore Daoski hiphop cycopton wanpachi respirte schoolboy highnachten christmas german deutschland rap reggie 420 green grinch happy weinnachtsmann pop reggae IrieVibrations
BeatmapID:2756955
BeatmapSetID:1330690

[Difficulty]
HPDrainRate:4.5
CircleSize:4
OverallDifficulty:6
ApproachRate:7.5
SliderMultiplier:1.4
SliderTickRate:1

[Events]
//Background and Video events
0,0,"maxresdefault (24).jpg",0,0
//Break Periods
//Storyboard Layer 0 (Background)
//Storyboard Layer 1 (Fail)
//Storyboard Layer 2 (Pass)
//Storyboard Layer 3 (Foreground)
//Storyboard Layer 4 (Overlay)
//Storyboard Sound Samples

[TimingPoints]
11972,344.827586206897,4,2,1,55,1,0
11972,-133.333333333333,4,2,1,55,0,0
13351,-100,4,2,1,65,0,1
18868,-100,4,2,1,65,0,1
24385,-100,4,2,1,65,0,1
29902,-100,4,2,1,65,0,1
34960,-100,4,2,2,65,0,1
35190,-100,4,2,3,65,0,1
35420,-100,4,2,1,65,0,1
35765,-133.333333333333,4,2,1,55,0,0
56339,-133.333333333333,4,2,1,35,0,0
56368,-133.333333333333,4,2,1,35,0,0
56569,-133.333333333333,4,2,1,15,0,0
56627,-133.333333333333,4,2,1,15,0,0
57489,-133.333333333333,4,2,1,55,0,0
68523,-100,4,2,1,65,0,1
74040,-100,4,2,1,65,0,1
79558,-100,4,2,1,65,0,1
85075,-100,4,2,1,65,0,1
89213,-100,4,2,1,45,0,0
90132,-100,4,2,2,45,0,0
90362,-100,4,2,3,45,0,0

[Colours]
Combo1 : 80,201,107
Combo2 : 117,121,83

[HitObjects]
33,48,11972,6,0,B|34:89|34:89|50:113|50:113|52:166,1,105.000004005432,8|0,0:1|0:0,0:0:0:0:
130,205,12489,1,8,0:2:0:0:
145,302,12661,2,0,L|214:289,1,52.5000020027161,8|8,0:1|0:1,0:0:0:0:
287,313,13006,1,8,0:1:0:0:
461,232,13351,6,0,L|465:140,1,70,2|0,1:2|0:0,0:0:0:0:
403,82,13696,1,0,0:0:0:0:
321,128,13868,1,2,0:2:0:0:
248,72,14040,2,0,B|212:61|212:61|164:73,1,70,10|0,0:2|0:0,0:0:0:0:
101,127,14385,2,0,P|87:166|99:208,1,70,2|0,1:2|0:0,0:0:0:0:
153,279,14730,6,0,B|208:230|234:286|302:206,2,140,2|0|10,1:2|0:0|0:2,0:0:0:0:
28,366,15765,1,2,0:3:0:0:
57,273,15937,1,0,0:0:0:0:
18,189,16109,6,0,L|7:108,1,70,2|0,1:2|0:0,0:0:0:0:
61,35,16454,1,0,0:0:0:0:
148,65,16627,1,2,0:2:0:0:
228,18,16799,2,0,P|268:8|306:12,1,70,10|0,0:2|0:0,0:0:0:0:
390,38,17144,2,0,B|412:70|412:70|404:110,1,70,2|0,0:2|0:0,0:0:0:0:
360,191,17489,6,0,P|343:228|384:291,1,105,2|0,1:2|0:0,0:0:0:0:
380,337,17834,2,0,P|297:356|287:349,1,105
253,309,18178,1,10,0:2:0:0:
311,123,18523,1,0,0:0:0:0:
220,138,18696,1,0,0:0:0:0:
201,135,18782,1,0,0:0:0:0:
182,130,18868,6,0,L|105:115,1,70,6|0,1:2|0:0,0:0:0:0:
38,184,19213,2,0,P|34:230|60:265,1,70,0|2,0:0|0:2,0:0:0:0:
119,317,19558,2,0,L|197:300,1,70,10|0,0:2|0:0,0:0:0:0:
272,247,19903,1,2,1:2:0:0:
349,301,20075,1,0,0:0:0:0:
434,252,20247,6,0,B|455:215|455:215|434:140,1,105,2|0,1:2|0:0,0:0:0:0:
407,113,20592,2,0,B|372:93|372:93|254:134,1,140,0|10,0:0|0:2,0:0:0:0:
196,186,21109,1,0,0:0:0:0:
96,185,21282,2,0,B|81:225|81:225|103:255,1,70,2|0,0:3|0:0,0:0:0:0:
157,325,21627,5,2,1:2:0:0:
245,283,21799,1,0,0:0:0:0:
312,350,21972,2,0,P|351:362|392:344,1,70,0|2,0:0|0:2,0:0:0:0:
450,280,22316,1,10,0:2:0:0:
399,200,22489,1,0,0:0:0:0:
402,186,22575,1,0,0:0:0:0:
405,174,22661,2,0,L|421:95,1,70,2|0,0:2|0:0,0:0:0:0:
358,31,23006,6,0,B|324:28|280:30|314:100|259:95|211:85,2,140,2|0|10,1:2|0:0|0:2,0:0:0:0:
300,173,24040,1,0,0:0:0:0:
218,223,24213,1,0,0:0:0:0:
212,241,24299,1,0,0:0:0:0:
204,261,24385,6,0,L|292:280,1,70,6|0,1:2|0:0,0:0:0:0:
356,223,24730,1,0,0:0:0:0:
440,265,24903,1,2,0:2:0:0:
499,191,25075,2,0,P|516:158|511:117,1,70,10|0,0:2|0:0,0:0:0:0:
436,62,25420,2,0,P|390:76|370:99,1,70,2|0,1:2|0:0,0:0:0:0:
285,147,25765,6,0,B|236:125|236:125|201:131|201:131|143:99,2,140,2|0|10,1:2|0:0|0:2,0:0:0:0:
447,166,26799,2,0,P|460:103|411:68,1,105,2|0,0:3|0:0,0:0:0:0:
401,43,27144,6,0,P|358:33|320:45,1,70,2|0,1:2|0:0,0:0:0:0:
233,14,27489,1,0,0:0:0:0:
181,97,27661,1,2,0:2:0:0:
248,171,27834,2,0,L|265:244,1,70,10|0,0:2|0:0,0:0:0:0:
212,323,28178,2,0,P|175:328|139:317,1,70,2|0,0:2|0:0,0:0:0:0:
58,268,28523,6,0,B|44:229|44:229|68:146,1,105,2|0,1:2|0:0,0:0:0:0:
57,117,28868,2,0,L|79:44,1,70
170,4,29213,1,10,0:2:0:0:
301,95,29558,1,0,0:0:0:0:
367,165,29730,1,0,0:0:0:0:
365,182,29816,1,0,0:0:0:0:
362,196,29903,6,0,L|352:276,1,70,6|0,1:2|0:0,0:0:0:0:
282,345,30247,2,0,P|244:342|210:328,1,70,0|2,0:0|0:2,0:0:0:0:
118,360,30592,2,0,B|98:324|98:324|128:213,1,140,10|2,0:2|1:2,0:0:0:0:
226,208,31109,1,0,0:0:0:0:
309,157,31282,6,0,P|348:166|373:229,1,105,2|0,1:2|0:0,0:0:0:0:
360,265,31627,1,0,0:0:0:0:
319,355,31799,2,0,L|236:358,1,70,0|10,0:0|0:2,0:0:0:0:
135,188,32316,1,2,0:3:0:0:
73,114,32489,1,0,0:0:0:0:
134,40,32661,6,0,L|207:55,1,70,2|0,1:2|0:0,0:0:0:0:
270,125,33006,1,0,0:0:0:0:
353,80,33178,1,2,0:2:0:0:
437,131,33351,2,0,L|452:211,1,70,10|0,0:2|0:0,0:0:0:0:
393,282,33696,2,0,P|350:295|308:290,1,70,2|0,0:2|0:0,0:0:0:0:
246,352,34040,6,0,B|163:378|177:308|93:333,1,140,10|0,1:1|0:0,0:0:0:0:
15,240,34615,1,8,0:3:0:0:
12,222,34730,2,0,L|-7:109,2,93.3333333333333,8|8|8,0:3|0:3|0:3,0:0:0:0:
128,285,35420,5,2,1:2:0:0:
198,142,35765,2,0,P|240:161|267:151,1,52.5000020027161,0|2,0:0|0:2,0:0:0:0:
317,126,36109,2,0,P|353:120|416:163,1,105.000004005432,10|2,0:2|0:2,0:0:0:0:
432,300,36799,6,0,L|377:332,1,52.5000020027161,2|0,1:2|0:0,0:0:0:0:
324,375,37144,2,0,L|257:366,1,52.5000020027161
206,327,37489,2,0,B|164:340|164:340|147:335|147:335|96:353,1,105.000004005432,8|2,0:2|0:3,0:0:0:0:
230,254,38178,6,0,P|213:217|216:189,1,52.5000020027161,2|0,1:2|0:0,0:0:0:0:
226,129,38523,2,0,P|215:88|190:78,1,52.5000020027161,0|2,0:0|0:2,0:0:0:0:
139,48,38868,1,10,0:2:0:0:
16,158,39213,2,0,L|34:226,1,52.5000020027161,2|0,0:2|0:0,0:0:0:0:
86,261,39558,6,0,B|76:312|76:312|79:322|79:322|67:378,2,105.000004005432,2|0|10,1:2|0:0|0:2,0:0:0:0:
156,115,40592,1,0,0:0:0:0:
224,264,40937,6,0,L|291:281,1,52.5000020027161,2|0,1:2|0:0,0:0:0:0:
342,239,41282,2,0,L|399:225,1,52.5000020027161,0|2,0:0|0:2,0:0:0:0:
455,177,41627,2,0,P|461:138|445:117,1,52.5000020027161,10|0,0:2|0:0,0:0:0:0:
403,67,41972,2,0,L|341:81,1,52.5000020027161,2|0,0:2|0:0,0:0:0:0:
274,64,42316,6,0,L|168:46,1,105.000004005432,2|0,1:2|0:0,0:0:0:0:
92,51,42834,1,0,0:0:0:0:
38,108,43006,2,0,P|59:152|45:216,1,105.000004005432,8|2,0:2|0:3,0:0:0:0:
29,280,43523,1,0,0:0:0:0:
66,348,43696,6,0,P|102:352|150:290,1,105.000004005432,2|0,1:2|0:0,0:0:0:0:
298,229,44385,2,0,L|372:244,1,52.5000020027161,10|0,0:2|0:0,0:0:0:0:
403,296,44730,2,0,L|461:284,1,52.5000020027161,2|0,0:2|0:0,0:0:0:0:
506,223,45075,6,0,P|511:176|462:124,1,105.000004005432,2|0,1:2|0:0,0:0:0:0:
323,79,45765,1,10,0:2:0:0:
285,239,46109,1,0,0:0:0:0:
220,285,46282,1,0,0:0:0:0:
216,270,46368,1,0,0:0:0:0:
212,257,46454,6,0,L|140:261,1,52.5000020027161,6|0,1:2|0:0,0:0:0:0:
84,238,46799,2,0,P|64:201|70:177,1,52.5000020027161,0|2,0:0|0:2,0:0:0:0:
7,138,47144,2,0,P|32:110|52:33,1,105.000004005432,10|2,0:2|1:2,0:0:0:0:
243,24,47834,6,0,B|289:18|289:18|308:30|308:30|361:27,2,105.000004005432,2|0|8,1:2|0:0|0:2,0:0:0:0:
170,170,48868,2,0,L|179:235,1,52.5000020027161,2|0,0:3|0:0,0:0:0:0:
215,294,49213,6,0,L|206:368,1,52.5000020027161,2|0,1:2|0:0,0:0:0:0:
135,368,49558,2,0,P|103:378|68:366,1,52.5000020027161,0|2,0:0|0:2,0:0:0:0:
21,328,49903,2,0,P|10:298|55:233,1,105.000004005432,10|2,0:2|0:2,0:0:0:0:
88,98,50592,6,0,B|77:55|77:55|17:8,2,105.000004005432,2|0|10,1:2|0:0|0:2,0:0:0:0:
178,224,51627,2,0,L|246:211,1,52.5000020027161
267,150,51972,2,0,L|330:161,1,52.5000020027161,2|0,1:2|0:0,0:0:0:0:
393,148,52316,2,0,P|416:214|395:253,1,105.000004005432,0|10,0:0|0:2,0:0:0:0:
308,377,53006,1,2,1:2:0:0:
246,327,53178,1,0,0:0:0:0:
178,360,53351,6,0,B|134:371|134:371|109:364|109:364|62:382,2,105.000004005432,2|0|8,1:2|0:0|0:2,0:0:0:0:
281,234,54385,1,2,0:3:0:0:
243,79,54730,6,0,L|180:75,1,52.5000020027161,2|0,1:2|0:0,0:0:0:0:
131,30,55075,2,0,L|76:38,1,52.5000020027161,0|2,0:0|0:2,0:0:0:0:
23,93,55420,2,0,P|1:121|18:199,1,105.000004005432,10|2,0:2|0:2,0:0:0:0:
81,336,56109,6,0,B|117:344|117:344|126:342|126:342|167:352,2,78.7500030040742,10|0|0,1:1|0:0|0:0,0:0:0:0:
452,27,57489,6,0,L|467:100,1,52.5000020027161,2|0,1:2|0:0,0:0:0:0:
423,148,57834,2,0,L|412:215,1,52.5000020027161,0|2,0:0|0:2,0:0:0:0:
431,271,58178,2,0,P|413:294|328:284,1,105.000004005432,10|2,0:2|0:2,0:0:0:0:
281,258,58696,1,0,0:0:0:0:
216,297,58868,6,0,B|137:312|137:312|94:301,1,105.000004005432,2|0,1:2|0:0,0:0:0:0:
59,246,59385,1,0,0:0:0:0:
95,177,59558,2,0,P|105:147|65:77,1,105.000004005432,8|0,0:2|0:0,0:0:0:0:
178,6,60247,6,0,B|221:6|221:6|238:17|238:17|290:20,1,105.000004005432,2|0,1:2|0:0,0:0:0:0:
339,70,60765,1,2,0:2:0:0:
309,141,60937,2,0,L|319:215,1,52.5000020027161,10|0,0:2|0:0,0:0:0:0:
303,269,61282,2,0,L|314:340,1,52.5000020027161,2|0,0:2|0:0,0:0:0:0:
377,362,61627,6,0,P|416:365|459:310,2,105.000004005432,2|0|8,1:2|0:0|0:2,0:0:0:0:
225,271,63006,6,0,L|155:280,1,52.5000020027161,2|0,1:2|0:0,0:0:0:0:
104,237,63351,2,0,P|94:204|106:169,1,52.5000020027161,0|2,0:0|0:2,0:0:0:0:
85,108,63696,2,0,B|66:29|66:29|102:4,1,105.000004005432,10|2,0:2|0:2,0:0:0:0:
162,33,64213,1,0,0:0:0:0:
232,71,64385,6,0,L|342:42,2,105.000004005432,2|0|8,1:2|0:0|0:2,0:0:0:0:
188,192,65420,2,0,L|202:252,1,52.5000020027161,2|0,0:3|0:0,0:0:0:0:
259,297,65765,6,0,P|293:306|359:268,1,105.000004005432,2|0,0:2|0:0,0:0:0:0:
393,212,66282,1,2,0:2:0:0:
393,212,66454,2,0,L|371:98,1,105.000004005432,2|2,0:2|0:2,0:0:0:0:
329,50,66972,1,0,0:0:0:0:
329,50,67144,6,0,P|289:41|215:74,1,105.000004005432,2|0,0:2|0:0,0:0:0:0:
168,110,67661,1,8,0:2:0:0:
170,123,67747,1,8,0:2:0:0:
171,137,67834,2,0,L|181:201,2,52.5000020027161,8|8|8,0:1|0:1|0:1,0:0:0:0:
257,12,68523,6,0,L|347:9,1,70,2|0,1:2|0:0,0:0:0:0:
403,79,68868,1,0,0:0:0:0:
346,155,69040,1,2,0:2:0:0:
393,236,69213,2,0,B|386:273|386:273|358:298,1,70,10|0,0:2|0:0,0:0:0:0:
285,373,69558,2,0,P|246:362|205:368,1,70,2|0,1:2|0:0,0:0:0:0:
143,298,69903,6,0,B|75:346|63:286|-2:337,2,140,2|0|10,1:2|0:0|0:2,0:0:0:0:
257,186,70937,1,2,0:3:0:0:
222,99,71109,1,0,0:0:0:0:
281,29,71282,6,0,L|360:18,1,70,2|0,1:2|0:0,0:0:0:0:
443,57,71627,1,0,0:0:0:0:
386,132,71799,1,2,0:2:0:0:
390,150,71885,1,0,0:0:0:0:
395,168,71972,2,0,L|410:248,1,70,10|0,0:2|0:0,0:0:0:0:
350,321,72316,2,0,P|310:342|263:333,1,70,2|0,0:2|0:0,0:0:0:0:
226,264,72661,6,0,P|161:264|132:316,1,105,2|0,1:2|0:0,0:0:0:0:
109,330,73006,2,0,P|69:338|35:248,1,140,0|10,0:0|0:2,0:0:0:0:
90,173,73523,1,0,0:0:0:0:
37,93,73696,1,0,0:0:0:0:
91,13,73868,1,0,0:0:0:0:
107,13,73954,1,0,0:0:0:0:
122,12,74040,6,0,L|199:1,1,70,6|0,1:2|0:0,0:0:0:0:
269,63,74385,2,0,L|346:73,1,70,0|2,0:0|0:2,0:0:0:0:
422,20,74730,1,10,0:2:0:0:
366,170,75075,1,2,1:2:0:0:
414,254,75247,1,0,0:0:0:0:
346,333,75420,6,0,B|294:347|270:327|279:311|255:289|188:306,2,140,2|0|10,1:2|0:0|0:2,0:0:0:0:
350,174,76454,2,0,L|255:191,1,70,2|0,0:3|0:0,0:0:0:0:
214,271,76799,5,2,1:2:0:0:
134,225,76972,1,0,0:0:0:0:
185,143,77144,2,0,L|166:55,1,70,0|2,0:0|0:2,0:0:0:0:
101,6,77489,2,0,P|56:3|28:41,1,70,10|0,0:2|0:0,0:0:0:0:
0,109,77834,2,0,L|9:202,1,70,2|0,0:2|0:0,0:0:0:0:
53,269,78178,6,0,P|116:297|158:277,1,105,2|0,1:2|0:0,0:0:0:0:
186,258,78523,2,0,P|232:250|263:278,1,70
332,321,78868,1,10,0:2:0:0:
455,215,79213,1,0,0:0:0:0:
416,127,79385,1,0,0:0:0:0:
418,108,79472,1,0,0:0:0:0:
423,84,79558,6,0,B|389:67|389:67|348:82,1,70,6|0,1:2|0:0,0:0:0:0:
288,146,79903,1,0,0:0:0:0:
201,111,80075,1,2,0:2:0:0:
127,178,80247,2,0,L|152:266,1,70,10|0,0:2|0:0,0:0:0:0:
204,331,80592,2,0,P|265:337|288:319,1,70,2|0,1:2|0:0,0:0:0:0:
348,270,80937,6,0,B|394:249|394:249|501:293,2,140,2|0|10,1:2|0:0|0:2,0:0:0:0:
202,202,81972,2,0,L|219:115,1,70,2|0,0:3|0:0,0:0:0:0:
148,51,82316,6,0,P|111:47|76:61,1,70,2|0,1:2|0:0,0:0:0:0:
17,140,82661,1,0,0:0:0:0:
72,218,82834,1,2,0:2:0:0:
30,306,83006,2,0,P|63:322|113:306,1,70,10|0,0:2|0:0,0:0:0:0:
181,368,83351,2,0,L|272:348,1,70,2|0,0:2|0:0,0:0:0:0:
334,295,83696,6,0,P|352:246|314:198,1,105,2|0,1:2|0:0,0:0:0:0:
285,174,84040,2,0,P|263:138|286:85,1,105
323,50,84385,1,10,0:2:0:0:
431,169,84730,1,0,0:0:0:0:
383,251,84903,1,0,0:0:0:0:
359,245,84989,1,0,0:0:0:0:
336,240,85075,6,0,L|236:219,1,70,6|0,1:2|0:0,0:0:0:0:
198,147,85420,1,0,0:0:0:0:
110,191,85592,1,2,0:2:0:0:
20,162,85765,2,0,L|-1:245,1,70,10|0,0:2|0:0,0:0:0:0:
49,320,86109,2,0,P|85:343|120:342,1,70,2|0,1:2|0:0,0:0:0:0:
208,304,86454,6,0,P|268:306|307:357,1,105,2|0,1:2|0:0,0:0:0:0:
328,367,86799,1,0,0:0:0:0:
427,339,86972,2,0,P|443:302|434:268,1,70,0|10,0:0|0:2,0:0:0:0:
278,214,87489,1,2,0:3:0:0:
257,122,87661,1,0,0:0:0:0:
338,70,87834,6,0,P|364:62|424:88,1,70,2|0,1:2|0:0,0:0:0:0:
473,144,88178,1,0,0:0:0:0:
426,225,88351,1,2,0:2:0:0:
440,317,88523,2,0,L|324:297,1,105,10|0,0:2|0:0,0:0:0:0:
287,320,88868,2,0,L|188:300,1,70,2|0,0:2|0:0,0:0:0:0:
116,325,89213,5,10,1:1:0:0:
131,92,89788,1,8,0:3:0:0:
148,105,89903,2,0,B|190:94|190:94|210:100|210:100|259:88,2,93.3333333333333,8|8|8,0:3|0:3|0:3,0:0:0:0:
