osu file format v14

[General]
AudioFilename: audio.mp3
AudioLeadIn: 0
PreviewTime: -1
Countdown: 1
SampleSet: Normal
StackLeniency: 0.7
Mode: 0
LetterboxInBreaks: 0
WidescreenStoryboard: 0

[Editor]
Bookmarks: 87005,130130
DistanceSpacing: 2.3
BeatDivisor: 4
GridSize: 4
TimelineZoom: 1

[Metadata]
Title:Shakuhachi
TitleUnicode:Shakuhachi
Artist:GRILLABEATS [prod. UNRTHDX]
ArtistUnicode:GRILLABEATS [prod. UNRTHDX]
Creator:WATASHI N0 BAKA
Version:wN0b Pyrocks collab
Source:
Tags:
BeatmapID:1330911
BeatmapSetID:630457

[Difficulty]
HPDrainRate:7
CircleSize:4.4
OverallDifficulty:7
ApproachRate:9
SliderMultiplier:1.99999990463257
SliderTickRate:2

[Events]
//Background and Video events
//Break Periods
2,86621,129701
//Storyboard Layer 0 (Background)
//Storyboard Layer 1 (Fail)
//Storyboard Layer 2 (Pass)
//Storyboard Layer 3 (Foreground)
//Storyboard Sound Samples

[TimingPoints]
21892,681.818181818182,4,1,0,100,1,0
21892,-100,4,1,0,100,0,0
64335,-66.6666666666667,4,1,0,100,0,0
65357,-100,4,1,0,100,0,0

[HitObjects]
384,192,21892,5,0,0:0:0:0:
192,64,22232,1,0,0:0:0:0:
92,64,22378,1,0,0:0:0:0:
364,300,22914,1,0,0:0:0:0:
136,308,23255,1,0,0:0:0:0:
348,220,23596,1,0,0:0:0:0:
348,220,23682,1,0,0:0:0:0:
348,220,23766,1,0,0:0:0:0:
348,220,23852,1,0,0:0:0:0:
348,220,23937,1,0,0:0:0:0:
348,220,24023,1,0,0:0:0:0:
348,220,24107,1,0,0:0:0:0:
348,220,24193,1,0,0:0:0:0:
348,220,24278,1,0,0:0:0:0:
136,308,24619,5,0,0:0:0:0:
176,84,24959,1,0,0:0:0:0:
176,84,25105,1,0,0:0:0:0:
432,340,25641,1,0,0:0:0:0:
412,112,25982,1,0,0:0:0:0:
196,192,26323,2,0,L|268:248,8,24.9999976158142
404,96,27346,5,0,0:0:0:0:
364,324,27686,1,0,0:0:0:0:
364,324,27832,1,0,0:0:0:0:
132,48,28368,1,0,0:0:0:0:
160,276,28709,1,0,0:0:0:0:
392,292,29051,1,0,0:0:0:0:
416,260,29137,1,0,0:0:0:0:
428,224,29221,1,0,0:0:0:0:
428,188,29307,1,0,0:0:0:0:
416,152,29391,1,0,0:0:0:0:
388,124,29477,1,0,0:0:0:0:
356,104,29562,1,0,0:0:0:0:
332,76,29648,1,0,0:0:0:0:
316,44,29732,1,0,0:0:0:0:
96,108,30073,5,0,0:0:0:0:
172,336,30414,2,0,L|208:292,1,49.9999976158142
424,128,31095,1,0,0:0:0:0:
200,80,31436,1,0,0:0:0:0:
80,276,31778,1,0,0:0:0:0:
116,296,31864,1,0,0:0:0:0:
156,308,31948,1,0,0:0:0:0:
200,316,32034,1,0,0:0:0:0:
240,324,32119,1,0,0:0:0:0:
284,320,32205,1,0,0:0:0:0:
324,308,32289,1,0,0:0:0:0:
364,292,32375,1,0,0:0:0:0:
396,264,32460,1,0,0:0:0:0:
312,52,32801,5,0,0:0:0:0:
84,244,33142,1,0,0:0:0:0:
372,320,33482,1,0,0:0:0:0:
184,84,33823,2,0,L|272:144,1,99.9999952316285
200,336,34505,1,0,0:0:0:0:
308,56,34846,1,0,0:0:0:0:
40,188,35187,1,0,0:0:0:0:
320,292,35528,1,0,0:0:0:0:
136,52,35869,1,0,0:0:0:0:
436,72,36210,1,0,0:0:0:0:
300,340,36551,1,0,0:0:0:0:
252,44,36892,1,0,0:0:0:0:
152,192,37232,6,0,L|224:248,8,24.9999976158142
364,100,38255,1,0,0:0:0:0:
256,300,38595,1,0,0:0:0:0:
156,300,38741,1,0,0:0:0:0:
412,44,39277,1,0,0:0:0:0:
188,88,39618,1,0,0:0:0:0:
396,192,39960,2,0,L|468:248,8,24.9999976158142
196,304,40982,5,0,0:0:0:0:
244,68,41323,2,0,L|304:104,1,49.9999976158142
444,316,42004,1,0,0:0:0:0:
252,188,42345,1,0,0:0:0:0:
440,52,42687,1,0,0:0:0:0:
420,36,42773,1,0,0:0:0:0:
396,32,42857,1,0,0:0:0:0:
372,40,42943,1,0,0:0:0:0:
364,64,43028,1,0,0:0:0:0:
376,88,43114,1,0,0:0:0:0:
392,104,43198,1,0,0:0:0:0:
408,124,43284,1,0,0:0:0:0:
408,148,43369,1,0,0:0:0:0:
204,40,43710,5,0,0:0:0:0:
208,292,44050,1,0,0:0:0:0:
208,292,44196,1,0,0:0:0:0:
464,36,44732,1,0,0:0:0:0:
220,40,45073,1,0,0:0:0:0:
192,268,45414,1,0,0:0:0:0:
252,296,45500,1,0,0:0:0:0:
316,292,45585,1,0,0:0:0:0:
364,252,45671,1,0,0:0:0:0:
368,192,45755,1,0,0:0:0:0:
328,144,45841,1,0,0:0:0:0:
268,132,45926,1,0,0:0:0:0:
208,152,46012,1,0,0:0:0:0:
184,208,46096,1,0,0:0:0:0:
380,328,46437,5,0,0:0:0:0:
436,104,46778,2,0,P|396:136|375:127,1,49.9999976158143
76,84,47459,1,0,0:0:0:0:
208,272,47800,1,0,0:0:0:0:
364,104,48141,1,0,0:0:0:0:
360,92,48227,1,0,0:0:0:0:
348,100,48312,1,0,0:0:0:0:
344,88,48398,1,0,0:0:0:0:
332,96,48482,1,0,0:0:0:0:
328,84,48568,1,0,0:0:0:0:
316,92,48653,1,0,0:0:0:0:
312,80,48739,1,0,0:0:0:0:
300,84,48823,1,0,0:0:0:0:
408,288,49165,5,0,0:0:0:0:
184,332,49505,1,0,0:0:0:0:
108,268,49651,1,0,0:0:0:0:
428,100,50187,1,0,0:0:0:0:
236,224,50528,1,0,0:0:0:0:
60,80,50869,2,0,L|132:136,8,24.9999976158142
288,52,51892,1,0,0:0:0:0:
436,228,52232,2,0,L|368:228,1,49.9999976158142
112,76,52914,1,0,0:0:0:0:
36,292,53255,1,0,0:0:0:0:
268,292,53596,2,0,L|340:348,8,24.9999976158142
76,60,54619,5,0,0:0:0:0:
256,332,54990,1,0,0:0:0:0:
456,80,55356,1,0,0:0:0:0:
436,332,55645,1,0,0:0:0:0:
156,348,55964,1,0,0:0:0:0:
72,72,56293,1,0,0:0:0:0:
372,44,56634,1,0,0:0:0:0:
104,232,57005,1,0,0:0:0:0:
392,340,57356,1,0,0:0:0:0:
152,120,57727,1,0,0:0:0:0:
468,44,58098,1,0,0:0:0:0:
324,236,58369,1,0,0:0:0:0:
80,76,58700,1,0,0:0:0:0:
260,324,59051,1,0,0:0:0:0:
308,308,59137,5,0,0:0:0:0:
348,280,59222,1,0,0:0:0:0:
372,236,59308,1,0,0:0:0:0:
380,188,59392,1,0,0:0:0:0:
360,140,59478,1,0,0:0:0:0:
316,112,59563,1,0,0:0:0:0:
268,100,59649,1,0,0:0:0:0:
224,124,59733,1,0,0:0:0:0:
368,304,60073,1,0,0:0:0:0:
140,320,60413,1,0,0:0:0:0:
140,320,60559,1,0,0:0:0:0:
400,68,61095,1,0,0:0:0:0:
172,36,61436,1,0,0:0:0:0:
388,116,61778,5,0,0:0:0:0:
380,188,61864,1,0,0:0:0:0:
340,244,61949,1,0,0:0:0:0:
276,272,62035,1,0,0:0:0:0:
208,272,62119,1,0,0:0:0:0:
140,252,62205,1,0,0:0:0:0:
108,188,62290,1,0,0:0:0:0:
124,120,62376,1,0,0:0:0:0:
188,92,62460,1,0,0:0:0:0:
56,280,62801,5,0,0:0:0:0:
84,52,63141,1,0,0:0:0:0:
84,52,63287,1,0,0:0:0:0:
280,356,63823,1,0,0:0:0:0:
76,252,64164,1,0,0:0:0:0:
256,112,64505,2,0,L|300:144,1,49.9999976158142
256,112,64676,2,0,L|312:148,1,49.9999976158142
256,112,64846,2,0,B|256:120|291:135|312:148,1,49.9999976158142
256,112,65016,2,0,B|264:124|295:139|312:152,1,49.9999976158142
92,56,65528,5,0,0:0:0:0:
428,336,66026,1,0,0:0:0:0:
36,224,66491,1,0,0:0:0:0:
316,32,66879,1,0,0:0:0:0:
32,152,67232,1,0,0:0:0:0:
328,96,67573,2,0,L|228:172,1,99.9999952316285
432,60,68255,1,0,0:0:0:0:
84,312,68743,1,0,0:0:0:0:
476,168,69218,1,0,0:0:0:0:
160,40,69606,1,0,0:0:0:0:
356,280,69959,1,0,0:0:0:0:
60,228,70301,2,0,L|104:264,1,49.9999976158143
328,92,70642,2,0,L|304:160,1,49.9999976158143
168,344,70982,5,0,0:0:0:0:
476,36,71480,1,0,0:0:0:0:
68,52,71945,1,0,0:0:0:0:
316,288,72333,1,0,0:0:0:0:
60,112,72686,1,0,0:0:0:0:
244,348,73028,2,0,L|272:248,1,99.9999952316285
196,32,73710,1,0,0:0:0:0:
376,140,74221,5,0,0:0:0:0:
320,236,74492,1,0,0:0:0:0:
264,152,74732,1,0,0:0:0:0:
184,68,75018,1,0,0:0:0:0:
156,156,75244,1,0,0:0:0:0:
264,152,75520,1,0,0:0:0:0:
360,140,75755,1,0,0:0:0:0:
236,72,76096,1,0,0:0:0:0:
420,308,76437,5,0,0:0:0:0:
60,56,76935,1,0,0:0:0:0:
464,116,77400,1,0,0:0:0:0:
212,344,77788,1,0,0:0:0:0:
280,40,78141,1,0,0:0:0:0:
408,232,78482,2,0,L|320:284,1,99.9999952316285
436,136,79164,1,0,0:0:0:0:
44,332,79662,1,0,0:0:0:0:
320,32,80127,1,0,0:0:0:0:
464,340,80515,1,0,0:0:0:0:
148,308,80874,1,0,0:0:0:0:
40,36,81209,1,0,0:0:0:0:
340,32,81550,1,0,0:0:0:0:
80,184,81892,5,0,0:0:0:0:
484,356,82390,1,0,0:0:0:0:
236,28,82855,1,0,0:0:0:0:
340,352,83243,1,0,0:0:0:0:
452,64,83596,1,0,0:0:0:0:
280,308,83937,2,0,L|212:264,1,49.9999976158143
72,88,84278,2,0,L|120:112,1,49.9999976158143
368,132,84619,1,0,0:0:0:0:
168,136,85130,5,0,0:0:0:0:
228,84,85401,1,0,0:0:0:0:
240,152,85641,1,0,0:0:0:0:
256,236,85927,1,0,0:0:0:0:
196,264,86153,1,0,0:0:0:0:
260,312,86421,1,0,0:0:0:0:
240,188,130301,5,0,0:0:0:0:
212,112,130982,1,0,0:0:0:0:
288,192,131480,1,0,0:0:0:0:
376,120,131945,1,0,0:0:0:0:
388,244,132333,1,0,0:0:0:0:
204,160,133028,1,0,0:0:0:0:
304,180,133369,1,0,0:0:0:0:
212,112,133709,1,0,0:0:0:0:
288,192,134207,1,0,0:0:0:0:
376,120,134672,1,0,0:0:0:0:
388,244,135060,1,0,0:0:0:0:
212,112,136436,1,0,0:0:0:0:
288,192,136778,1,0,0:0:0:0:
264,96,136948,1,0,0:0:0:0:
376,120,137399,1,0,0:0:0:0:
388,244,137787,1,0,0:0:0:0:
152,120,138822,1,0,0:0:0:0:
336,128,139164,1,0,0:0:0:0:
204,152,139505,1,0,0:0:0:0:
240,184,139676,1,0,0:0:0:0:
296,196,140187,1,0,0:0:0:0:
324,72,140528,1,0,0:0:0:0:
140,116,141550,1,0,0:0:0:0:
212,112,141891,1,0,0:0:0:0:
288,192,142232,1,0,0:0:0:0:
156,208,142403,1,0,0:0:0:0:
172,240,142573,1,0,0:0:0:0:
376,120,142854,1,0,0:0:0:0:
388,244,143242,1,0,0:0:0:0:
264,124,143595,1,0,0:0:0:0:
248,240,143936,1,0,0:0:0:0:
152,120,144277,1,0,0:0:0:0:
212,112,144618,1,0,0:0:0:0:
288,192,145116,1,0,0:0:0:0:
376,120,145581,1,0,0:0:0:0:
388,244,145969,1,0,0:0:0:0:
152,120,147004,1,0,0:0:0:0:
212,112,147346,1,0,0:0:0:0:
112,160,147687,1,0,0:0:0:0:
288,192,147844,1,0,0:0:0:0:
376,120,148309,1,0,0:0:0:0:
388,244,148697,1,0,0:0:0:0:
152,120,149732,1,0,0:0:0:0:
304,120,150073,1,0,0:0:0:0:
204,152,150414,1,0,0:0:0:0:
240,184,150585,1,0,0:0:0:0:
296,196,151096,1,0,0:0:0:0:
324,72,151437,1,0,0:0:0:0:
212,112,152801,1,0,0:0:0:0:
288,192,153299,1,0,0:0:0:0:
376,120,153764,1,0,0:0:0:0:
388,244,154152,1,0,0:0:0:0:
264,124,154505,1,0,0:0:0:0:
248,240,154846,1,0,0:0:0:0:
152,120,155187,1,0,0:0:0:0:
212,112,155528,1,0,0:0:0:0:
288,192,156026,1,0,0:0:0:0:
376,120,156491,1,0,0:0:0:0:
388,244,156879,1,0,0:0:0:0:
264,124,157232,1,0,0:0:0:0:
248,240,157573,1,0,0:0:0:0:
152,120,157914,1,0,0:0:0:0:
212,112,158255,1,0,0:0:0:0:
288,192,158753,1,0,0:0:0:0:
376,120,159218,1,0,0:0:0:0:
388,244,159606,1,0,0:0:0:0:
264,124,159959,1,0,0:0:0:0:
248,240,160300,1,0,0:0:0:0:
152,120,160641,1,0,0:0:0:0:
336,128,160983,1,0,0:0:0:0:
204,152,161494,1,0,0:0:0:0:
240,184,161765,1,0,0:0:0:0:
296,196,162005,1,0,0:0:0:0:
324,72,162291,1,0,0:0:0:0:
356,188,162517,1,0,0:0:0:0:
388,148,162793,1,0,0:0:0:0:
252,72,163028,1,0,0:0:0:0:
140,116,163369,1,0,0:0:0:0:
212,112,163710,1,0,0:0:0:0:
288,192,164208,1,0,0:0:0:0:
376,120,164673,1,0,0:0:0:0:
388,244,165061,1,0,0:0:0:0:
264,124,165414,1,0,0:0:0:0:
248,240,165755,1,0,0:0:0:0:
152,120,166096,1,0,0:0:0:0:
288,192,166935,5,0,0:0:0:0:
376,120,167400,1,0,0:0:0:0:
388,244,167788,1,0,0:0:0:0:
264,124,168141,1,0,0:0:0:0:
248,240,168482,1,0,0:0:0:0:
152,120,168823,1,0,0:0:0:0:
212,112,169165,1,0,0:0:0:0:
288,192,169663,1,0,0:0:0:0:
376,120,170128,1,0,0:0:0:0:
388,244,170516,1,0,0:0:0:0:
264,124,170869,1,0,0:0:0:0:
248,240,171210,1,0,0:0:0:0:
152,120,171551,1,0,0:0:0:0:
304,120,171892,1,0,0:0:0:0:
204,152,172403,1,0,0:0:0:0:
240,184,172674,1,0,0:0:0:0:
296,196,172914,1,0,0:0:0:0:
324,72,173200,1,0,0:0:0:0:
356,188,173426,1,0,0:0:0:0:
388,148,173702,1,0,0:0:0:0:
256,192,174107,12,0,177346,0:0:0:0:
