osu file format v14

[General]
AudioFilename: audio.mp3
AudioLeadIn: 0
PreviewTime: 52575
Countdown: 0
SampleSet: Drum
StackLeniency: 0.2
Mode: 0
LetterboxInBreaks: 0
WidescreenStoryboard: 1

[Editor]
Bookmarks: 19578
DistanceSpacing: 2.2
BeatDivisor: 4
GridSize: 8
TimelineZoom: 1.1

[Metadata]
Title:Setsuna no Ai (TV Size)
TitleUnicode:セツナの愛 (TV Size)
Artist:GRANRODEO
ArtistUnicode:GRANRODEO
Creator:Yahuri
Version:Insane
Source:文豪ストレイドッグス
Tags:bungo bungou stray dogs nakahara chuuya dazai osamu soukoku anime japanese rock jrock
BeatmapID:2104517
BeatmapSetID:949559

[Difficulty]
HPDrainRate:5.5
CircleSize:4
OverallDifficulty:7
ApproachRate:8.5
SliderMultiplier:1.5
SliderTickRate:1

[Events]
//Background and Video events
0,0,"4nimenut.jpg",0,0
Video,530,"BSD S3 OP.mp4"
//Break Periods
//Storyboard Layer 0 (Background)
//Storyboard Layer 1 (Fail)
//Storyboard Layer 2 (Pass)
//Storyboard Layer 3 (Foreground)
//Storyboard Layer 4 (Overlay)
//Storyboard Sound Samples

[TimingPoints]
666,363.636363636364,4,2,1,30,1,0
666,-133.333333333333,4,2,1,30,0,0
5756,-133.333333333333,4,3,1,40,0,0
6484,-100,4,3,1,60,0,0
15211,-200,4,2,1,40,0,0
17575,-142.857142857143,4,2,1,40,0,0
18120,-100,4,3,1,50,0,0
20484,-142.857142857143,4,3,1,50,0,0
21029,-100,4,3,1,50,0,0
22302,-142.857142857143,4,3,1,50,0,0
23938,-100,4,3,1,50,0,0
25211,-142.857142857143,4,3,1,50,0,0
26847,-100,4,3,1,50,0,0
29757,-100,4,3,1,60,0,0
41393,-133.333333333333,4,3,1,50,0,0
47211,-100,4,3,1,60,0,0
52666,-133.333333333333,4,3,1,60,0,0
52938,-133.333333333333,4,3,1,5,0,0
53029,-83.3333333333333,4,3,1,70,0,1
64575,-83.3333333333333,4,3,1,70,0,0
64666,-83.3333333333333,4,3,1,70,0,1
79211,-100,4,3,1,70,0,0
84938,-100,4,3,1,5,0,0
85029,-100,4,3,1,70,0,0
87393,-100,4,3,1,70,0,0
89211,-100,4,3,1,50,0,0
89393,-100,4,3,1,30,0,0
89575,-100,4,3,1,5,0,0

[Colours]
Combo1 : 159,159,159
Combo2 : 255,0,6
Combo3 : 255,128,0
Combo4 : 213,0,106
Combo5 : 113,57,113
Combo6 : 106,106,106
SliderBorder : 255,0,0
SliderTrackOverride : 0,0,0

[HitObjects]
156,179,666,54,0,L|281:168,1,112.500004291535,2|0,0:0|0:0,0:0:0:0:
400,208,1211,2,0,L|344:204,1,56.2500021457673,0|8,0:0|0:0,0:0:0:0:
291,88,1575,2,0,L|337:120,1,56.2500021457673
274,254,1938,6,0,L|263:379,1,112.500004291535,2|2,0:0|0:0,0:0:0:0:
185,334,2484,1,2,0:0:0:0:
353,286,2847,1,8,0:0:0:0:
327,263,3575,70,0,L|202:274,1,112.500004291535,2|0,0:0|0:0,0:0:0:0:
83,234,4120,2,0,L|139:238,1,56.2500021457673,0|8,0:0|0:0,0:0:0:0:
192,354,4484,2,0,L|146:322,1,56.2500021457673
209,188,4847,6,0,L|220:63,1,112.500004291535,2|2,0:0|0:0,0:0:0:0:
298,108,5393,1,2,0:0:0:0:
130,156,5756,21,8,0:0:0:0:
256,278,5938,1,4,0:0:0:0:
283,259,6484,6,0,B|357:250|357:250|426:285,1,150,4|0,0:2|2:0,0:0:0:0:
492,149,7029,2,0,P|493:186|481:221,1,75,0|8,2:0|0:0,0:0:0:0:
386,106,7393,2,0,P|405:138|413:175,1,75,0|0,2:0|2:0,3:0:0:0:
283,259,7756,6,0,B|240:234|240:234|140:248,1,150
44,307,8302,2,0,L|58:234,1,75,0|0,0:0|2:0,0:0:0:0:
209,152,8666,2,0,B|109:166|109:166|66:141,1,150,8|0,0:0|2:0,0:0:0:0:
132,49,9211,1,0,2:0:0:0:
281,66,9393,6,0,B|315:133|315:133|306:207,1,150,0|0,0:0|2:0,0:0:0:0:
158,235,9938,2,0,P|195:233|230:245,1,75,0|8,2:0|0:0,0:0:0:0:
115,341,10302,2,0,P|147:321|183:314,1,75,0|0,2:0|2:0,3:0:0:0:
325,364,10666,38,0,B|350:321|350:321|336:221,1,150
278,124,11211,2,0,L|351:138,1,75,0|0,0:0|2:0,0:0:0:0:
209,60,11575,1,8,3:0:0:0:
233,207,11756,1,0,3:0:0:0:
92,157,11938,2,0,L|19:171,1,75,4|0,0:0|2:0,0:0:0:0:
131,381,12302,6,0,B|164:314|164:314|155:237,1,150,4|0,0:2|2:0,0:0:0:0:
305,222,12847,2,0,P|270:208|233:207,1,75,0|8,2:0|0:0,0:0:0:0:
310,336,13211,2,0,P|286:307|254:287,1,75,0|0,2:0|2:0,3:0:0:0:
131,381,13575,6,0,B|106:338|106:338|120:238,1,150
179,142,14120,2,0,L|106:156,1,75,0|0,0:0|2:0,0:0:0:0:
254,181,14484,2,0,B|354:195|354:195|397:170,1,150,8|0,0:0|0:0,0:0:0:0:
357,51,15029,1,0,2:0:0:0:
357,51,15211,22,0,L|432:57,1,75
433,166,15756,2,0,L|396:170,1,37.5
290,232,16120,2,0,L|328:236,1,37.5
222,298,16484,1,0,0:0:0:0:
222,298,17575,6,0,L|290:304,2,52.4999983978272,0|0|0,2:0|2:0|2:0,0:0:0:0:
92,261,18120,22,0,L|78:110,1,150,4|0,0:2|2:0,0:0:0:0:
167,42,18666,1,0,2:0:0:0:
280,113,18847,2,0,L|431:127,1,150,8|0,0:0|2:0,0:0:0:0:
471,232,19393,53,0,0:0:0:0:
454,273,19756,1,0,0:0:0:0:
454,273,19938,1,0,0:0:0:0:
438,315,20302,1,8,0:0:0:0:
329,284,20484,2,0,L|266:289,2,52.4999983978272,0|0|0,2:0|2:0|2:0,0:0:0:0:
376,182,21029,22,0,L|382:108,1,75,0|0,0:0|2:0,0:0:0:0:
274,76,21393,2,0,L|280:150,1,75,0|0,2:0|2:0,0:0:0:0:
157,271,21756,2,0,L|171:122,1,150,8|0,0:0|2:0,0:0:0:0:
48,59,22302,54,0,B|51:111|51:111|60:124|60:124|65:182,1,104.999996795654
29,271,22847,1,0,0:0:0:0:
66,295,23211,1,8,0:0:0:0:
105,318,23575,2,0,L|169:312,1,52.4999983978272,0|0,2:0|2:0,0:0:0:0:
238,235,23938,22,0,L|248:117,1,112.5,0|0,0:0|2:0,0:0:0:0:
284,56,24302,2,0,L|358:50,1,75,0|0,2:0|2:0,0:0:0:0:
457,143,24666,2,0,L|383:137,1,75,8|0,0:0|2:0,0:0:0:0:
323,233,25029,1,0,2:0:0:0:
409,336,25211,54,0,L|304:345,1,104.999996795654
410,246,25756,1,0,0:0:0:0:
410,246,25938,2,0,L|466:250,1,52.4999983978272,0|8,2:0|0:0,0:0:0:0:
411,147,26302,2,0,L|307:157,1,104.999996795654,0|0,2:0|2:0,0:0:0:0:
213,232,26847,22,0,P|196:279|200:319,1,75,0|0,0:0|2:0,0:0:0:0:
93,178,27211,2,0,P|98:215|116:248,1,75,0|0,2:0|2:0,0:0:0:0:
199,101,27575,1,8,0:0:0:0:
248,159,27756,1,0,2:0:0:0:
324,174,27938,1,0,2:0:0:0:
392,138,28120,53,0,0:0:0:0:
405,181,28484,1,0,0:0:0:0:
405,181,28666,1,0,0:0:0:0:
417,224,29029,1,8,0:0:0:0:
394,334,29211,1,0,0:0:0:0:
394,334,29302,1,0,0:0:0:0:
394,334,29393,2,0,P|357:332|323:318,1,75,8|0,0:0|2:0,0:0:0:0:
220,206,29756,6,0,B|183:199|183:199|151:218,1,75,4|0,0:2|2:0,0:0:0:0:
77,332,30120,1,8,0:0:0:0:
35,230,30302,1,0,2:0:0:0:
35,230,30393,1,8,0:0:0:0:
35,230,30484,2,0,P|36:192|51:158,1,75
127,75,30847,1,0,2:0:0:0:
235,155,31029,6,0,L|221:81,1,75,8|0,0:0|2:0,0:0:0:0:
345,24,31393,2,0,L|331:97,1,75,0|8,0:0|0:0,0:0:0:0:
363,206,31756,1,0,0:0:0:0:
363,206,31847,1,8,0:0:0:0:
363,206,31938,1,0,0:0:0:0:
468,167,32120,1,0,0:0:0:0:
504,297,32302,1,8,0:0:0:0:
483,336,32666,70,0,B|451:355|451:355|414:348,1,75,0|0,0:0|2:0,0:0:0:0:
306,267,33029,2,0,L|232:281,1,75,8|0,0:0|2:0,0:0:0:0:
130,231,33393,2,0,L|56:245,1,75
112,342,33756,1,0,2:0:0:0:
232,280,33938,6,0,P|241:217|198:138,1,150,8|0,0:0|0:0,0:0:0:0:
104,48,34484,1,8,0:0:0:0:
237,69,34666,2,0,B|314:85|305:38|380:43,1,150,0|0,2:0|0:0,0:0:0:0:
380,210,35211,2,0,P|365:176|364:139,1,75,8|0,0:0|2:0,0:0:0:0:
469,291,35575,70,0,B|437:310|437:310|400:303,1,75,4|0,0:2|2:0,0:0:0:0:
292,274,35938,2,0,B|255:267|255:267|223:286,1,75,8|0,0:0|2:0,0:0:0:0:
119,333,36302,2,0,L|45:319,2,75,0|0|0,0:0|0:0|2:0,0:0:0:0:
184,215,36847,6,0,B|191:178|191:178|172:146,1,75,8|0,0:0|2:0,0:0:0:0:
284,158,37211,2,0,B|315:136|315:136|324:100,1,75,0|8,0:0|0:0,0:0:0:0:
395,188,37575,2,0,B|432:194|432:194|464:176,1,75,0|0,2:0|0:0,0:0:0:0:
452,287,37938,2,0,B|473:318|473:318|509:327,1,75,0|8,0:0|0:0,0:0:0:0:
378,365,38302,1,0,2:0:0:0:
314,246,38484,70,0,P|361:229|401:233,1,75,0|0,0:0|2:0,0:0:0:0:
260,126,38847,2,0,P|297:131|330:149,1,75,8|0,0:0|2:0,0:0:0:0:
188,253,39211,1,0,0:0:0:0:
245,202,39393,1,0,0:0:0:0:
260,126,39575,1,0,2:0:0:0:
124,64,39756,6,0,B|102:47|102:47|223:57,1,150,8|0,0:0|0:0,0:0:0:0:
371,26,40302,1,10,0:0:0:0:
437,117,40484,1,0,0:0:0:0:
437,117,40575,1,0,0:0:0:0:
437,117,40666,2,0,L|473:110,3,37.5,4|0|0|0,0:0|0:0|0:0|0:0,0:0:0:0:
378,164,41029,1,4,0:0:0:0:
353,192,41120,1,8,0:0:0:0:
339,226,41211,1,4,0:0:0:0:
339,264,41302,1,4,0:0:0:0:
351,299,41393,6,0,L|465:309,1,112.500004291535,4|0,0:2|2:0,0:0:0:0:
256,334,42120,1,8,0:0:0:0:
195,383,42302,1,0,2:0:0:0:
144,324,42484,1,0,2:0:0:0:
205,273,42666,22,0,L|210:207,1,56.2500021457673,0|0,0:0|2:0,0:0:0:0:
115,181,43029,2,0,L|119:237,1,56.2500021457673,0|0,0:0|2:0,0:0:0:0:
210,217,43393,2,0,L|215:151,1,56.2500021457673,0|8,0:0|0:0,0:0:0:0:
110,125,43756,2,0,L|114:181,1,56.2500021457673,0|0,2:0|2:0,0:0:0:0:
181,88,44120,1,0,2:0:0:0:
287,125,44302,54,0,L|352:119,1,56.2500021457673,0|0,0:0|2:0,0:0:0:0:
414,46,44666,2,0,L|357:41,1,56.2500021457673,0|0,2:0|2:0,0:0:0:0:
404,171,45029,1,8,0:0:0:0:
412,247,45211,1,0,2:0:0:0:
373,314,45393,1,0,2:0:0:0:
301,341,45575,22,0,L|189:332,2,112.500004291535,0|0|0,0:0|0:0|2:0,0:0:0:0:
255,214,46484,1,8,0:0:0:0:
123,265,46666,1,4,0:0:0:0:
56,141,46847,1,4,0:0:0:0:
58,113,46938,1,4,0:0:0:0:
68,87,47029,1,4,0:0:0:0:
86,65,47120,1,4,0:0:0:0:
110,50,47211,70,0,B|184:70|184:70|221:62|221:62|268:76,1,150,4|8,0:2|0:0,0:0:0:0:
401,149,47756,2,0,B|327:169|327:169|290:161|290:161|243:175,1,150,4|8,0:2|0:0,0:0:0:0:
110,248,48302,2,0,B|184:268|184:268|221:260|221:260|268:274,1,150,4|8,0:2|0:0,0:0:0:0:
401,347,48847,2,0,B|327:367|327:367|290:359|290:359|243:373,1,150,4|8,0:2|0:0,0:0:0:0:
189,217,49393,69,8,0:0:0:0:
344,271,49575,1,4,0:2:0:0:
444,160,49756,1,8,0:0:0:0:
437,123,49847,1,4,0:0:0:0:
430,86,49938,1,4,0:0:0:0:
424,49,50029,1,0,0:0:0:0:
417,12,50120,5,12,0:0:0:0:
256,54,50302,1,4,0:0:0:0:
256,99,50666,1,4,0:0:0:0:
256,144,51029,1,4,0:0:0:0:
256,189,51393,70,0,B|230:235|256:284|256:284|270:254|269:233,1,150,4|8,0:2|0:0,0:0:0:0:
256,54,51938,1,8,0:0:0:0:
256,54,52484,5,0,0:0:0:0:
256,44,52575,1,0,0:0:0:0:
257,34,52666,2,0,L|168:49,1,84.3750032186509,8|0,0:0|2:0,0:0:0:0:
74,65,53029,37,4,0:2:0:0:
159,169,53211,1,8,0:0:0:0:
27,189,53393,1,0,0:0:0:0:
27,189,53484,1,0,0:0:0:0:
27,189,53575,1,8,0:0:0:0:
112,295,53756,1,0,0:0:0:0:
159,169,53938,1,8,0:0:0:0:
242,273,54120,1,0,0:0:0:0:
242,273,54211,1,0,0:0:0:0:
242,273,54302,1,8,0:0:0:0:
369,145,54484,6,0,B|414:141|414:141|459:161,1,89.9999972534181,0|8,0:0|0:0,0:0:0:0:
477,293,54847,1,0,0:0:0:0:
477,293,54938,1,0,0:0:0:0:
477,293,55029,2,0,B|431:296|431:296|386:276,1,89.9999972534181,8|0,0:0|0:0,0:0:0:0:
283,130,55393,2,0,B|329:127|329:127|369:144,1,89.9999972534181,8|0,0:0|0:0,0:0:0:0:
415,141,55666,1,0,0:0:0:0:
415,141,55756,1,8,0:0:0:0:
267,243,55938,5,0,0:0:0:0:
171,146,56120,1,8,0:0:0:0:
135,278,56302,1,0,0:0:0:0:
135,278,56393,1,0,0:0:0:0:
135,278,56484,2,0,P|85:280|45:259,1,89.9999972534181,8|0,0:0|0:0,0:0:0:0:
1,136,56847,1,8,0:0:0:0:
92,36,57029,1,0,0:0:0:0:
92,36,57120,1,0,0:0:0:0:
92,36,57211,1,8,0:0:0:0:
248,125,57393,6,0,B|293:129|293:129|338:109,1,89.9999972534181,0|8,0:0|0:0,0:0:0:0:
456,53,57756,1,0,0:0:0:0:
456,53,57847,1,0,0:0:0:0:
456,53,57938,2,0,L|437:155,1,89.9999972534181,8|0,0:0|0:0,0:0:0:0:
506,260,58302,2,0,L|417:275,1,89.9999972534181,8|0,0:0|0:0,0:0:0:0:
373,267,58575,1,0,0:0:0:0:
328,260,58666,1,8,0:0:0:0:
284,252,58756,1,8,0:0:0:0:
240,244,58847,38,0,P|242:294|221:334,1,89.9999972534181,4|8,0:2|0:0,0:0:0:0:
67,258,59211,1,0,0:0:0:0:
67,258,59302,1,0,0:0:0:0:
67,258,59393,2,0,P|108:276|153:273,1,89.9999972534181,8|0,0:0|0:0,0:0:0:0:
138,100,59756,2,0,P|120:140|123:185,1,89.9999972534181,8|0,0:0|0:0,0:0:0:0:
210,155,60029,1,0,0:0:0:0:
210,155,60120,2,0,P|255:152|296:170,1,89.9999972534181,8|0,0:0|0:0,0:0:0:0:
425,295,60484,6,0,B|443:254|443:254|439:209,1,89.9999972534181,8|0,0:0|0:0,0:0:0:0:
459,168,60756,1,0,0:0:0:0:
479,127,60847,2,0,B|475:82|475:82|493:41,1,89.9999972534181,8|0,0:0|0:0,0:0:0:0:
360,70,61211,2,4,L|307:60,1,44.999998626709
230,30,61393,1,0,0:0:0:0:
185,25,61484,1,0,0:0:0:0:
141,35,61575,1,4,0:0:0:0:
104,59,61666,1,4,0:0:0:0:
76,95,61756,5,8,0:0:0:0:
110,270,61938,1,8,0:0:0:0:
192,163,62120,5,0,0:0:0:0:
192,163,62211,1,0,0:0:0:0:
192,163,62302,1,8,0:0:0:0:
310,297,62484,1,8,0:0:0:0:
326,164,62666,37,0,0:0:0:0:
326,164,62756,1,0,0:0:0:0:
326,164,62847,1,8,0:0:0:0:
494,222,63029,1,8,0:0:0:0:
442,97,63211,5,0,0:0:0:0:
442,97,63302,1,0,0:0:0:0:
442,96,63393,2,0,B|396:89|396:89|362:61|362:61|272:45,1,179.999994506836,4|0,0:2|0:0,0:0:0:0:
187,19,63847,1,0,0:0:0:0:
187,19,63938,6,0,B|191:64|191:64|173:105,1,89.9999972534181,4|0,0:2|0:0,0:0:0:0:
138,189,64211,1,4,0:0:0:0:
138,189,64302,1,4,0:0:0:0:
128,232,64393,1,0,0:0:0:0:
135,277,64484,1,0,0:0:0:0:
158,315,64575,1,0,0:0:0:0:
192,344,64666,6,0,L|288:326,1,89.9999972534181,4|0,0:2|2:0,0:0:0:0:
413,350,65029,2,0,L|397:261,1,89.9999972534181,8|0,0:0|2:0,0:0:0:0:
286,182,65393,1,0,0:0:0:0:
158,228,65575,1,0,2:0:0:0:
246,96,65756,1,8,0:0:0:0:
372,142,65938,1,0,2:0:0:0:
286,10,66120,38,0,L|107:41,1,179.999994506836,0|8,0:0|0:0,0:0:0:0:
46,161,66666,2,0,P|43:205|61:246,1,89.9999972534181,0|0,2:0|0:0,0:0:0:0:
126,363,67029,2,0,P|86:382|41:380,2,89.9999972534181,0|8|0,2:0|0:0|2:0,0:0:0:0:
242,267,67575,6,0,P|329:254|406:297,1,179.999994506836,0|8,0:0|0:0,0:0:0:0:
386,164,68120,2,0,L|371:75,1,89.9999972534181,0|0,2:0|0:0,0:0:0:0:
257,149,68484,1,0,2:0:0:0:
159,54,68666,1,8,0:0:0:0:
36,221,68847,6,0,P|53:180|52:136,1,89.9999972534181,0|0,2:0|0:0,0:0:0:0:
159,54,69211,2,0,P|161:98|144:140,1,89.9999972534181,0|8,2:0|0:0,0:0:0:0:
203,281,69575,2,0,P|220:240|219:196,1,89.9999972534181,0|0,2:0|0:0,0:0:0:0:
326,114,69938,2,0,P|328:158|312:200,1,89.9999972534181,0|8,2:0|0:0,0:0:0:0:
402,346,70302,1,0,2:0:0:0:
402,346,70393,1,8,0:0:0:0:
402,346,70484,6,0,L|386:257,1,89.9999972534181,4|0,0:2|2:0,0:0:0:0:
240,156,70847,1,8,0:0:0:0:
228,329,71029,2,0,L|332:310,1,89.9999972534181,0|0,2:0|0:0,0:0:0:0:
415,167,71393,2,0,L|327:183,1,89.9999972534181,0|8,2:0|0:0,0:0:0:0:
402,346,71756,2,0,L|386:257,1,89.9999972534181,0|0,2:0|0:0,0:0:0:0:
240,156,72120,38,0,P|195:154|154:171,1,89.9999972534181,0|8,2:0|0:0,0:0:0:0:
33,233,72484,2,0,P|57:195|63:151,1,89.9999972534181,0|0,2:0|0:0,0:0:0:0:
69,15,72847,2,0,P|89:54|124:81,2,89.9999972534181,0|8|0,2:0|0:0|2:0,0:0:0:0:
246,49,73393,6,0,L|215:228,1,179.999994506836,0|8,0:0|0:0,0:0:0:0:
270,377,73938,2,0,L|285:288,1,89.9999972534181,0|0,2:0|0:0,0:0:0:0:
127,261,74302,2,0,L|195:318,1,89.9999972534181,0|8,2:0|0:0,0:0:0:0:
300,195,74666,6,0,L|216:226,2,89.9999972534181,0|0|0,2:0|0:0|2:0,0:0:0:0:
365,77,75211,2,0,P|323:60|279:62,1,89.9999972534181,8|0,0:0|2:0,0:0:0:0:
170,144,75575,1,0,0:0:0:0:
58,69,75756,2,8,L|65:113,1,44.999998626709
46,202,75938,1,8,0:0:0:0:
53,246,76029,1,8,0:0:0:0:
61,290,76120,1,8,0:0:0:0:
69,334,76211,1,8,0:0:0:0:
77,379,76302,6,0,B|122:383|122:383|163:365,1,89.9999972534181,4|8,0:2|0:0,0:0:0:0:
289,316,76666,1,0,0:0:0:0:
289,316,76756,1,0,0:0:0:0:
289,316,76847,2,0,B|253:289|253:289|234:249,1,89.9999972534181,8|0,0:0|0:0,0:0:0:0:
360,200,77211,1,8,0:0:0:0:
241,68,77393,1,0,3:0:0:0:
241,68,77484,1,0,3:0:0:0:
241,68,77575,38,0,B|278:92|278:92|323:96,1,89.9999972534181,8|0,3:0|3:0,3:0:0:0:
499,59,77938,2,0,B|458:78|458:78|432:115,1,89.9999972534181,8|0,3:0|3:0,3:0:0:0:
360,200,78211,1,0,3:0:0:0:
360,200,78302,2,0,B|379:240|379:240|376:285,1,89.9999972534181,8|0,3:0|3:0,3:0:0:0:
228,336,78666,6,8,L|184:343,1,44.999998626709,4|0,0:0|0:0,0:0:0:0:
97,317,78847,1,4,0:0:0:0:
74,278,78938,1,0,0:0:0:0:
63,234,79029,1,0,0:0:0:0:
64,189,79120,1,0,0:0:0:0:
78,147,79211,5,12,0:0:0:0:
224,6,79484,1,4,0:0:0:0:
272,203,79756,2,0,L|231:213,1,37.5,4|0,0:0|2:0,0:0:0:0:
159,231,79938,5,12,0:0:0:0:
305,90,80211,1,4,0:0:0:0:
353,287,80484,2,0,L|312:297,1,37.5,4|0,0:0|0:0,0:0:0:0:
240,315,80666,37,12,0:0:0:0:
240,315,81393,6,8,L|233:276,1,37.5,4|4,0:0|0:0,0:0:0:0:
201,209,81575,2,8,L|207:170,1,37.5
244,106,81756,1,0,0:0:0:0:
279,116,81847,1,0,0:0:0:0:
317,115,81938,1,0,0:0:0:0:
352,103,82029,1,0,0:0:0:0:
382,81,82120,6,0,L|410:245,1,150,4|0,0:2|2:0,0:0:0:0:
379,338,82666,1,0,0:0:0:0:
271,257,82847,2,0,B|195:250|195:250|128:282,1,150,8|0,0:0|2:0,0:0:0:0:
10,349,83393,6,0,B|41:280|41:280|35:206,1,150
121,133,83938,2,0,L|210:148,1,75,0|0,0:0|2:0,0:0:0:0:
129,282,84302,1,8,0:0:0:0:
252,327,84484,1,0,0:0:0:0:
252,327,84575,1,0,0:0:0:0:
252,327,84666,2,0,L|377:304,1,112.5
436,289,85029,37,8,0:0:0:0:
402,114,85211,1,8,0:0:0:0:
320,221,85393,5,0,0:0:0:0:
320,221,85484,1,0,0:0:0:0:
320,221,85575,1,8,0:0:0:0:
202,87,85756,1,8,0:0:0:0:
186,220,85938,5,0,0:0:0:0:
186,220,86029,1,0,0:0:0:0:
186,220,86120,1,8,0:0:0:0:
18,162,86302,1,8,0:0:0:0:
70,287,86484,5,0,0:0:0:0:
70,287,86575,1,0,0:0:0:0:
70,287,86666,2,0,B|116:295|116:295|150:323|150:323|250:280|233:376|353:338,1,300,4|8,0:2|0:0,0:0:0:0:
415,303,87484,1,4,0:0:0:0:
415,303,87575,1,4,0:0:0:0:
362,62,87938,37,8,0:0:0:0:
302,253,88120,1,4,0:2:0:0:
256,192,88211,12,0,89575,2:0:0:0:
