osu file format v14

[General]
AudioFilename: audio.mp3
AudioLeadIn: 0
PreviewTime: 52575
Countdown: 0
SampleSet: Drum
StackLeniency: 0.2
Mode: 0
LetterboxInBreaks: 0
WidescreenStoryboard: 1

[Editor]
DistanceSpacing: 1.5
BeatDivisor: 4
GridSize: 8
TimelineZoom: 1.3

[Metadata]
Title:Setsuna no Ai (TV Size)
TitleUnicode:セツナの愛 (TV Size)
Artist:GRANRODEO
ArtistUnicode:GRANRODEO
Creator:Yahuri
Version:Arahabaki
Source:文豪ストレイドッグス
Tags:bungo bungou stray dogs nakahara chuuya dazai osamu soukoku anime japanese rock jrock
BeatmapID:2040771
BeatmapSetID:949559

[Difficulty]
HPDrainRate:6
CircleSize:4.2
OverallDifficulty:8
ApproachRate:9
SliderMultiplier:1.6
SliderTickRate:1

[Events]
//Background and Video events
Video,530,"BSD S3 OP.mp4"
0,0,"4nimenut.jpg",0,0
//Break Periods
//Storyboard Layer 0 (Background)
//Storyboard Layer 1 (Fail)
//Storyboard Layer 2 (Pass)
//Storyboard Layer 3 (Foreground)
//Storyboard Layer 4 (Overlay)
//Storyboard Sound Samples

[TimingPoints]
666,363.636363636364,4,2,1,30,1,0
666,-133.333333333333,4,2,1,30,0,0
5756,-133.333333333333,4,3,1,40,0,0
6484,-100,4,3,1,60,0,0
15211,-200,4,2,1,40,0,0
18120,-100,4,3,1,50,0,0
19393,-142.857142857143,4,3,1,50,0,0
21029,-100,4,3,1,50,0,0
22302,-142.857142857143,4,3,1,50,0,0
23938,-100,4,3,1,50,0,0
25211,-142.857142857143,4,3,1,50,0,0
26847,-100,4,3,1,50,0,0
29757,-100,4,3,1,60,0,0
41393,-133.333333333333,4,3,1,50,0,0
47211,-100,4,3,1,60,0,0
52666,-133.333333333333,4,3,1,60,0,0
52938,-133.333333333333,4,3,1,5,0,0
53029,-83.3333333333333,4,3,1,70,0,1
64575,-83.3333333333333,4,3,1,70,0,0
64666,-83.3333333333333,4,3,1,70,0,1
79211,-100,4,3,1,70,0,0
84938,-100,4,3,1,5,0,0
85029,-100,4,3,1,70,0,0
87302,-100,4,3,1,5,0,0
87393,-100,4,3,1,70,0,0
89211,-100,4,3,1,50,0,0
89393,-100,4,3,1,30,0,0
89575,-100,4,3,1,5,0,0

[Colours]
Combo1 : 159,159,159
Combo2 : 255,0,6
Combo3 : 255,128,0
Combo4 : 213,0,106
Combo5 : 113,57,113
Combo6 : 106,106,106
SliderBorder : 255,0,0
SliderTrackOverride : 0,0,0

[HitObjects]
305,168,666,54,0,P|246:180|186:180,1,120.000004577637,2|0,0:0|0:0,0:0:0:0:
112,149,1211,1,0,0:0:0:0:
83,234,1393,1,8,0:0:0:0:
186,122,1575,2,0,P|192:151|187:181,1,60.0000022888184
305,168,1938,6,0,P|246:180|186:180,1,120.000004577637,2|2,0:0|0:0,0:0:0:0:
186,181,2484,1,2,0:0:0:0:
83,234,2847,1,8,0:0:0:0:
83,234,3575,70,0,P|141:221|201:221,1,120.000004577637,2|0,0:0|0:0,0:0:0:0:
276,253,4120,1,0,0:0:0:0:
305,168,4302,1,8,0:0:0:0:
201,279,4484,2,0,P|195:250|201:221,1,60.0000022888184
82,208,4847,6,0,P|140:220|200:220,1,120.000004577637,2|2,0:0|0:0,0:0:0:0:
201,221,5393,1,2,0:0:0:0:
305,168,5756,21,8,0:0:0:0:
134,344,5938,1,4,0:0:0:0:
134,344,6484,6,0,P|161:245|160:180,1,160,4|0,0:2|2:0,0:0:0:0:
135,70,7029,1,0,0:0:0:0:
51,253,7211,1,8,0:0:0:0:
84,180,7393,2,0,P|123:175|160:188,1,80,0|0,2:0|2:0,0:0:0:0:
134,344,7756,6,0,P|161:245|160:180,1,160,4|0,0:0|0:0,0:0:0:0:
200,117,8302,1,0,0:0:0:0:
271,152,8484,1,0,2:0:0:0:
483,141,8666,2,0,P|417:181|349:146,1,160,8|0,0:0|2:0,0:0:0:0:
414,102,9211,1,0,2:0:0:0:
376,302,9393,6,0,P|349:203|350:138,1,160,4|0,0:0|2:0,0:0:0:0:
375,28,9938,1,0,0:0:0:0:
459,211,10120,1,8,0:0:0:0:
426,138,10302,2,0,P|386:133|349:146,1,80,0|0,2:0|2:0,0:0:0:0:
322,301,10666,38,0,P|349:202|348:137,1,160,4|0,0:0|0:0,0:0:0:0:
310,75,11211,1,0,0:0:0:0:
239,110,11393,1,0,2:0:0:0:
96,60,11575,1,8,0:0:0:0:
96,60,11756,1,0,0:0:0:0:
145,181,11938,2,0,L|160:103,1,80,4|0,0:3|2:0,0:3:0:0:
103,298,12302,6,0,P|202:271|267:272,1,160,4|0,0:2|2:0,0:0:0:0:
377,297,12847,1,0,0:0:0:0:
194,381,13029,1,8,0:0:0:0:
267,348,13211,2,0,P|272:309|259:272,1,80,0|0,2:0|2:0,0:0:0:0:
103,298,13575,6,0,P|202:271|267:272,1,160,4|0,0:0|0:0,0:0:0:0:
377,297,14120,1,0,0:0:0:0:
342,226,14302,1,0,2:0:0:0:
354,15,14484,2,0,P|314:81|349:149,1,160,8|0,0:0|0:0,0:0:0:0:
392,83,15029,1,0,2:0:0:0:
269,159,15211,22,0,P|308:150|348:149,1,80,0|0,0:0|2:0,0:0:0:0:
454,214,15756,2,0,P|458:194|457:174,1,40
361,186,16120,2,0,P|357:166|348:148,1,40,0|0,2:0|2:0,0:0:0:0:
256,87,16484,1,0,0:0:0:0:
256,87,17575,5,0,0:0:0:0:
256,87,17756,1,0,0:0:0:0:
256,87,17938,1,0,0:0:0:0:
256,87,18120,22,0,L|94:101,1,160,4|0,0:0|2:0,0:0:0:0:
35,205,18666,1,0,2:0:0:0:
246,337,18847,2,0,L|154:205,1,160,8|0,0:0|2:0,0:0:0:0:
293,348,19393,54,0,L|259:301,1,55.9999982910157,0|0,3:0|2:0,3:0:0:0:
339,358,19756,1,0,0:0:0:0:
339,358,19938,1,0,0:0:0:0:
339,358,20302,2,0,L|306:312,1,55.9999982910157,8|0,3:0|2:0,3:0:0:0:
342,196,20666,1,0,2:0:0:0:
421,285,20847,1,0,2:0:0:0:
227,222,21029,21,0,0:0:0:0:
244,30,21211,1,0,2:0:0:0:
342,196,21393,1,0,2:0:0:0:
166,120,21575,1,0,2:0:0:0:
353,77,21756,2,0,L|512:91,1,160,8|0,0:3|2:0,0:3:0:0:
325,106,22302,54,0,L|437:115,1,111.999996582031,0|0,0:0|0:0,0:3:0:0:
297,135,22847,1,0,0:0:0:0:
297,135,23211,1,8,0:0:0:0:
297,135,23575,1,0,2:0:0:0:
329,250,23756,1,0,2:0:0:0:
169,148,23938,22,0,L|29:135,1,120,0|0,0:0|2:0,0:0:0:0:
5,205,24302,1,0,2:0:0:0:
93,69,24484,1,0,2:0:0:0:
162,227,24666,2,0,L|168:147,1,80,8|0,0:0|2:0,0:0:0:0:
258,84,25029,1,0,2:0:0:0:
190,256,25211,54,0,L|194:199,1,55.9999982910157,0|0,0:0|2:0,0:0:0:0:
218,285,25575,2,0,L|222:230,1,55.9999982910157
246,314,25938,2,0,L|250:259,1,55.9999982910157,0|8,2:0|0:0,0:0:0:0:
274,343,26302,2,0,L|282:232,1,111.999996582031,0|0,2:0|2:0,0:0:0:0:
142,175,26847,21,0,0:0:0:0:
205,222,27029,1,0,2:0:0:0:
355,199,27211,1,0,2:0:0:0:
282,231,27393,1,0,2:0:0:0:
333,49,27575,53,8,0:0:0:0:
323,127,27756,1,0,2:0:0:0:
355,199,27938,1,0,2:0:0:0:
418,245,28120,1,0,0:0:0:0:
418,245,28484,21,0,0:0:0:0:
418,245,28666,1,0,0:0:0:0:
418,245,29029,1,8,0:0:0:0:
328,325,29211,1,0,0:0:0:0:
321,329,29302,1,0,0:0:0:0:
314,332,29393,1,8,0:0:0:0:
205,282,29575,1,0,2:0:0:0:
16,329,29756,69,4,0:2:0:0:
128,374,29938,1,0,2:0:0:0:
24,208,30120,1,8,0:0:0:0:
125,185,30302,1,0,2:0:0:0:
133,182,30393,1,8,0:0:0:0:
141,179,30484,2,0,B|154:141|154:141|154:86,1,80
53,35,30847,1,0,2:0:0:0:
247,76,31029,6,0,B|287:76|287:76|324:62,1,80,8|0,0:0|2:0,0:0:0:0:
141,179,31393,2,0,B|175:199|175:199|214:206,1,80,0|8,2:0|0:0,0:0:0:0:
318,146,31756,1,0,2:0:0:0:
322,153,31847,1,8,0:0:0:0:
326,160,31938,1,0,0:0:0:0:
306,278,32120,1,0,0:0:0:0:
404,103,32302,1,8,0:0:0:0:
404,103,32666,69,0,0:0:0:0:
442,217,32847,1,0,2:0:0:0:
248,173,33029,2,0,B|285:159|285:159|325:159,1,80,8|0,0:0|2:0,0:0:0:0:
202,319,33393,2,0,B|227:288|227:288|262:268,1,80
379,326,33756,1,0,2:0:0:0:
248,173,33938,6,0,P|270:101|354:86,1,160,8|0,0:0|0:0,0:0:0:0:
442,217,34484,1,8,0:0:0:0:
262,268,34666,2,0,P|211:262|177:238,1,80,0|0,2:0|0:0,0:0:0:0:
132,141,35029,1,0,0:0:0:0:
111,340,35211,1,8,0:0:0:0:
54,233,35393,1,0,2:0:0:0:
238,362,35575,70,0,B|278:362|278:362|315:348,1,80,4|0,0:2|2:0,0:0:0:0:
235,173,35938,2,0,B|248:210|248:210|247:250,1,80,8|0,0:0|2:0,0:0:0:0:
164,104,36302,2,0,B|165:64|165:64|152:27,1,80
46,85,36666,1,0,2:0:0:0:
235,173,36847,6,0,B|256:139|256:139|263:100,1,80,8|0,0:0|2:0,0:0:0:0:
421,82,37211,2,0,B|382:75|382:75|348:54,1,80,0|8,0:0|0:0,0:0:0:0:
439,240,37575,2,0,B|446:201|446:201|467:167,1,80,0|0,2:0|0:0,0:0:0:0:
281,258,37938,2,0,B|320:265|320:265|354:286,1,80,0|8,0:0|0:0,0:0:0:0:
356,166,38302,1,0,2:0:0:0:
220,307,38484,69,0,0:0:0:0:
281,258,38666,1,0,2:0:0:0:
298,107,38847,1,8,0:0:0:0:
310,185,39029,1,0,2:0:0:0:
147,89,39211,5,0,0:0:0:0:
298,107,39393,1,0,0:0:0:0:
220,119,39575,1,0,2:0:0:0:
359,58,39756,2,0,P|431:80|446:164,1,160,8|0,0:0|0:0,0:0:0:0:
414,270,40302,1,10,0:0:0:0:
323,194,40484,69,0,0:0:0:0:
317,189,40575,1,0,0:0:0:0:
311,184,40666,2,0,L|319:137,3,40,4|0|0|0,0:0|0:0|0:0|0:0,0:0:0:0:
256,247,41029,1,4,0:0:0:0:
224,270,41120,1,8,0:0:0:0:
186,283,41211,1,4,0:0:0:0:
146,284,41302,1,4,0:0:0:0:
108,273,41393,22,0,L|108:206,1,60.0000022888184,4|0,0:2|2:0,0:0:0:0:
79,127,41756,2,0,L|79:189,1,60.0000022888184,0|0,2:0|0:0,0:0:0:0:
201,100,42120,1,8,0:0:0:0:
313,158,42302,1,0,2:0:0:0:
228,185,42484,1,0,2:0:0:0:
286,73,42666,22,0,L|353:73,1,60.0000022888184,0|0,0:0|2:0,0:0:0:0:
432,102,43029,2,0,L|370:102,1,60.0000022888184
253,158,43393,2,0,L|320:158,1,60.0000022888184,0|8,0:0|0:0,0:0:0:0:
399,187,43756,2,0,L|337:187,1,60.0000022888184,0|0,2:0|2:0,0:0:0:0:
220,243,44120,1,0,2:0:0:0:
180,98,44302,53,0,0:0:0:0:
68,156,44484,1,0,2:0:0:0:
153,183,44666,1,0,2:0:0:0:
95,71,44847,1,0,0:0:0:0:
292,40,45029,1,8,0:0:0:0:
265,125,45211,1,0,2:0:0:0:
207,13,45393,1,0,2:0:0:0:
350,152,45575,22,0,L|350:218,1,60.0000022888184,0|0,0:3|2:3,0:3:0:0:
320,297,45938,2,0,L|320:235,1,60.0000022888184,0|0,0:0|2:0,0:0:0:0:
265,125,46302,2,0,L|265:191,1,60.0000022888184,0|8,0:0|0:0,0:0:0:0:
235,270,46666,1,4,0:0:0:0:
180,98,46847,1,4,0:0:0:0:
152,86,46938,1,4,0:0:0:0:
122,82,47029,1,4,0:0:0:0:
93,86,47120,1,4,0:0:0:0:
65,98,47211,70,0,B|33:158|56:214|56:214|78:181,1,160,4|8,0:2|0:0,0:0:0:0:
253,39,47756,2,0,B|186:28|139:66|139:66|177:78,1,160,4|8,0:2|0:0,0:0:0:0:
366,199,48302,2,0,B|355:131|304:99|304:99|305:139,1,160,4|8,0:2|0:0,0:0:0:0:
247,357,48847,2,0,B|307:326|322:268|322:268|285:281,1,160,4|8,0:2|0:0,0:0:0:0:
59,292,49393,69,8,0:0:0:0:
247,357,49575,1,4,0:2:0:0:
78,181,49756,1,8,0:0:0:0:
58,147,49847,1,4,0:0:0:0:
51,108,49938,1,4,0:0:0:0:
58,69,50029,1,0,0:0:0:0:
78,34,50120,5,8,0:0:0:0:
256,108,50302,1,4,0:0:0:0:
256,108,50666,1,4,0:0:0:0:
256,108,51029,1,4,0:0:0:0:
256,108,51393,70,0,B|266:160|266:160|246:209|246:209|256:262,1,160,4|8,0:2|0:0,0:0:0:0:
256,22,51938,1,8,0:0:0:0:
256,36,52484,5,0,0:0:0:0:
256,28,52575,1,0,0:0:0:0:
256,22,52666,2,0,L|346:29,1,90.0000034332277,8|0,0:0|2:0,0:3:0:0:
465,148,53029,37,4,0:2:0:0:
332,308,53211,1,8,0:0:0:0:
260,112,53393,1,0,0:0:0:0:
259,102,53484,1,0,0:0:0:0:
267,106,53575,1,8,0:0:0:0:
444,266,53756,1,0,0:0:0:0:
240,230,53938,1,8,0:0:0:0:
372,71,54120,1,0,0:0:0:0:
382,70,54211,1,0,0:0:0:0:
378,78,54302,1,8,0:0:0:0:
252,311,54484,6,0,P|204:303|167:265,1,95.9999970703126,0|8,0:0|0:0,0:0:0:0:
37,88,54847,1,0,0:0:0:0:
35,97,54938,1,0,0:0:0:0:
34,108,55029,2,0,L|17:202,1,95.9999970703126,8|0,0:0|0:0,0:0:0:0:
240,230,55393,2,0,L|223:136,1,95.9999970703126,8|0,0:0|0:0,0:0:0:0:
221,126,55666,1,0,0:0:0:0:
220,117,55756,1,8,0:0:0:0:
443,30,55938,5,0,0:0:0:0:
314,198,56120,1,8,0:0:0:0:
112,87,56302,1,0,0:0:0:0:
119,94,56393,1,0,0:0:0:0:
126,101,56484,2,0,L|220:117,1,95.9999970703126,8|0,0:0|0:0,0:0:0:0:
138,311,56847,1,8,0:0:0:0:
36,108,57029,1,0,0:0:0:0:
32,98,57120,1,0,0:0:0:0:
41,99,57211,1,8,0:0:0:0:
261,185,57393,6,0,P|293:150|300:103,1,95.9999970703126,0|8,0:0|0:0,0:0:0:0:
292,315,57756,1,0,0:0:0:0:
297,323,57847,1,0,0:0:0:0:
302,331,57938,2,0,P|348:323|383:291,1,95.9999970703126,8|0,0:0|0:0,0:0:0:0:
138,311,58302,1,8,0:0:0:0:
220,116,58484,1,4,0:0:0:0:
176,98,58575,1,0,0:0:0:0:
129,93,58666,1,8,0:0:0:0:
82,102,58756,1,8,0:0:0:0:
40,124,58847,38,0,L|22:221,1,95.9999970703126,4|8,0:2|0:3,0:3:0:0:
142,331,59211,1,0,0:0:0:0:
140,321,59302,1,0,0:0:0:0:
138,311,59393,2,0,L|121:217,1,95.9999970703126,8|0,0:0|0:0,0:0:0:0:
237,101,59756,2,0,L|220:195,1,95.9999970703126,8|0,0:0|0:0,0:0:0:0:
218,205,60029,1,0,0:0:0:0:
217,214,60120,1,8,0:0:0:0:
330,331,60302,5,0,0:0:0:0:
455,125,60484,2,8,P|417:96|369:93,1,95.9999970703126,8|0,0:0|0:0,0:0:0:0:
331,197,60756,1,0,0:0:0:0:
329,207,60847,2,8,P|366:235|414:238,1,95.9999970703126,8|0,0:0|0:0,0:0:0:0:
256,48,61211,5,4,0:0:0:0:
256,96,61302,1,4,0:0:0:0:
256,144,61393,1,0,0:0:0:0:
256,192,61484,1,0,0:0:0:0:
256,240,61575,1,4,0:0:0:0:
256,288,61666,1,4,0:0:0:0:
256,336,61756,5,8,0:0:0:0:
92,98,61938,1,8,0:0:0:0:
336,329,62120,37,0,0:0:0:0:
337,320,62211,1,0,0:0:0:0:
338,311,62302,1,8,0:0:0:0:
174,73,62484,1,8,0:0:0:0:
418,304,62666,5,0,0:0:0:0:
419,295,62756,1,0,0:0:0:0:
420,286,62847,1,8,0:0:0:0:
256,48,63029,1,8,0:0:0:0:
500,279,63211,5,0,0:0:0:0:
501,270,63302,1,0,0:0:0:0:
502,261,63393,2,0,P|450:205|347:240,1,191.999994140625,4|0,0:2|0:0,0:0:0:0:
270,349,63847,1,0,0:0:0:0:
262,354,63938,6,0,P|206:354|169:336,1,95.9999970703126,4|0,0:2|0:0,0:0:0:0:
61,283,64211,1,4,0:0:0:0:
54,276,64302,1,4,0:0:0:0:
58,228,64393,1,0,0:0:0:0:
62,180,64484,1,0,0:0:0:0:
66,132,64575,1,0,0:0:0:0:
70,84,64666,38,0,P|107:54|154:45,1,95.9999970703126,4|0,0:2|2:0,0:0:0:0:
377,203,65029,2,0,P|339:233|293:242,1,95.9999970703126,8|0,0:0|2:0,0:0:0:0:
240,5,65393,1,0,0:0:0:0:
300,145,65575,1,0,2:0:0:0:
154,46,65756,1,8,0:0:0:0:
214,186,65938,1,0,2:0:0:0:
357,8,66120,6,0,P|404:6|447:27,1,95.9999970703126,0|0,0:0|2:0,0:0:0:0:
483,227,66484,1,8,0:0:0:0:
296,129,66666,2,0,P|336:104|383:101,1,95.9999970703126,0|0,2:0|0:0,0:0:0:0:
303,265,67029,2,0,P|326:223|366:197,1,95.9999970703126,0|8,2:0|0:0,0:0:0:0:
445,339,67393,1,0,2:0:0:0:
272,172,67575,6,0,L|178:188,1,95.9999970703126,0|0,0:0|2:0,0:0:0:0:
317,34,67938,1,8,0:0:0:0:
119,110,68120,2,0,L|25:94,1,95.9999970703126,0|0,2:0|0:0,0:0:0:0:
82,299,68484,1,0,2:0:0:0:
211,96,68666,1,8,0:0:0:0:
480,199,68847,6,0,L|461:94,1,95.9999970703126,0|0,2:0|0:0,0:0:0:0:
354,320,69211,2,0,L|387:230,1,95.9999970703126,0|8,2:0|0:0,0:0:0:0:
185,361,69575,2,0,L|258:300,1,95.9999970703126,0|0,2:0|0:0,0:0:0:0:
18,312,69938,2,0,L|112:296,1,95.9999970703126,0|8,2:0|0:0,0:0:0:0:
267,110,70302,1,0,2:0:0:0:
260,117,70393,1,8,0:0:0:0:
253,124,70484,38,0,P|233:168|237:215,1,95.9999970703126,4|0,0:2|2:0,0:0:0:0:
420,277,70847,1,8,0:0:0:0:
344,338,71029,2,0,P|324:293|328:246,1,95.9999970703126,0|0,2:0|0:0,0:0:0:0:
420,94,71393,2,0,P|400:138|404:185,1,95.9999970703126,0|8,2:0|0:0,0:0:0:0:
511,308,71756,2,0,P|491:263|495:216,1,95.9999970703126,0|0,2:0|0:0,0:0:0:0:
357,20,72120,6,0,L|263:36,1,95.9999970703126,0|8,2:0|0:0,0:0:0:0:
62,106,72484,2,0,L|160:123,1,95.9999970703126,0|0,2:0|0:0,0:0:0:0:
357,192,72847,2,0,L|263:208,1,95.9999970703126,0|8,2:0|0:0,0:0:0:0:
114,235,73211,1,0,2:0:0:0:
269,359,73393,6,0,P|227:337|201:298,1,95.9999970703126,0|0,0:0|2:0,0:0:0:0:
280,104,73756,1,8,0:0:0:0:
383,285,73938,2,0,P|335:286|293:265,1,95.9999970703126,0|0,2:0|0:0,0:0:0:0:
445,164,74302,2,0,P|404:188|356:191,1,95.9999970703126,0|8,2:0|0:0,0:0:0:0:
438,28,74666,6,0,P|415:69|375:95,1,95.9999970703126,0|0,2:0|0:0,0:0:0:0:
230,21,75029,1,0,2:0:0:0:
263,198,75211,2,0,L|280:104,1,95.9999970703126,8|0,0:0|2:0,0:0:0:0:
473,320,75575,37,4,0:2:0:0:
358,204,75756,1,8,0:0:0:0:
312,194,75847,1,8,0:0:0:0:
263,198,75938,1,8,0:0:0:0:
221,219,76029,1,8,0:0:0:0:
176,236,76120,1,8,0:0:0:0:
129,233,76211,1,8,0:0:0:0:
81,221,76302,6,0,P|57:263|57:310,1,95.9999970703126,4|8,0:2|0:0,0:0:0:0:
97,71,76666,1,0,0:0:0:0:
92,63,76756,1,0,0:0:0:0:
87,55,76847,2,0,P|39:55|-1:78,1,95.9999970703126,8|0,0:0|0:0,0:0:0:0:
176,236,77211,1,8,0:0:0:0:
354,62,77393,1,0,0:0:0:0:
358,71,77484,1,0,0:0:0:0:
362,80,77575,6,0,L|456:96,1,95.9999970703126,8|0,0:0|0:0,0:0:0:0:
222,150,77938,2,0,L|316:166,1,95.9999970703126,8|0,0:0|0:0,0:0:0:0:
78,211,78211,1,0,0:0:0:0:
82,220,78302,2,0,L|176:236,1,95.9999970703126,8|0,0:0|0:0,0:0:0:0:
389,353,78666,5,4,0:0:0:0:
341,362,78756,1,0,0:0:0:0:
294,357,78847,1,4,0:0:0:0:
251,336,78938,1,0,0:0:0:0:
205,320,79029,1,0,0:0:0:0:
158,322,79120,1,0,0:0:0:0:
111,335,79211,37,12,0:0:0:0:
216,119,79484,1,4,0:0:0:0:
453,159,79756,2,0,L|406:185,1,40,4|0,0:0|2:0,0:0:0:0:
148,320,79938,5,12,0:0:0:0:
253,104,80211,1,4,0:0:0:0:
488,139,80484,2,0,L|441:165,1,40,4|0,0:0|0:0,0:0:0:0:
185,305,80666,5,12,0:0:0:0:
185,305,81393,5,0,0:0:0:0:
169,268,81484,1,0,0:0:0:0:
171,229,81575,1,8,0:0:0:0:
192,195,81666,1,8,0:0:0:0:
227,176,81756,1,4,0:0:0:0:
266,176,81847,1,4,0:0:0:0:
305,188,81938,1,0,0:0:0:0:
344,192,82029,1,0,0:0:0:0:
381,179,82120,38,0,P|408:99|402:25,1,160,4|0,0:2|2:0,0:0:0:0:
248,72,82666,1,0,0:0:0:0:
248,72,82847,2,0,P|168:77|93:51,1,160,8|0,0:0|2:0,0:0:0:0:
147,203,83393,6,0,P|173:278|167:357,1,160
261,227,83938,2,0,P|300:226|340:232,1,80,0|0,0:0|2:0,0:0:0:0:
487,268,84302,1,8,0:0:0:0:
453,71,84484,1,0,0:0:0:0:
451,64,84575,1,0,0:0:0:0:
450,58,84666,2,0,L|327:79,1,120,4|0,0:0|2:0,0:3:0:0:
256,48,85029,5,8,0:0:0:0:
420,286,85211,1,8,0:0:0:0:
176,55,85393,5,0,0:0:0:0:
175,64,85484,1,0,0:0:0:0:
174,73,85575,1,8,0:0:0:0:
338,311,85756,1,8,0:0:0:0:
94,80,85938,37,0,0:0:0:0:
93,89,86029,1,0,0:0:0:0:
92,98,86120,1,8,0:0:0:0:
256,336,86302,2,0,L|256:236,1,80,8|0,0:0|2:0,0:0:0:0:
8,114,86666,6,0,B|19:160|52:189|100:192|133:173|133:173|171:186|171:186|197:154|238:147,1,280,4|0,0:2|2:0,0:0:0:0:
256,64,87393,5,8,0:0:0:0:
256,56,87484,1,4,0:0:0:0:
256,48,87575,1,4,0:0:0:0:
95,311,87938,5,8,0:0:0:0:
417,73,88120,1,4,0:2:0:0:
256,192,88211,12,0,89575,2:0:0:0:
