osu file format v14

[General]
AudioFilename: audio.mp3
AudioLeadIn: 0
PreviewTime: 52119
Countdown: 0
SampleSet: Soft
StackLeniency: 0.4
Mode: 0
LetterboxInBreaks: 0
WidescreenStoryboard: 1

[Editor]
Bookmarks: 86947,92947
DistanceSpacing: 2.5
BeatDivisor: 4
GridSize: 8
TimelineZoom: 1.6

[Metadata]
Title:Setsuna no Ai (TV Size)
TitleUnicode:セツナの愛 (TV Size)
Artist:GRANRODEO
ArtistUnicode:GRANRODEO
Creator:Seolv
Version:PaRaDogi's Hard
Source:文豪ストレイドッグス
Tags:bungo bungou stray dogs anime japanese lukas irya [xv] paradogi -frontier- lolia karia akitoshi -laura- einess -hakurei- lit120
BeatmapID:2016511
BeatmapSetID:957002

[Difficulty]
HPDrainRate:4
CircleSize:4
OverallDifficulty:5
ApproachRate:8
SliderMultiplier:1.6
SliderTickRate:1

[Events]
//Background and Video events
0,0,"cropped-1920-1080-739827.png",0,0
//Break Periods
//Storyboard Layer 0 (Background)
//Storyboard Layer 1 (Fail)
//Storyboard Layer 2 (Pass)
//Storyboard Layer 3 (Foreground)
//Storyboard Layer 4 (Overlay)
//Storyboard Sound Samples

[TimingPoints]
210,363.636363636364,4,2,11,30,1,0
210,-133.333333333333,4,2,11,30,0,0
5301,-100,4,2,15,50,0,0
6028,-100,4,2,15,60,0,0
14755,-100,4,2,15,50,0,0
29119,-100,4,2,15,60,0,0
40937,-133.333333333333,4,2,15,50,0,0
46755,-133.333333333333,4,2,15,60,0,0
52573,-100,4,2,15,70,0,0
80937,-133.333333333333,4,2,15,50,0,0
81664,-100,4,2,15,60,0,0
86210,-133.333333333333,4,2,15,60,0,0
87119,-100,4,2,15,60,0,0
87664,-285.714285714286,4,2,15,60,0,0
88573,-285.714285714286,4,2,15,45,0,0
88755,-285.714285714286,4,2,15,30,0,0
89028,-285.714285714286,4,2,15,15,0,0

[Colours]
Combo1 : 146,1,52
Combo2 : 106,0,106
Combo3 : 255,255,0
Combo4 : 175,85,3

[HitObjects]
213,217,210,6,0,L|210:144,1,60.0000022888184,6|0,1:2|0:0,0:0:0:0:
316,258,573,1,2,0:0:0:0:
316,258,755,2,0,L|299:316,1,60.0000022888184,2|8,0:0|1:2,0:0:0:0:
305,150,1119,2,0,L|372:144,1,60.0000022888184,2|8,0:0|0:0,0:0:0:0:
481,210,1482,1,2,3:2:0:0:
429,338,1846,1,0,3:2:0:0:
429,338,2028,2,0,L|421:269,1,60.0000022888184,10|0,3:2|0:0,0:0:0:0:
481,210,2392,2,0,P|449:191|356:215,1,120.000004577637,10|10,1:2|0:0,0:0:0:0:
300,274,2937,1,0,0:0:0:0:
300,274,3119,6,0,L|286:205,1,60.0000022888184,6|0,3:2|0:0,0:0:0:0:
268,122,3482,1,2,0:0:0:0:
268,122,3664,2,0,P|234:142|200:143,1,60.0000022888184,2|8,0:0|1:2,0:0:0:0:
114,150,4028,2,0,P|124:182|119:220,1,60.0000022888184,2|0,0:0|0:0,0:0:0:0:
64,275,4392,2,0,P|121:295|183:273,1,120.000004577637,2|0,3:2|3:2,0:0:0:0:
261,230,4937,2,0,L|280:316,1,60.0000022888184,0|0,3:2|0:0,0:0:0:0:
296,371,5301,1,8,0:0:0:0:
296,371,5482,1,0,3:2:0:0:
459,74,6028,6,0,L|369:81,1,80,6|0,3:2|0:0,0:0:0:0:
300,123,6391,2,0,P|290:79|305:32,1,80
226,12,6755,1,0,0:0:0:0:
226,12,6937,2,0,P|216:55|242:182,1,160,2|2,0:0|3:2,0:0:0:0:
301,315,7664,1,0,3:2:0:0:
301,315,7846,2,0,L|211:320,1,80,0|0,3:2|0:0,0:0:0:0:
153,371,8210,2,0,P|135:314|196:239,1,160,8|0,0:0|0:0,0:0:0:0:
281,207,8755,1,0,0:0:0:0:
281,207,8937,2,0,P|291:158|204:124,1,160
125,125,9482,1,0,0:0:0:0:
125,125,9664,2,0,P|173:130|212:120,1,80
270,40,10028,1,0,0:0:0:0:
270,40,10210,6,0,B|320:49|350:27|350:27|379:49|429:43,1,160,2|0,3:2|3:2,0:0:0:0:
495,104,10755,2,0,L|482:194,1,80,0|0,3:2|0:0,0:0:0:0:
461,280,11119,2,0,P|415:257|377:257,1,80,8|0,0:0|3:2,0:0:0:0:
316,324,11482,2,0,P|362:347|400:347,1,80,8|0,0:3|0:0,0:0:0:0:
288,244,11846,6,0,P|251:267|230:307,1,80,6|0,3:2|0:0,0:0:0:0:
156,366,12210,1,0,0:0:0:0:
156,366,12391,1,0,0:0:0:0:
136,227,12573,2,0,P|168:265|210:283,1,80
272,370,12937,1,0,0:0:0:0:
272,370,13119,2,0,B|251:268|314:310|291:207,1,160,2|0,3:2|3:2,0:0:0:0:
249,128,13664,2,0,P|291:119|340:131,1,80,0|0,3:2|0:0,0:0:0:0:
410,171,14028,2,0,L|413:85,1,80,8|0,0:0|0:0,0:0:0:0:
329,45,14392,2,0,L|326:131,1,80,0|0,3:2|0:0,0:0:0:0:
321,219,14755,5,2,0:0:0:0:
230,289,15119,1,2,0:0:0:0:
230,289,15301,1,2,0:0:0:0:
121,252,15664,1,2,0:0:0:0:
100,139,16028,1,2,0:0:0:0:
42,114,17664,6,0,L|142:106,1,80,6|0,3:2|0:0,0:0:0:0:
213,136,18028,2,0,P|197:197|205:249,1,80,2|2,0:0|0:0,0:0:0:0:
239,301,18392,2,0,B|196:301|164:322|164:322|113:299|66:313,1,160,10|2,0:0|0:0,0:0:0:0:
0,271,18937,2,0,L|13:187,1,80,2|0,3:2|0:0,0:0:0:0:
72,115,19301,1,2,3:2:0:0:
72,115,19482,2,0,P|116:132|155:126,1,80,0|0,3:2|0:0,0:0:0:0:
239,89,19846,2,0,B|234:178|255:258|255:258|265:212|282:187,1,240,8|2,0:0|0:0,0:0:0:0:
351,222,20573,6,0,P|336:273|336:309,1,80,2|2,3:2|0:0,0:0:0:0:
415,359,20937,2,0,P|430:308|430:272,1,80,2|2,0:0|0:0,0:0:0:0:
428,186,21301,2,0,B|383:180|346:190|346:190|313:167|255:167,1,160,10|2,0:0|0:0,0:0:0:0:
173,175,21846,2,0,L|169:88,1,80,2|0,3:2|0:0,0:0:0:0:
104,22,22210,1,0,3:2:0:0:
104,22,22392,2,0,P|61:37|26:32,1,80,0|0,3:2|0:0,0:0:0:0:
2,127,22755,2,0,B|18:303|18:303|62:242,1,240,8|2,0:0|0:0,0:0:0:0:
129,287,23482,6,0,L|79:363,1,80,2|0,3:2|0:0,0:0:0:0:
189,349,23846,1,2,0:0:0:0:
211,255,24028,1,2,0:0:0:0:
211,255,24210,2,0,B|314:257|268:189|382:204,1,160,10|2,0:0|0:0,0:0:0:0:
452,189,24755,2,0,L|441:103,1,80,2|0,3:2|0:0,0:0:0:0:
400,21,25119,1,2,3:2:0:0:
400,21,25301,2,0,L|311:42,1,80,0|2,3:2|0:0,0:0:0:0:
236,81,25664,2,0,B|223:141|268:199|268:199|246:256|246:256|268:331,1,240,8|2,0:0|0:0,0:0:0:0:
194,358,26392,6,0,L|166:266,1,80,2|0,3:2|0:0,0:0:0:0:
81,233,26755,1,2,0:0:0:0:
139,154,26937,1,2,0:0:0:0:
139,154,27119,2,0,B|223:192|215:121|311:159,1,160,10|2,0:0|0:0,0:0:0:0:
381,197,27664,2,0,L|390:280,1,80,2|0,3:2|0:0,0:0:0:0:
465,210,28028,1,0,3:2:0:0:
465,210,28210,2,0,L|458:117,1,80,0|0,3:2|0:0,0:0:0:0:
411,45,28573,1,8,0:0:0:0:
341,107,28755,1,2,3:2:0:0:
341,107,28846,1,0,3:2:0:0:
341,107,28937,2,0,P|293:118|252:105,1,80,10|2,0:0|0:0,0:0:0:0:
155,82,29301,6,0,L|162:167,1,80,6|2,3:2|0:0,0:0:0:0:
132,273,29664,2,0,P|180:266|217:275,1,80,10|2,0:0|0:0,0:0:0:0:
237,298,29937,1,8,0:0:0:0:
266,333,30028,2,0,B|267:211|267:211|296:247,1,160,2|2,3:2|0:0,0:0:0:0:
393,301,30573,2,0,L|477:290,1,80,10|0,0:0|0:0,0:0:0:0:
481,192,30937,2,0,P|469:151|478:100,1,80,2|8,3:2|0:0,0:0:0:0:
414,25,31301,1,2,0:0:0:0:
414,25,31392,1,8,0:0:0:0:
414,25,31482,2,0,L|328:33,1,80,0|2,3:2|3:2,0:0:0:0:
245,129,31846,2,0,L|332:133,1,80,10|2,0:0|0:0,0:0:0:0:
396,199,32210,6,0,P|370:243|371:283,1,80,2|2,3:2|0:0,0:0:0:0:
209,369,32573,2,0,P|235:325|234:285,1,80,10|0,0:0|0:0,0:0:0:0:
169,210,32937,1,2,3:2:0:0:
245,129,33119,1,0,3:2:0:0:
181,38,33301,1,2,0:0:0:0:
181,38,33482,2,0,L|97:52,1,80,10|0,0:0|0:0,0:0:0:0:
13,134,33846,1,2,3:2:0:0:
13,134,34028,2,0,B|30:172|30:172|33:210,1,80,8|2,0:0|0:0,0:0:0:0:
3,318,34392,1,0,3:2:0:0:
110,289,34573,1,0,3:2:0:0:
110,289,34755,2,0,P|148:303|199:294,1,80,10|2,0:0|0:0,0:0:0:0:
279,237,35119,6,0,L|288:327,1,80,6|2,3:2|0:0,0:0:0:0:
411,363,35482,2,0,L|413:273,1,80,10|0,0:0|0:0,0:0:0:0:
418,155,35846,2,0,B|367:153|349:167|349:167|305:126|241:149,1,160,2|2,3:2|0:0,0:0:0:0:
161,159,36392,2,0,L|150:76,1,80,10|0,0:0|0:0,0:0:0:0:
30,43,36755,1,2,3:2:0:0:
30,43,36937,1,8,0:0:0:0:
5,133,37119,2,0,B|22:174|22:174|12:208,1,80,0|2,3:2|3:2,0:0:0:0:
43,304,37482,1,2,0:0:0:0:
43,304,37664,2,0,P|91:288|144:296,1,80,10|2,0:0|0:0,0:0:0:0:
155,305,37937,1,2,0:0:0:0:
155,305,38028,6,0,L|172:217,1,80,2|0,3:2|0:0,0:0:0:0:
224,137,38392,2,0,P|268:153|314:148,1,80,8|2,0:0|0:0,0:0:0:0:
396,98,38755,1,2,3:2:0:0:
396,98,38937,2,0,L|413:177,1,80,2|2,3:2|0:0,0:0:0:0:
420,291,39301,2,0,B|330:293|369:219|258:234,1,160,10|2,0:0|3:2,0:0:0:0:
170,273,39846,1,12,0:0:0:0:
170,273,40028,2,0,L|161:198,5,40,2|0|8|8|0|0,3:2|3:2|0:3|0:3|0:0|0:0,0:0:0:0:
127,163,40573,2,0,P|175:155|221:132,1,80,10|8,0:0|0:3,0:0:0:0:
287,98,40937,6,0,B|301:160|301:160|285:215,1,120.000004577637,6|2,3:2|0:0,0:0:0:0:
301,309,41482,1,0,3:2:0:0:
301,309,41664,2,0,B|340:314|363:302|363:302|385:320|436:320,1,120.000004577637,10|2,0:0|0:0,0:0:0:0:
413,243,42210,2,0,L|403:177,1,60.0000022888184,2|0,3:2|0:0,0:0:0:0:
287,98,42573,2,0,L|277:164,1,60.0000022888184,2|0,3:2|3:2,0:0:0:0:
220,232,42937,1,2,3:2:0:0:
220,232,43119,2,0,B|152:258|163:196|77:227,1,120.000004577637,8|0,0:0|0:0,0:0:0:0:
30,164,43664,1,2,0:0:0:0:
30,164,43846,6,0,L|26:84,1,60.0000022888184,6|2,3:2|0:0,0:0:0:0:
132,37,44210,2,0,L|128:117,1,60.0000022888184,2|2,0:0|3:2,0:0:0:0:
131,185,44573,2,0,B|174:187|198:171|198:171|219:182|260:180,1,120.000004577637,10|2,0:0|0:0,0:0:0:0:
359,152,45119,2,0,P|343:182|338:217,1,60.0000022888184,2|0,3:2|0:0,0:0:0:0:
398,269,45482,2,0,P|414:239|419:204,1,60.0000022888184,2|0,3:2|0:0,0:0:0:0:
443,136,45846,1,2,3:2:0:0:
443,136,46028,2,0,P|424:64|426:56,1,60.0000022888184,8|8,0:0|0:3,0:0:0:0:
375,17,46392,2,0,L|306:29,1,60.0000022888184,4|4,0:3|0:3,0:0:0:0:
232,37,46755,6,0,B|229:71|257:93|257:93|253:129|253:129|264:167,1,120.000004577637,6|8,3:2|0:0,0:0:0:0:
224,249,47301,2,0,B|162:225|161:267|91:242,1,120.000004577637,6|8,3:2|0:0,0:0:0:0:
0,165,47846,2,0,B|62:189|63:147|133:172,1,120.000004577637,6|8,3:2|0:0,0:0:0:0:
210,133,48392,2,0,B|225:177|225:177|216:217|216:217|224:252,1,120.000004577637,6|10,3:2|0:0,0:0:0:0:
275,329,48937,1,8,0:0:0:0:
318,249,49119,1,4,3:2:0:0:
318,249,49301,2,0,L|364:253,3,30.0000011444092,8|8|4|4,0:0|0:3|0:3|0:3,0:0:0:0:
420,303,49664,5,10,0:0:0:0:
434,213,49846,1,2,3:2:0:0:
309,57,50210,6,0,L|319:132,1,60.0000022888184,6|0,3:2|0:0,0:0:0:0:
241,175,50573,2,0,L|231:100,1,60.0000022888184,8|0,0:3|0:0,0:0:0:0:
144,85,50937,6,0,L|159:216,1,120.000004577637,6|8,3:2|0:0,0:0:0:0:
216,269,51482,2,0,B|257:263|282:274|282:274|299:258|346:256,1,120.000004577637,8|0,0:0|0:0,0:0:0:0:
419,217,52028,1,0,3:2:0:0:
419,217,52119,1,0,3:2:0:0:
419,217,52210,2,0,L|408:132,1,60.0000022888184,10|0,0:0|0:0,0:0:0:0:
308,58,52573,6,0,L|301:151,1,80,6|8,3:2|0:0,0:0:0:0:
299,268,52937,1,2,3:2:0:0:
175,356,53119,1,0,0:0:0:0:
175,356,53210,1,0,0:0:0:0:
175,356,53301,2,0,P|110:349|84:356,1,80,2|10,3:2|0:0,0:0:0:0:
55,271,53664,2,0,P|75:228|76:182,1,80,2|10,3:2|0:0,0:0:0:0:
76,87,54028,2,0,P|122:107|241:89,1,160,2|2,3:2|3:2,0:0:0:0:
365,99,54573,2,0,L|351:7,1,80,10|0,0:0|3:2,0:0:0:0:
441,157,54937,2,0,L|452:71,1,80,10|0,0:0|3:2,0:0:0:0:
363,183,55301,1,8,0:0:0:0:
363,183,55482,6,0,P|376:224|377:273,1,80,2|10,3:2|0:0,0:0:0:0:
324,361,55846,1,2,3:2:0:0:
324,361,56028,2,0,L|236:356,1,80,10|0,0:0|3:2,0:0:0:0:
142,310,56392,1,10,0:0:0:0:
231,236,56573,1,2,3:2:0:0:
231,236,56664,1,0,3:2:0:0:
231,236,56755,1,10,0:0:0:0:
113,207,56937,2,0,P|123:168|119:125,1,80,2|8,3:2|0:0,0:0:0:0:
71,24,57301,1,2,3:2:0:0:
71,24,57482,2,0,L|169:16,1,80,10|0,0:0|3:2,0:0:0:0:
295,52,57846,2,0,B|210:48|231:129|118:109,1,160,10|10,0:0|0:0,0:0:0:0:
44,144,58392,6,0,L|56:233,1,80,6|8,3:2|0:0,0:0:0:0:
138,311,58755,1,2,3:2:0:0:
138,311,58937,2,0,P|188:297|236:306,1,80,10|0,0:0|3:2,0:0:0:0:
335,310,59301,2,0,P|320:265|324:221,1,80,10|0,0:0|3:2,0:0:0:0:
397,174,59664,2,0,P|412:219|408:263,1,80,10|0,0:0|3:2,0:0:0:0:
419,338,60028,2,0,L|504:329,1,80,10|0,0:0|3:2,0:0:0:0:
331,237,60392,2,0,L|422:253,1,80,10|0,0:0|3:2,0:0:0:0:
263,292,60755,2,0,P|245:251|301:157,1,160,8|0,0:3|3:2,0:0:0:0:
377,68,61301,5,10,0:0:0:0:
377,68,61482,2,0,L|395:152,1,80,10|2,0:0|3:2,0:0:0:0:
297,158,61846,1,10,0:0:0:0:
297,158,62028,2,0,L|275:243,1,80,10|2,0:0|3:2,0:0:0:0:
192,181,62392,1,10,0:0:0:0:
192,181,62573,2,0,L|121:231,1,80,10|2,0:0|3:2,0:0:0:0:
0,294,62937,6,0,B|48:302|67:275|67:275|94:308|140:309|171:293,1,160,14|2,0:0|3:2,0:0:0:0:
254,336,63482,2,0,P|239:297|240:252,1,80,14|0,0:0|0:0,0:0:0:0:
304,201,63846,2,0,P|319:240|318:285,1,80,8|4,0:3|0:3,0:0:0:0:
339,354,64210,6,0,L|428:348,1,80,6|0,3:2|0:0,0:0:0:0:
512,246,64573,2,0,L|423:240,1,80,10|0,0:0|0:0,0:0:0:0:
304,201,64937,2,0,P|311:151|292:105,1,80,2|2,3:2|0:0,0:0:0:0:
188,47,65301,2,0,P|181:97|200:143,1,80,10|2,0:0|0:0,0:0:0:0:
209,213,65664,2,0,B|125:255|130:181|43:218,1,160,2|10,3:2|0:0,0:0:0:0:
10,281,66210,2,0,P|26:339|21:374,1,80,2|0,0:0|3:2,0:0:0:0:
90,283,66573,2,0,P|83:232|118:130,1,160,2|0,0:0|0:0,0:0:0:0:
207,56,67119,6,0,L|118:46,1,80,2|0,3:2|0:0,0:0:0:0:
280,130,67482,1,10,0:0:0:0:
280,130,67664,2,0,L|183:138,1,80,2|0,0:0|3:2,0:0:0:0:
362,73,68028,1,2,0:0:0:0:
368,172,68210,1,10,0:0:0:0:
368,172,68392,2,0,B|355:212|355:212|361:257,1,80,2|0,0:0|3:2,0:0:0:0:
270,313,68755,2,0,B|283:273|283:273|277:228,1,80,2|8,0:0|0:0,0:0:0:0:
263,150,69119,2,0,L|171:173,1,80,2|2,0:0|3:2,0:0:0:0:
95,114,69482,2,0,L|271:70,1,160,2|2,0:0|0:0,0:0:0:0:
363,39,70028,6,0,P|345:90|347:137,1,80,6|0,3:2|0:0,0:0:0:0:
373,208,70392,1,10,0:0:0:0:
373,208,70573,2,0,L|288:204,1,80,2|0,0:0|3:2,0:0:0:0:
164,122,70937,2,0,L|249:118,1,80,2|8,0:0|0:0,0:0:0:0:
363,39,71301,2,0,L|278:35,1,80,2|0,0:0|3:2,0:0:0:0:
164,122,71664,2,0,P|179:170|176:205,1,80,2|8,0:0|0:0,0:0:0:0:
284,304,72028,2,0,P|269:256|272:221,1,80,2|0,0:0|3:2,0:0:0:0:
292,144,72392,2,0,B|376:117|371:188|464:155,1,160,2|0,0:0|0:0,0:0:0:0:
421,85,72937,6,0,L|406:0,1,80,2|0,3:2|0:0,0:0:0:0:
292,144,73301,1,10,0:0:0:0:
292,144,73482,2,0,L|277:229,1,80,2|0,0:0|3:2,0:0:0:0:
246,320,73846,2,0,P|192:301|150:306,1,80,2|8,0:0|0:0,0:0:0:0:
103,341,74210,2,0,B|79:286|120:244|120:244|100:225|119:167,1,160,2|2,0:0|0:0,0:0:0:0:
170,132,74755,2,0,P|129:113|60:124,1,80,10|2,0:0|0:0,0:0:0:0:
203,220,75119,5,2,3:2:0:0:
203,220,75300,1,0,0:0:0:0:
108,232,75482,2,0,L|112:186,3,40
94,112,75846,2,0,L|99:20,1,80,6|8,3:2|0:0,0:0:0:0:
193,17,76210,1,2,3:2:0:0:
193,17,76392,6,0,P|245:30|286:26,1,80,10|0,0:0|3:2,0:0:0:0:
384,36,76755,2,0,P|367:92|374:136,1,80,10|0,0:0|3:2,0:0:0:0:
387,205,77119,2,0,B|338:190|338:190|281:198|281:198|225:187,2,160,14|14|14,0:0|0:0|0:0,0:0:0:0:
463,264,78028,2,0,P|457:324|467:362,1,80,0|8,3:2|0:3,0:0:0:0:
383,361,78392,2,0,L|323:348,3,40,4|4|0|0,0:3|0:3|3:2|3:2,0:0:0:0:
289,302,78755,6,0,L|146:312,2,120
258,230,79482,2,0,L|115:240,2,120
333,173,80210,5,0,0:0:0:0:
143,80,80937,6,0,L|135:29,3,30.0000011444092,0|0|8|8,3:2|3:2|0:0|0:0,0:0:0:0:
215,124,81300,2,0,L|222:77,3,30.0000011444092,8|8|4|4,0:3|0:3|0:3|0:3,0:0:0:0:
145,165,81664,6,0,P|210:202|284:161,1,160,6|2,3:2|2:2,0:0:0:0:
359,118,82210,1,0,3:2:0:0:
359,118,82391,2,0,L|361:207,1,80,10|2,0:0|2:2,0:0:0:0:
432,275,82755,1,2,2:2:0:0:
432,275,82937,2,0,P|418:335|432:368,1,80,0|0,3:2|0:0,0:0:0:0:
323,368,83300,1,0,3:2:0:0:
323,368,83482,2,0,P|275:358|225:377,1,80,0|2,3:2|2:2,0:0:0:0:
165,313,83846,1,0,0:0:0:0:
83,368,84028,1,0,0:0:0:0:
83,368,84119,1,0,0:0:0:0:
83,368,84210,2,0,L|86:268,1,80
23,243,84573,5,10,0:0:0:0:
23,243,84755,2,0,B|8:204|8:204|25:152,1,80,10|0,0:0|3:2,0:0:0:0:
83,92,85119,1,0,0:0:0:0:
83,92,85300,2,0,P|124:79|171:92,1,80
254,121,85664,1,10,0:0:0:0:
254,121,85846,2,0,P|248:76|259:34,1,80,10|0,0:0|0:0,0:0:0:0:
333,154,86210,2,0,P|308:194|189:178,1,180.000006866455,10|0,0:0|0:0,0:0:0:0:
96,150,86937,1,0,3:2:0:0:
96,150,87028,1,0,3:2:0:0:
96,150,87119,2,0,P|113:189|105:232,1,80,0|0,3:2|0:0,0:0:0:0:
67,310,87482,5,10,0:0:0:0:
67,310,87664,2,0,B|118:328|156:310|175:286|175:286|207:263|255:263|279:292,1,223.999993164063
