osu file format v14

[General]
AudioFilename: audio.mp3
AudioLeadIn: 0
PreviewTime: 52119
Countdown: 0
SampleSet: Soft
StackLeniency: 0.7
Mode: 0
LetterboxInBreaks: 0
WidescreenStoryboard: 1

[Editor]
DistanceSpacing: 1
BeatDivisor: 4
GridSize: 8
TimelineZoom: 2

[Metadata]
Title:Setsuna no Ai (TV Size)
TitleUnicode:セツナの愛 (TV Size)
Artist:GRANRODEO
ArtistUnicode:GRANRODEO
Creator:Seolv
Version:Irya's Normal
Source:文豪ストレイドッグス
Tags:bungo bungou stray dogs anime japanese lukas irya [xv] paradogi -frontier- lolia karia akitoshi -laura- einess -hakurei- lit120 [_l_u_k_a_s_]
BeatmapID:2028080
BeatmapSetID:957002

[Difficulty]
HPDrainRate:4
CircleSize:3.2
OverallDifficulty:4
ApproachRate:5.5
SliderMultiplier:1.1
SliderTickRate:1

[Events]
//Background and Video events
0,0,"cropped-1920-1080-739827.png",0,0
//Break Periods
//Storyboard Layer 0 (Background)
//Storyboard Layer 1 (Fail)
//Storyboard Layer 2 (Pass)
//Storyboard Layer 3 (Foreground)
//Storyboard Layer 4 (Overlay)
//Storyboard Sound Samples

[TimingPoints]
210,363.636363636364,4,2,11,30,1,0
210,-100,4,2,11,30,0,0
1482,-100,4,2,11,30,0,0
3119,-100,4,2,11,30,0,0
5301,-100,4,2,15,50,0,0
6028,-100,4,2,15,60,0,1
14755,-100,4,2,15,50,0,0
29119,-100,4,2,15,60,0,0
29301,-100,4,2,15,60,0,0
40937,-100,4,2,15,50,0,0
46755,-100,4,2,15,60,0,0
52573,-100,4,2,15,70,0,1
75846,-100,4,2,15,70,0,0
80937,-100,4,2,15,50,0,0
81664,-100,4,2,15,60,0,0
88573,-100,4,2,15,45,0,0
88755,-100,4,2,15,30,0,0
89119,-100,4,2,15,15,0,0

[Colours]
Combo1 : 146,1,52
Combo2 : 106,0,106
Combo3 : 255,255,0
Combo4 : 175,85,3

[HitObjects]
35,80,210,6,0,L|146:74,1,110,6|2,1:2|0:0,0:0:0:0:
206,165,937,2,0,L|96:170,1,110,8|8,1:2|0:0,0:0:0:0:
41,176,1482,2,0,P|33:229|46:285,1,110,2|0,3:2|0:0,0:0:0:0:
84,322,2028,1,0,0:0:0:0:
193,331,2392,2,0,L|302:336,1,110,0|0,0:0|0:0,0:0:0:0:
256,192,3119,12,8,5301,0:0:0:0:
467,64,6028,6,0,L|356:58,1,110,6|2,3:2|0:0,0:0:0:0:
253,95,6755,2,0,P|198:102|145:90,1,110,8|0,0:0|0:0,0:0:0:0:
95,65,7301,2,0,L|89:174,1,110,2|0,3:2|3:2,0:0:0:0:
87,229,7846,1,0,3:2:0:0:
86,339,8210,2,0,L|252:329,1,165,8|0,0:0|0:0,0:0:0:0:
284,286,8937,6,0,P|337:274|391:281,1,110,2|2,3:2|0:0,0:0:0:0:
500,298,9664,2,0,L|494:189,1,110,8|0,0:0|0:0,0:0:0:0:
452,151,10210,2,0,L|446:42,1,110,2|0,3:2|3:2,0:0:0:0:
405,3,10755,1,0,3:2:0:0:
304,47,11119,1,8,0:0:0:0:
194,49,11482,1,8,0:3:0:0:
251,142,11846,6,0,P|258:196|246:249,1,110,6|2,3:2|0:0,0:0:0:0:
160,318,12573,2,0,L|50:323,1,110,8|0,0:0|0:0,0:0:0:0:
4,291,13119,2,0,P|-8:237|0:183,1,110,2|0,3:2|3:2,0:0:0:0:
20,132,13664,1,0,3:2:0:0:
45,24,14028,2,0,L|209:33,1,165,8|0,0:0|0:0,0:0:0:0:
264,39,14755,5,2,0:0:0:0:
338,120,15119,1,0,0:0:0:0:
338,120,15301,2,0,L|448:115,2,110,0|0|2,0:0|0:0|0:0,0:0:0:0:
459,317,17664,6,0,L|349:312,1,110,6|2,3:2|0:0,0:0:0:0:
242,341,18392,2,0,P|187:348|134:336,1,110,10|2,0:0|0:0,0:0:0:0:
86,310,18937,1,2,3:2:0:0:
91,200,19301,1,2,3:2:0:0:
91,200,19482,1,0,3:2:0:0:
36,104,19846,2,0,P|90:96|143:108,1,110,8|0,0:0|0:0,0:0:0:0:
233,171,20573,6,0,L|238:61,1,110,2|2,3:2|0:0,0:0:0:0:
334,7,21301,2,0,L|339:117,1,110,10|2,0:0|0:0,0:0:0:0:
343,171,21846,1,2,3:2:0:0:
350,280,22210,1,0,3:2:0:0:
350,280,22392,1,0,3:2:0:0:
447,330,22755,2,0,P|454:275|442:222,1,110,8|0,0:0|0:0,0:0:0:0:
343,171,23482,6,0,L|233:176,1,110,2|2,3:2|0:0,0:0:0:0:
122,180,24210,2,0,L|117:290,1,110,10|2,0:0|0:0,0:0:0:0:
115,344,24755,1,2,3:2:0:0:
13,318,25119,1,2,3:2:0:0:
13,318,25301,1,0,3:2:0:0:
19,208,25664,2,0,L|24:98,1,110,8|0,0:0|0:0,0:0:0:0:
94,13,26392,6,0,P|147:0|201:8,1,110,2|2,3:2|0:0,0:0:0:0:
153,108,27119,2,0,P|207:115|260:103,1,110,10|2,0:0|0:0,0:0:0:0:
313,88,27664,1,2,3:2:0:0:
423,90,28028,1,0,3:2:0:0:
423,90,28210,1,0,3:2:0:0:
425,199,28573,2,0,L|370:201,1,55,8|2,0:0|3:2,0:0:0:0:
325,233,28937,2,0,L|270:235,1,55,10|0,0:0|0:0,0:0:0:0:
221,261,29301,6,0,L|111:266,1,110,6|10,3:2|0:0,0:0:0:0:
56,268,29846,1,2,0:0:0:0:
56,268,30028,2,0,P|47:213|60:160,1,110,2|2,3:2|0:0,0:0:0:0:
90,115,30573,1,10,0:0:0:0:
164,34,30937,2,0,L|274:29,1,110,2|2,3:2|0:0,0:0:0:0:
383,26,31664,1,2,3:2:0:0:
383,26,31846,1,10,0:0:0:0:
477,82,32210,6,0,P|483:136|472:189,1,110,2|10,3:2|0:0,0:0:0:0:
423,214,32755,1,0,0:0:0:0:
423,214,32937,2,0,L|313:209,1,110,2|2,3:2|0:0,0:0:0:0:
262,188,33482,2,0,L|152:193,1,110,10|2,0:0|3:2,0:0:0:0:
53,143,34210,2,0,P|47:197|58:251,1,110,2|0,0:0|3:2,0:0:0:0:
74,303,34755,1,10,0:0:0:0:
172,351,35119,6,0,P|226:357|279:345,1,110,6|10,3:2|0:0,0:0:0:0:
326,317,35664,1,0,0:0:0:0:
325,317,35846,2,0,L|435:312,1,110,2|2,3:2|0:0,0:0:0:0:
483,285,36392,1,10,0:0:0:0:
434,186,36755,1,2,3:2:0:0:
480,86,37119,1,2,0:0:0:0:
370,91,37482,2,0,L|260:96,1,110,2|2,3:2|0:0,0:0:0:0:
217,131,38028,6,0,P|163:143|109:137,1,110,2|8,3:2|0:0,0:0:0:0:
2,111,38755,2,0,L|4:166,1,55,2|2,3:2|3:2,0:0:0:0:
13,223,39119,1,2,0:0:0:0:
13,223,39301,2,0,L|123:228,1,110,10|2,0:0|3:2,0:0:0:0:
64,321,40028,2,0,L|174:326,1,110,2|8,3:2|0:3,0:0:0:0:
224,348,40573,1,10,0:0:0:0:
334,348,40937,6,0,L|329:238,1,110,6|2,3:2|0:0,0:0:0:0:
376,138,41664,2,0,P|322:132|268:143,1,110,10|2,0:0|0:0,0:0:0:0:
222,174,42210,2,0,L|112:179,1,110,2|2,3:2|3:2,0:0:0:0:
54,85,42937,2,0,L|-1:87,2,55,2|8|0,3:2|0:0|0:0,0:0:0:0:
144,22,43664,1,2,0:0:0:0:
144,22,43846,6,0,L|254:17,1,110,6|2,3:2|0:0,0:0:0:0:
312,110,44573,2,0,L|309:164,2,55,10|2|2,0:0|0:0|0:0,0:0:0:0:
352,72,45119,1,2,3:2:0:0:
435,0,45482,1,2,3:2:0:0:
502,86,45846,1,2,3:2:0:0:
502,86,46028,2,0,L|499:140,1,55,8|8,0:0|0:3,0:0:0:0:
472,189,46391,2,0,L|469:243,1,55,4|4,0:3|0:3,0:0:0:0:
448,295,46755,6,0,L|338:300,1,110,6|8,3:2|0:0,0:0:0:0:
283,307,47300,1,6,3:2:0:0:
185,357,47664,1,8,0:0:0:0:
184,359,47846,2,0,P|129:364|75:353,1,110,6|8,3:2|0:0,0:0:0:0:
35,314,48392,2,0,L|30:204,1,110,6|10,3:2|0:0,0:0:0:0:
44,151,48937,1,8,0:0:0:0:
89,50,49301,2,0,L|143:47,1,55,8|4,0:0|0:3,0:0:0:0:
198,41,49664,5,10,0:0:0:0:
198,41,49846,1,2,3:2:0:0:
308,37,50210,1,6,3:2:0:0:
256,132,50573,1,8,0:3:0:0:
199,226,50937,1,6,3:2:0:0:
147,323,51301,1,8,0:0:0:0:
147,323,51482,2,0,L|366:337,1,220,8|10,0:0|0:0,0:0:0:0:
476,344,52573,6,0,L|471:234,1,110,6|2,3:2|3:2,0:0:0:0:
445,185,53119,1,10,0:0:0:0:
445,185,53301,2,0,L|442:131,1,55,2|10,3:2|0:0,0:0:0:0:
405,88,53664,2,0,L|402:34,1,55,2|10,3:2|0:0,0:0:0:0:
347,31,54028,2,0,P|293:42|239:37,1,110,2|2,3:2|3:2,0:0:0:0:
183,28,54573,1,10,0:0:0:0:
115,115,54937,1,10,0:0:0:0:
158,273,55482,6,0,L|155:327,2,55,2|10|2,3:2|0:0|3:2,0:0:0:0:
206,244,56028,2,0,P|259:233|314:238,1,110,10|10,0:0|0:0,0:0:0:0:
362,265,56573,1,2,3:2:0:0:
458,318,56937,2,0,P|463:263|452:209,1,110,2|2,3:2|3:2,0:0:0:0:
425,161,57482,1,10,0:0:0:0:
333,99,57846,1,10,0:0:0:0:
235,150,58210,1,10,0:0:0:0:
235,150,58392,6,0,L|125:155,1,110,6|2,3:2|3:2,0:0:0:0:
70,158,58937,1,10,0:0:0:0:
15,62,59301,1,10,0:0:0:0:
124,58,59664,1,10,0:0:0:0:
70,158,60028,2,0,P|59:211|64:266,1,110,10|10,0:0|0:0,0:0:0:0:
126,357,60755,2,0,L|236:352,1,110,8|0,0:3|3:2,0:0:0:0:
291,354,61301,5,10,0:0:0:0:
291,354,61482,1,10,0:0:0:0:
383,294,61846,1,10,0:0:0:0:
383,294,62028,1,10,0:0:0:0:
383,183,62392,1,10,0:0:0:0:
383,183,62573,1,10,0:0:0:0:
427,82,62937,2,0,P|372:76|318:87,1,110,14|2,0:0|3:2,0:0:0:0:
269,112,63482,2,0,L|264:222,1,110,14|8,0:0|0:3,0:0:0:0:
170,280,64210,5,6,3:2:0:0:
76,222,64573,2,0,L|71:112,1,110,10|2,0:0|3:2,0:0:0:0:
54,59,65119,2,0,L|0:56,2,55,2|10|2,0:0|0:0|0:0,0:0:0:0:
89,16,65664,2,0,P|142:5|197:11,1,110,2|10,3:2|0:0,0:0:0:0:
246,35,66210,2,0,P|300:41|354:30,1,110,2|2,0:0|0:0,0:0:0:0:
403,5,66755,1,8,0:0:0:0:
455,101,67119,5,2,3:2:0:0:
415,203,67482,1,10,0:0:0:0:
415,203,67664,2,0,L|420:313,1,110,2|2,0:0|0:0,0:0:0:0:
381,352,68210,1,10,0:0:0:0:
381,352,68392,2,0,P|328:341|273:347,1,110,2|2,0:0|0:0,0:0:0:0:
163,362,69119,2,0,L|158:252,1,110,2|2,0:0|0:0,0:0:0:0:
102,156,69846,1,2,0:0:0:0:
102,156,70028,6,0,P|155:144|210:150,1,110,6|10,3:2|0:0,0:0:0:0:
261,170,70573,1,2,0:0:0:0:
371,168,70937,1,2,0:0:0:0:
463,108,71301,1,2,0:0:0:0:
373,44,71664,2,0,L|263:39,1,110,2|2,0:0|0:0,0:0:0:0:
152,39,72392,2,2,L|42:44,1,110
5,84,72937,5,2,3:2:0:0:
53,182,73301,1,10,0:0:0:0:
53,182,73482,2,0,P|42:235|47:290,1,110,2|2,0:0|0:0,0:0:0:0:
133,358,74210,2,0,L|243:353,1,110,2|2,0:0|0:0,0:0:0:0:
291,327,74755,1,10,0:0:0:0:
379,262,75119,1,2,3:2:0:0:
379,262,75301,2,0,L|433:259,2,55,8|10|8,0:0|0:0|0:0,0:0:0:0:
338,225,75846,6,0,P|332:170|343:116,1,110,6|2,3:2|3:2,0:0:0:0:
374,71,76392,2,0,L|264:66,1,110,10|10,0:0|0:0,0:0:0:0:
214,42,76937,1,0,3:2:0:0:
214,42,77119,1,14,0:0:0:0:
104,34,77482,1,14,0:0:0:0:
9,87,77846,2,0,L|-1:253,1,165,14|4,0:0|0:3,0:0:0:0:
108,261,78755,6,0,L|112:364,2,82.5,10|8|0,0:0|0:3|0:0,0:0:0:0:
148,223,79482,2,0,L|143:119,2,82.5,10|0|2,0:0|0:0|3:2,0:0:0:0:
192,255,80210,1,10,0:0:0:0:
411,250,80937,2,0,L|408:196,1,55,0|8,3:2|0:0,0:0:0:0:
431,145,81301,2,0,L|428:91,1,55,8|4,0:3|0:3,0:0:0:0:
426,35,81664,6,0,L|315:29,1,110,6|2,3:2|2:2,0:0:0:0:
273,64,82210,1,0,3:2:0:0:
273,64,82391,1,10,0:0:0:0:
163,70,82755,1,2,2:2:0:0:
163,70,82937,2,0,L|53:75,1,110,0|0,3:2|3:2,0:0:0:0:
17,117,83482,1,0,3:2:0:0:
62,217,83846,2,0,L|172:212,1,110,10|0,0:0|3:2,0:0:0:0:
281,210,84573,5,10,0:0:0:0:
281,210,84755,1,10,0:0:0:0:
224,121,85119,1,10,0:0:0:0:
224,121,85300,1,10,0:0:0:0:
176,216,85664,1,10,0:0:0:0:
176,216,85846,1,10,0:0:0:0:
229,311,86210,2,0,L|459:300,1,220,10|0,0:0|3:2,0:0:0:0:
483,139,87482,5,10,0:0:0:0:
483,139,87664,1,14,0:0:0:0:
256,192,87846,12,0,89119,0:0:0:0:
