osu file format v14

[General]
AudioFilename: get ya head in the game.mp3
AudioLeadIn: 0
PreviewTime: 61234
Countdown: 0
SampleSet: Normal
StackLeniency: 0.7
Mode: 0
LetterboxInBreaks: 1
WidescreenStoryboard: 1

[Editor]
DistanceSpacing: 1.3
BeatDivisor: 4
GridSize: 32
TimelineZoom: 2.899999

[Metadata]
Title:Hengen Jizai no Magical Star (TV Size)
TitleUnicode:変幻自在のマジカルスタ (TV Size)
Artist:GRANRODEO
ArtistUnicode:GRANRODEO
Creator:Xexxar
Version:Xexxient's Standard
Source:黒子のバスケ
Tags:OP Opening Japanese 2moe4u Kuroko no Basket 2 Basuke Basketball dunking moe
BeatmapID:854452
BeatmapSetID:156331

[Difficulty]
HPDrainRate:5
CircleSize:4
OverallDifficulty:5
ApproachRate:7.2
SliderMultiplier:1.2
SliderTickRate:1

[Events]
//Background and Video events
0,0,"kuroko_no_basket_wall_2_by_naruble-d5yu5zl.jpg",0,0
Video,0,"video knb 2 osu.avi"
//Break Periods
//Storyboard Layer 0 (Background)
//Storyboard Layer 1 (Fail)
//Storyboard Layer 2 (Pass)
//Storyboard Layer 3 (Foreground)
//Storyboard Sound Samples

[TimingPoints]
1100,299.775168623532,4,2,0,60,1,0
1100,-125,4,2,0,60,0,0
11292,-125,4,2,0,5,0,0
11742,299.775168623532,4,1,0,60,1,0
11742,-100,4,1,0,60,0,0
50253,-100,4,2,0,60,0,0
50263,-125,4,2,0,60,0,0
55059,-111.111111111111,4,2,0,60,0,0
57607,-111.111111111111,4,2,0,60,0,0
57613,-111.111111111111,4,1,0,60,0,0
60755,-76.9230769230769,4,1,0,60,0,0
61055,-76.9230769230769,4,1,0,70,0,0
62097,-76.9230769230769,4,1,0,80,0,0
62104,-83.3333333333333,4,1,0,95,0,1
62404,-83.3333333333333,4,1,0,95,0,1
62411,-83.3333333333333,4,1,0,85,0,1
71397,-83.3333333333333,4,1,0,80,0,0
71697,-83.3333333333333,4,1,0,80,0,1
80240,-83.3333333333333,4,1,0,87,0,0
81289,-90.9090909090909,4,1,0,69,0,0
88484,-90.9090909090909,4,1,0,5,0,0

[Colours]
Combo1 : 244,0,0
Combo2 : 128,128,255
Combo3 : 255,128,64
Combo4 : 196,54,6

[HitObjects]
192,256,1100,6,0,P|160:192|178:114,1,144,2|0,0:0|0:0,0:0:0:0:
276,38,1849,2,0,L|334:40,2,48
301,131,2299,2,0,B|317:178|317:178|305:240,1,96,2|0,0:0|0:0,0:0:0:0:
209,315,2898,2,0,L|114:306,1,96
41,296,3348,1,0,0:0:0:0:
85,233,3498,6,0,P|78:191|97:123,1,96,2|0,0:0|0:0,0:0:0:0:
231,121,4097,2,0,P|241:167|234:214,1,96
183,281,4547,1,0,0:0:0:0:
267,291,4697,2,0,L|416:309,1,144,2|0,0:0|0:0,0:0:0:0:
233,214,5596,1,0,0:0:0:0:
288,157,5896,6,0,P|322:72|307:22,1,144,2|0,0:0|0:0,0:0:0:0:
187,72,6495,2,0,P|132:63|85:30,1,96
144,169,7095,2,0,P|155:216|146:278,1,96
256,346,7695,2,0,P|305:358|366:340,1,96
305,285,8144,2,0,P|292:225|328:137,1,144
459,211,8894,2,0,L|512:220,2,48
318,148,9493,5,2,0:0:0:0:
256,192,9643,12,0,11292,0:0:0:0:
62,89,11742,6,0,L|202:79,1,120,4|0,0:0|0:0,0:0:0:0:
241,139,12191,2,0,P|288:154|320:148,1,60,8|0,0:0|0:0,0:0:0:0:
374,117,12491,2,0,P|382:151|332:234,1,120,8|8,0:0|0:0,0:0:0:0:
281,278,12941,1,0,0:0:0:0:
337,340,13091,6,0,L|456:333,1,120,12|8,0:0|0:0,0:0:0:0:
512,270,13540,1,0,0:0:0:0:
462,202,13690,2,0,L|464:131,1,60,8|0,0:0|0:0,0:0:0:0:
470,51,13990,1,0,0:0:0:0:
470,51,14140,1,0,0:0:0:0:
385,164,14589,6,0,P|349:180|252:154,1,120,8|8,0:0|0:0,0:0:0:0:
203,118,15039,1,0,0:0:0:0:
135,168,15189,2,0,P|125:213|134:245,1,60,8|0,0:0|0:0,0:0:0:0:
195,275,15489,2,0,P|205:320|196:352,1,60,12|0,0:0|0:0,0:0:0:0:
121,313,15788,2,0,L|-4:303,2,120,8|0|0,0:0|0:0|0:0,0:0:0:0:
211,201,16538,6,0,P|253:187|336:218,1,120,14|8,0:0|0:0,0:0:0:0:
368,279,16988,2,0,L|450:277,1,60,10|0,0:0|0:0,0:0:0:0:
451,196,17287,2,0,L|510:197,2,60,10|0|0,0:0|0:0|0:0,0:0:0:0:
387,140,17737,1,10,0:0:0:0:
423,64,17887,6,0,P|390:56|306:112,1,120,0|10,0:0|0:0,0:0:0:0:
248,143,18337,1,0,0:0:0:0:
174,101,18486,2,0,P|164:129|166:159,1,60,10|10,0:0|0:0,0:0:0:0:
91,119,18786,2,0,P|91:89|82:60,1,60,8|14,0:0|0:0,0:0:0:0:
103,244,19386,6,0,L|232:234,1,120,10|10,0:0|0:0,0:0:0:0:
291,282,19835,1,0,0:0:0:0:
366,245,19985,2,0,P|375:289|362:328,1,60,10|0,0:0|0:0,0:0:0:0:
449,339,20285,2,0,P|458:292|439:207,1,120,2|10,0:0|0:0,0:0:0:0:
382,166,20735,1,0,0:0:0:0:
445,110,20885,2,0,L|511:114,1,60,8|8,0:0|0:0,0:0:0:0:
305,194,21334,1,4,0:0:0:0:
305,194,21784,6,0,P|270:178|183:206,1,120,8|8,0:0|1:0,0:0:0:0:
132,255,22234,1,0,0:0:0:0:
50,232,22384,2,0,L|53:301,1,60,0|8,1:0|0:0,0:0:0:0:
25,199,22683,2,0,L|37:54,1,120,0|8,0:0|0:0,0:0:0:0:
109,39,23133,1,0,0:0:0:0:
179,85,23283,2,0,L|255:77,1,60,10|8,0:0|0:0,0:0:0:0:
313,39,23583,2,0,L|372:45,1,60,8|12,0:0|0:0,0:0:0:0:
286,281,24182,6,0,P|265:233|282:148,1,120,8|8,0:0|0:0,0:0:0:0:
347,129,24632,2,0,L|412:131,1,60
462,191,24932,2,0,P|488:138|470:81,2,120,8|0|0,0:0|0:0|0:0,0:0:0:0:
397,244,25681,1,0,0:0:0:0:
427,321,25831,2,0,P|398:328|369:323,2,60,10|10|4,0:0|0:0|0:0,0:0:0:0:
286,281,26580,6,0,L|145:289,1,120,8|0,0:0|0:0,0:0:0:0:
97,237,27030,1,0,0:0:0:0:
31,183,27180,2,0,P|15:218|15:258,2,60,8|8|0,0:0|0:0|0:0,0:0:0:0:
98,132,27630,2,0,P|116:82|88:10,1,120,0|8,0:0|0:0,0:0:0:0:
160,75,28079,2,0,L|245:72,1,60,0|0,0:0|0:0,0:0:0:0:
286,125,28379,2,0,L|345:127,1,60,0|0,0:0|0:0,0:0:0:0:
400,189,28679,6,0,P|428:137|416:80,2,120,12|0|8,0:0|0:0|0:0,0:0:0:0:
337,245,29428,1,8,0:0:0:0:
386,312,29578,2,0,L|467:308,1,60,0|10,0:0|0:0,0:0:0:0:
354,337,29878,2,0,L|225:330,1,120,8|0,0:0|0:0,0:0:0:0:
171,274,30328,1,10,0:0:0:0:
95,310,30477,2,0,P|88:266|99:235,1,60,8|12,0:0|0:0,0:0:0:0:
152,94,30927,1,12,0:0:0:0:
152,94,31377,6,0,L|297:82,1,120,8|8,0:0|0:0,0:0:0:0:
339,33,31826,1,0,0:0:0:0:
413,72,31976,2,0,P|425:111|419:147,1,60,8|0,0:0|1:0,0:0:0:0:
340,143,32276,2,0,P|319:184|343:271,1,120,0|0,0:0|0:0,0:0:0:0:
397,203,32726,1,0,0:0:0:0:
459,259,32876,2,0,L|530:250,2,60,10|8|8,0:0|0:0|0:0,0:0:0:0:
401,320,33325,1,12,0:0:0:0:
401,320,33775,6,0,L|265:307,1,120,8|0,0:0|0:0,0:0:0:0:
198,325,34225,2,0,P|198:295|207:267,1,60,8|8,0:0|0:0,0:0:0:0:
159,197,34524,2,0,L|155:65,2,120,0|8|0,0:0|0:0|0:0,0:0:0:0:
225,249,35274,1,0,0:0:0:0:
290,196,35424,2,0,P|340:184|374:191,2,60,10|8|12,0:0|0:0|0:0,0:0:0:0:
154,76,36173,6,0,L|274:61,1,120,8|8,0:0|0:0,0:0:0:0:
342,110,36623,1,0,0:0:0:0:
413,66,36773,2,0,P|426:102|421:134,1,60,8|0,0:0|0:0,0:0:0:0:
368,186,37073,2,0,L|371:314,1,120,0|0,0:0|0:0,0:0:0:0:
301,354,37522,1,8,0:0:0:0:
231,307,37672,2,0,L|162:301,1,60,0|12,0:0|0:0,0:0:0:0:
99,257,37972,2,0,L|39:262,1,60,0|0,0:0|0:0,0:0:0:0:
63,181,38272,6,0,P|87:135|66:49,2,120,12|0|8,0:0|0:0|0:0,0:0:0:0:
99,257,39021,1,8,0:0:0:0:
163,202,39171,2,0,L|222:207,1,60,0|10,0:0|0:0,0:0:0:0:
303,181,39471,2,0,P|335:135|324:47,2,120,8|0|8,0:0|0:0|0:0,0:0:0:0:
245,242,40220,1,8,3:0:0:0:
297,308,40370,2,0,L|444:298,1,120,8|14,3:0|0:0,0:0:0:0:
416,299,40970,5,8,0:0:0:0:
462,229,41119,1,0,0:0:0:0:
415,159,41269,2,0,L|409:88,2,60,10|0|0,0:0|0:0|0:0,0:0:0:0:
343,205,41719,2,0,P|303:218|220:180,2,120,10|10|8,0:0|0:0|0:0,0:0:0:0:
294,136,42468,2,0,P|297:85|240:28,1,120,0|6,0:0|0:0,0:0:0:0:
131,148,43068,6,0,L|137:281,1,120,14|8,0:0|0:0,0:0:0:0:
191,332,43518,2,0,P|239:346|312:329,1,120,10|8,0:0|0:0,0:0:0:0:
281,251,43967,1,0,0:0:0:0:
254,171,44117,2,0,P|302:157|375:174,1,120,10|10,0:0|0:0,0:0:0:0:
416,241,44567,2,0,P|446:207|452:170,1,60,0|8,0:0|0:0,0:0:0:0:
422,113,44867,2,0,P|413:71|471:11,2,120,8|14|12,0:0|0:0|0:0,0:0:0:0:
267,45,45766,6,0,L|180:53,1,60,8|10,0:0|0:0,0:0:0:0:
131,88,46066,2,0,L|71:82,2,60,0|8|0,0:0|0:0|0:0,0:0:0:0:
202,131,46515,2,0,P|219:168|197:257,2,120,10|8|10,0:0|0:0|0:0,0:0:0:0:
140,189,47265,2,0,L|3:200,1,120,8|14,0:0|0:0,0:0:0:0:
142,313,47864,6,0,P|176:330|270:317,1,120,14|8,0:0|0:0,0:0:0:0:
313,262,48314,2,0,L|390:254,2,60,10|0|8,0:0|0:0|0:0,0:0:0:0:
242,215,48764,1,0,0:0:0:0:
289,145,48914,2,0,P|298:110|245:25,2,120,10|10|0,0:0|0:0|0:0,0:0:0:0:
357,193,49663,2,0,L|495:181,1,120,8|4,0:0|3:0,0:0:0:0:
242,215,50263,5,12,0:0:0:0:
155,172,50562,2,0,P|147:215|170:281,2,96,0|0|0,0:0|0:0|0:0,0:0:0:0:
204,89,51462,2,0,L|48:82,2,144,8|8|0,0:0|0:0|0:0,0:0:0:0:
285,38,52661,6,0,P|318:33|394:61,1,96,12|0,0:0|0:0,0:0:0:0:
346,140,53260,2,0,P|379:145|455:117,1,96,0|0,0:0|0:0,0:0:0:0:
399,216,53860,2,0,P|349:217|248:173,1,144,8|8,0:0|0:0,0:0:0:0:
217,166,54459,2,0,L|109:174,1,96,8|0,0:0|0:3,0:0:0:0:
28,229,55059,6,0,P|21:271|53:344,1,107.999996704102,8|8,0:0|0:0,0:0:0:0:
130,267,55659,2,0,P|150:217|144:164,1,107.999996704102,8|8,0:0|0:0,0:0:0:0:
215,82,56258,2,0,L|329:73,1,107.999996704102,8|0,1:2|0:0,0:0:0:0:
378,176,56858,2,0,L|271:168,1,107.999996704102,12|8,0:0|1:2,0:0:0:0:
444,76,57457,1,12,1:2:0:0:
256,192,57532,12,12,59855,0:0:0:0:
31,106,60755,6,0,P|35:133|51:158,4,38.9999982147218,8|0|0|0|12,3:0|3:0|3:0|3:0|3:0,0:0:0:0:
31,106,62104,6,0,P|69:84|173:114,1,143.999995605469,12|0,0:0|0:0,0:0:0:0:
213,173,62553,2,0,P|255:181|299:169,1,71.9999978027344,10|0,0:0|0:0,0:0:0:0:
350,120,62853,2,0,L|344:46,2,71.9999978027344,8|2|10,0:0|0:0|0:0,0:0:0:0:
416,175,63303,6,0,L|404:318,1,143.999995605469,14|0,0:0|0:0,0:0:0:0:
321,292,63753,2,0,P|290:311|236:315,1,71.9999978027344,10|0,0:0|0:0,0:0:0:0:
187,263,64052,2,0,P|156:244|102:240,2,71.9999978027344,0|8|10,0:0|0:0|0:0,0:0:0:0:
84,311,64502,6,0,P|54:280|84:164,1,143.999995605469,14|0,0:0|0:0,0:0:0:0:
114,117,64952,2,0,L|108:39,1,71.9999978027344,10|0,0:0|0:0,0:0:0:0:
201,171,65251,2,0,L|207:93,1,71.9999978027344,8|0,0:0|0:0,0:0:0:0:
276,46,65551,1,8,0:0:0:0:
339,105,65701,6,0,P|376:121|459:51,1,143.999995605469,6|0,0:0|0:0,0:0:0:0:
435,154,66151,2,0,P|430:194|449:253,1,71.9999978027344,10|0,0:0|0:0,0:0:0:0:
355,257,66450,2,0,P|360:297|341:356,1,71.9999978027344,8|0,0:0|0:0,0:0:0:0:
274,293,66750,1,8,0:0:0:0:
207,348,66900,6,0,P|191:309|239:211,1,143.999995605469,14|0,0:0|0:0,0:0:0:0:
301,174,67350,2,0,P|310:127|297:90,1,71.9999978027344,10|0,0:0|0:0,0:0:0:0:
224,69,67650,2,0,P|215:22|228:-15,2,71.9999978027344,8|0|10,0:0|0:0|0:0,0:0:0:0:
162,129,68099,6,0,P|123:147|36:83,1,143.999995605469,14|0,0:0|0:0,0:0:0:0:
78,180,68549,2,0,L|81:264,1,71.9999978027344,10|0,0:0|0:0,0:0:0:0:
155,297,68849,2,0,L|152:381,2,71.9999978027344,8|0|10,0:0|0:0|0:0,0:0:0:0:
217,237,69298,6,0,P|256:219|343:283,1,143.999995605469,14|8,0:0|0:0,0:0:0:0:
403,321,69748,2,0,L|501:304,1,71.9999978027344,10|0,0:0|0:0,0:0:0:0:
435,214,70048,2,0,L|533:197,2,71.9999978027344,10|0|0,0:0|0:0|0:0,0:0:0:0:
362,143,70497,6,0,P|309:118|211:131,1,143.999995605469,14|0,0:0|0:0,0:0:0:0:
125,108,70947,2,0,L|44:129,1,71.9999978027344,10|8,0:0|0:0,0:0:0:0:
122,253,71247,1,8,0:0:0:0:
122,253,71397,1,8,0:0:0:0:
122,253,71697,6,0,L|275:242,1,143.999995605469,14|0,0:0|0:0,0:0:0:0:
341,201,72146,2,0,P|351:252|338:289,1,71.9999978027344,10|0,0:0|0:0,0:0:0:0:
413,326,72446,2,0,P|461:329|479:241,1,143.999995605469,8|10,0:0|0:0,0:0:0:0:
439,176,72896,6,0,P|428:138|445:84,1,71.9999978027344,14|0,0:0|0:0,0:0:0:0:
371,45,73195,1,0,0:0:0:0:
304,99,73345,2,0,L|212:90,1,71.9999978027344,10|8,0:0|0:0,0:0:0:0:
153,54,73645,2,0,L|81:61,2,71.9999978027344,0|0|10,0:0|0:0|0:0,0:0:0:0:
221,107,74095,6,0,P|222:163|155:219,1,143.999995605469,14|0,0:0|0:0,0:0:0:0:
100,280,74544,2,0,P|96:324|123:373,1,71.9999978027344,10|0,0:0|0:0,0:0:0:0:
182,309,74844,2,0,L|347:296,1,143.999995605469,8|10,0:0|0:0,0:0:0:0:
394,244,75294,6,0,P|424:206|408:110,1,143.999995605469,14|0,0:0|0:0,0:0:0:0:
344,169,75744,2,0,P|305:142|268:140,1,71.9999978027344,10|0,0:0|0:0,0:0:0:0:
201,172,76043,2,0,P|166:164|138:141,2,71.9999978027344,8|0|8,0:0|0:0|0:0,0:0:0:0:
151,61,76493,6,0,P|100:66|58:164,1,143.999995605469,14|0,0:0|0:0,0:0:0:0:
89,215,76943,1,10,0:0:0:0:
46,290,77093,1,0,0:0:0:0:
131,289,77242,2,0,L|208:284,1,71.9999978027344,8|0,0:0|0:0,0:0:0:0:
265,344,77542,2,0,L|336:348,1,71.9999978027344,0|14,0:0|0:0,0:0:0:0:
407,297,77842,6,0,P|435:244|401:148,1,143.999995605469,0|10,0:0|0:0,0:0:0:0:
362,96,78292,1,0,0:0:0:0:
427,40,78441,2,0,L|514:29,2,71.9999978027344,8|12|0,3:0|0:0|0:0,0:0:0:0:
362,96,78891,6,0,L|195:74,1,143.999995605469,14|0,0:0|0:0,0:0:0:0:
140,115,79341,2,0,P|116:163|122:205,1,71.9999978027344,10|0,0:0|0:0,0:0:0:0:
226,241,79641,2,0,P|221:205|202:176,1,71.9999978027344,8|8,0:0|0:0,0:0:0:0:
162,298,79940,2,0,P|202:326|253:323,1,71.9999978027344
312,283,80240,1,0,0:0:0:0:
322,276,81289,6,0,P|308:219|342:145,1,132.00000402832,12|8,0:0|0:0,0:0:0:0:
415,182,81739,2,0,P|421:139|410:107,1,66.0000020141602,8|0,0:0|0:0,0:0:0:0:
343,68,82039,2,0,L|199:61,1,132.00000402832,8|8,0:0|0:0,0:0:0:0:
146,118,82488,1,0,0:0:0:0:
70,76,82638,6,0,P|60:108|64:140,1,66.0000020141602,12|0,0:0|0:0,0:0:0:0:
127,199,82938,2,0,P|137:242|122:284,1,66.0000020141602,8|0,0:0|0:0,0:0:0:0:
60,309,83238,2,0,L|206:297,1,132.00000402832,8|8,0:0|0:0,0:0:0:0:
248,232,83688,6,0,L|379:242,1,132.00000402832,12|0,0:0|0:0,0:0:0:0:
370,157,84137,2,0,L|295:151,1,66.0000020141602,8|0,0:0|0:0,0:0:0:0:
221,127,84437,2,0,P|196:85|225:-6,1,132.00000402832,8|8,0:0|0:0,0:0:0:0:
280,60,84887,1,0,0:0:0:0:
361,34,85037,6,0,L|426:39,1,66.0000020141602,12|0,0:0|0:0,0:0:0:0:
512,111,85336,2,0,L|446:116,1,66.0000020141602,8|0,0:0|0:0,0:0:0:0:
370,157,85636,2,0,P|356:193|404:290,1,132.00000402832,8|0,3:0|3:0,0:0:0:0:
438,208,86086,1,12,3:1:0:0:
256,192,86161,12,0,88484,0:0:0:0:
