osu file format v14

[General]
AudioFilename: get ya head in the game.mp3
AudioLeadIn: 0
PreviewTime: 61234
Countdown: 0
SampleSet: Normal
StackLeniency: 0.7
Mode: 0
LetterboxInBreaks: 1
WidescreenStoryboard: 1

[Editor]
Bookmarks: 21334,40670
DistanceSpacing: 1.2
BeatDivisor: 2
GridSize: 8
TimelineZoom: 1

[Metadata]
Title:Hengen Jizai no Magical Star (TV Size)
TitleUnicode:変幻自在のマジカルスタ (TV Size)
Artist:GRANRODEO
ArtistUnicode:GRANRODEO
Creator:Xexxar
Version:Rizen's Normal
Source:黒子のバスケ
Tags:OP Opening Japanese 2moe4u Kuroko no Basket 2 Basuke Basketball dunking moe
BeatmapID:819540
BeatmapSetID:156331

[Difficulty]
HPDrainRate:3
CircleSize:3.5
OverallDifficulty:4.5
ApproachRate:5
SliderMultiplier:0.8
SliderTickRate:1

[Events]
//Background and Video events
0,0,"kuroko_no_basket_wall_2_by_naruble-d5yu5zl.jpg",0,0
//Break Periods
//Storyboard Layer 0 (Background)
//Storyboard Layer 1 (Fail)
//Storyboard Layer 2 (Pass)
//Storyboard Layer 3 (Foreground)
//Storyboard Sound Samples

[TimingPoints]
1100,299.775168623532,4,2,0,100,1,0
10692,-100,4,2,0,5,0,0
11742,299.775168623532,4,1,0,60,1,0
50253,-100,4,2,0,60,0,0
57613,-100,4,1,0,60,0,0
62097,-100,4,1,0,80,0,0
62104,-100,4,1,0,95,0,1
62411,-100,4,1,0,85,0,1
71397,-100,4,1,0,80,0,0
71697,-100,4,1,0,80,0,1
80240,-100,4,1,0,87,0,0
81289,-100,4,1,0,69,0,0
88484,-100,4,1,0,5,0,0

[Colours]
Combo1 : 244,0,0
Combo2 : 128,128,255
Combo3 : 255,128,64
Combo4 : 196,54,6

[HitObjects]
88,61,1100,6,0,B|104:138|104:138|84:216,1,160,0|0,0:0|0:0,0:0:0:0:
207,366,2299,2,0,P|284:382|361:363,1,160,0|0,0:0|0:0,0:0:0:0:
409,279,3198,1,0,0:0:0:0:
361,195,3498,6,0,P|438:189|497:240,2,160,0|0|0,0:0|0:0|0:0,0:0:0:0:
266,177,4997,1,0,0:0:0:0:
242,84,5296,1,0,0:0:0:0:
431,117,5896,6,0,P|467:186|448:262,1,160,0|0,0:0|0:0,0:0:0:0:
357,293,6795,1,0,0:0:0:0:
261,302,7095,2,0,P|207:244|204:166,1,160,0|0,0:0|0:0,0:0:0:0:
133,101,7994,1,0,0:0:0:0:
43,135,8294,6,0,L|36:214,1,80,0|0,0:0|0:0,0:0:0:0:
111,274,8894,2,0,L|117:353,1,80,0|0,0:0|0:0,0:0:0:0:
256,192,9343,12,0,10692,0:0:0:0:
357,303,11742,6,0,P|394:258|396:199,1,120,4|8,0:0|0:0,0:0:0:0:
341,120,12491,1,8,0:0:0:0:
245,132,12791,1,8,0:0:0:0:
173,67,13091,2,0,L|93:78,1,80,12|8,0:0|0:0,0:0:0:0:
49,164,13690,2,0,L|9:170,2,40,8|0|8,0:0|0:0|0:0,0:0:0:0:
96,173,14140,6,0,P|128:221|118:279,1,120,4|8,0:0|0:0,0:0:0:0:
96,373,14889,1,8,0:0:0:0:
26,306,15189,1,8,0:0:0:0:
118,279,15489,2,0,L|197:273,1,80,12|8,0:0|0:0,0:0:0:0:
289,302,16088,2,0,P|294:263|281:225,1,80,0|0,0:0|0:0,0:0:0:0:
249,190,16538,6,0,L|271:72,1,120,14|10,0:0|0:0,0:0:0:0:
363,46,17287,1,10,0:0:0:0:
437,106,17587,1,10,0:0:0:0:
397,193,17887,2,0,P|363:171|345:136,1,80,2|10,0:0|0:0,0:0:0:0:
271,72,18486,2,0,P|231:73|198:95,1,80,10|8,0:0|0:0,0:0:0:0:
171,135,18936,6,0,P|122:167|63:169,1,120,14|10,0:0|0:0,0:0:0:0:
0,97,19686,1,10,0:0:0:0:
94,78,19985,1,10,0:0:0:0:
171,135,20285,2,0,P|177:174|168:212,1,80,2|10,0:0|0:0,0:0:0:0:
87,264,20885,2,0,L|83:303,1,40,8|12,0:0|0:0,0:0:0:0:
157,364,21334,6,0,B|197:379|197:379|273:369,1,120,4|8,0:0|0:0,0:0:0:0:
319,284,22084,2,0,L|323:204,1,80,8|0,1:0|1:0,0:0:0:0:
382,129,22683,2,0,P|420:121|459:131,1,80,0|8,0:0|0:0,0:0:0:0:
420,219,23283,2,0,L|425:258,2,40,10|8|8,0:0|0:0|0:0,0:0:0:0:
370,213,23733,6,0,P|318:188|297:133,1,120,12|8,0:0|0:0,0:0:0:0:
323,41,24482,2,0,L|243:53,1,80,8|0,0:0|0:0,0:0:0:0:
201,27,24932,2,0,P|144:12|87:27,1,120,8|8,0:0|0:0,0:0:0:0:
46,54,25531,2,0,P|56:92|48:131,1,80,0|10,0:0|0:0,0:0:0:0:
3,216,26131,6,0,P|60:227|113:201,1,120,4|8,0:0|0:0,0:0:0:0:
194,148,26880,2,0,P|233:142|272:149,1,80,0|8,0:0|0:0,0:0:0:0:
311,178,27330,2,0,L|326:59,1,120,8|8,0:0|0:0,0:0:0:0:
419,39,28079,2,0,L|424:-1,2,40,0|0|0,0:0|0:0|0:0,0:0:0:0:
406,134,28679,6,0,L|394:213,1,80,12|0,0:0|0:0,0:0:0:0:
316,269,29278,2,0,P|278:263|242:280,1,80,8|0,0:0|0:0,0:0:0:0:
205,311,29728,2,0,L|188:192,1,120,10|0,0:0|0:0,0:0:0:0:
181,144,30328,1,10,0:0:0:0:
256,85,30627,1,12,0:0:0:0:
348,109,30927,6,0,P|344:51|306:6,1,120,12|8,0:0|0:0,0:0:0:0:
208,5,31677,2,0,L|129:21,1,80,8|8,0:0|0:0,0:0:0:0:
100,58,32126,2,0,B|113:103|113:103|104:175,1,120,0|0,1:0|0:0,0:0:0:0:
92,271,32876,2,0,L|84:310,2,40,10|8|8,0:0|0:0|0:0,0:0:0:0:
134,249,33325,6,0,P|187:274|245:263,1,120,12|8,0:0|0:0,0:0:0:0:
323,206,34075,2,0,L|334:126,1,80,0|8,0:0|0:0,0:0:0:0:
317,81,34524,2,0,P|263:55|205:67,1,120,0|8,0:0|0:0,0:0:0:0:
174,104,35124,2,0,P|185:142|176:180,1,80,0|10,0:0|0:0,0:0:0:0:
86,147,35724,6,0,P|76:88|103:36,1,120,12|8,0:0|0:0,0:0:0:0:
196,18,36473,2,0,L|235:10,2,40,8|8|8,0:0|0:0|0:0,0:0:0:0:
188,65,36923,2,0,P|198:124|171:176,1,120,0|0,0:0|0:0,0:0:0:0:
143,214,37522,2,0,B|227:223|227:223|252:247,1,120,8|0,0:0|0:0,0:0:0:0:
249,343,38272,6,0,P|288:341|321:319,1,80,12|0,0:0|0:0,0:0:0:0:
348,226,38871,2,0,P|380:203|420:202,1,80,8|0,0:0|0:0,0:0:0:0:
462,224,39321,2,0,L|440:105,1,120,10|0,0:0|0:0,0:0:0:0:
359,54,40070,2,0,L|354:14,2,40,8|8|8,0:0|0:0|0:0,0:0:0:0:
289,121,40670,6,0,P|254:139|215:139,1,80,14|8,0:0|0:0,0:0:0:0:
125,101,41269,2,0,P|85:100|50:119,1,80,10|0,0:0|0:0,0:0:0:0:
23,158,41719,1,10,0:0:0:0:
110,198,42019,2,0,L|102:277,1,80,10|8,0:0|0:0,0:0:0:0:
127,318,42468,2,0,P|164:330|204:326,1,80,0|10,0:0|0:0,0:0:0:0:
280,267,43068,6,0,L|286:187,1,80,14|8,0:0|0:0,0:0:0:0:
321,154,43518,2,0,P|358:141|398:145,1,80,10|8,0:0|0:0,0:0:0:0:
471,206,44117,2,0,L|467:285,1,80,10|10,0:0|0:0,0:0:0:0:
386,336,44717,1,8,0:0:0:0:
343,360,44867,2,0,P|304:360|267:346,1,80,8|14,0:0|0:0,0:0:0:0:
174,371,45466,6,0,P|173:331|187:294,1,80,12|8,0:0|0:0,0:0:0:0:
224,263,45916,2,0,P|238:225|237:186,1,80,10|8,0:0|0:0,0:0:0:0:
188,102,46515,2,0,L|108:92,1,80,10|8,0:0|0:0,0:0:0:0:
26,143,47115,1,10,0:0:0:0:
7,187,47265,2,0,P|1:226|4:265,1,80,8|10,0:0|0:0,0:0:0:0:
80,324,47864,6,0,L|159:319,1,80,14|8,0:0|0:0,0:0:0:0:
208,319,48314,2,0,L|287:323,1,80,10|8,0:0|0:0,0:0:0:0:
380,296,48914,2,0,P|404:265|408:226,1,80,10|10,0:0|0:0,0:0:0:0:
385,138,49513,1,0,0:0:0:0:
395,90,49663,2,0,P|419:59|456:44,1,80,8|0,0:0|3:0,0:0:0:0:
480,137,50263,6,0,P|453:209|379:235,1,160,12|8,0:0|0:0,0:0:0:0:
302,177,51162,1,0,0:0:0:0:
306,81,51462,2,0,P|232:106|205:179,1,160,8|8,0:0|0:0,0:0:0:0:
256,260,52361,1,0,0:0:0:0:
215,346,52661,6,0,B|168:379|168:379|105:375,2,120,12|0|0,0:0|0:0|0:0,0:0:0:0:
310,336,53860,2,0,P|347:269|323:195,1,160,8|8,0:0|0:0,0:0:0:0:
234,157,54759,1,0,0:3:0:0:
143,121,55059,6,0,P|146:198|205:249,1,160,8|8,0:0|0:0,0:0:0:0:
234,157,55958,1,8,0:0:0:0:
262,65,56258,2,0,L|341:59,1,80,0|8,1:0|0:0,0:0:0:0:
400,136,56858,2,0,L|320:141,1,80,12|8,0:0|1:2,0:0:0:0:
293,233,57457,6,0,P|295:272|310:309,1,80,12|0,1:2|0:0,0:0:0:0:
398,345,58057,2,0,L|476:330,1,80,0|8,0:0|0:0,0:0:0:0:
420,251,58656,2,0,B|431:167|341:123|341:123|242:117|202:211,1,320,8|12,0:0|0:0,0:0:0:0:
256,192,60005,12,12,61055,0:0:0:0:
138,322,62104,6,0,L|147:202,1,120,12|10,0:0|0:0,0:0:0:0:
154,106,62853,2,0,L|118:87,2,40,8|2|10,0:0|0:0|0:0,0:0:0:0:
199,121,63303,2,0,L|314:89,1,120,14|10,0:0|0:0,0:0:0:0:
400,131,64052,2,0,P|408:169|401:208,1,80,0|10,0:0|0:0,0:0:0:0:
373,249,64502,6,0,L|245:262,1,120,14|10,0:0|0:0,0:0:0:0:
164,297,65251,2,0,P|158:258|167:220,1,80,12|8,0:0|0:0,0:0:0:0:
198,182,65701,2,0,L|78:173,1,120,14|10,0:0|0:0,0:0:0:0:
26,254,66450,2,0,L|24:293,1,40,8|8,0:0|0:0,0:0:0:0:
97,356,66900,6,0,P|145:389|211:380,1,120,14|10,0:0|0:0,0:0:0:0:
260,305,67650,2,0,L|265:225,1,80,8|10,0:0|0:0,0:0:0:0:
303,196,68099,2,0,P|361:187|416:208,1,120,14|10,0:0|0:0,0:0:0:0:
479,134,68849,2,0,P|458:100|454:60,1,80,8|10,0:0|0:0,0:0:0:0:
417,29,69298,6,0,P|358:31|302:52,1,120,14|10,0:0|0:0,0:0:0:0:
221,105,70048,1,8,0:0:0:0:
128,77,70348,1,10,0:0:0:0:
87,102,70497,2,0,P|85:161|64:217,1,120,14|10,0:0|0:0,0:0:0:0:
94,308,71247,2,0,L|85:347,2,40,10|14|0,0:0|0:0|0:0,0:0:0:0:
128,273,71697,6,0,P|181:247|240:248,1,120,14|10,0:0|0:0,0:0:0:0:
327,289,72446,2,0,P|336:272|327:209,1,80,8|10,0:0|0:0,0:0:0:0:
304,172,72896,2,0,L|327:52,1,120,14|10,0:0|0:0,0:0:0:0:
232,75,73645,2,0,L|224:114,2,40,0|0|10,0:0|0:0|0:0,0:0:0:0:
192,45,74095,6,0,P|152:87|154:146,1,120,14|10,0:0|0:0,0:0:0:0:
226,209,74844,2,0,P|231:248|216:284,1,80,8|10,0:0|0:0,0:0:0:0:
184,320,75294,2,0,L|303:308,1,120,14|10,0:0|0:0,0:0:0:0:
371,240,76043,2,0,L|410:236,2,40,8|0|8,0:0|0:0|0:0,0:0:0:0:
330,213,76493,6,0,L|341:93,1,120,14|10,0:0|0:0,0:0:0:0:
269,30,77242,2,0,P|248:63|243:102,1,80,8|8,0:0|0:0,0:0:0:0:
182,177,77842,2,0,L|102:165,1,80,0|10,0:0|0:0,0:0:0:0:
39,237,78441,2,0,L|0:232,2,40,8|12|0,0:0|0:0|0:0,0:0:0:0:
70,273,78891,6,8,B|114:280|114:280|149:267|149:267|186:271,1,120,14|10,0:0|0:0,0:0:0:0:
265,327,79641,2,0,L|260:366,2,40,8|8|0,0:0|0:0|0:0,0:0:0:0:
352,287,80240,2,0,B|450:299|450:299|470:292,2,120,12|0|0,0:0|0:0|0:0,0:0:0:0:
327,245,81289,6,0,P|336:187|309:135,1,120,12|8,0:0|0:0,0:0:0:0:
241,203,82038,1,8,0:0:0:0:
160,151,82338,1,8,0:0:0:0:
97,224,82638,2,0,L|108:304,1,80,12|8,0:0|0:0,0:0:0:0:
198,334,83238,2,0,L|203:373,2,40,8|0|0,0:0|0:0|0:0,0:0:0:0:
226,294,83687,6,0,P|274:262|332:272,1,120,12|8,0:0|0:0,0:0:0:0:
412,219,84436,1,8,0:0:0:0:
351,144,84736,1,8,0:0:0:0:
432,92,85036,2,0,L|511:86,1,80,12|8,0:0|0:0,0:0:0:0:
458,6,85636,2,0,P|419:1|380:17,1,80,8|0,0:0|0:0,0:0:0:0:
346,48,86086,5,12,0:0:0:0:
256,192,86236,12,0,88484,0:0:0:0:
