osu file format v14

[General]
AudioFilename: get ya head in the game.mp3
AudioLeadIn: 0
PreviewTime: 61234
Countdown: 0
SampleSet: Soft
StackLeniency: 0.7
Mode: 0
LetterboxInBreaks: 0
WidescreenStoryboard: 0

[Editor]
Bookmarks: 11742,21334,30927,40670
DistanceSpacing: 1.1
BeatDivisor: 2
GridSize: 4
TimelineZoom: 1

[Metadata]
Title:Hengen Jizai no Magical Star (TV Size)
TitleUnicode:変幻自在のマジカルスタ (TV Size)
Artist:GRANRODEO
ArtistUnicode:GRANRODEO
Creator:Xexxar
Version:N/A's Easy
Source:黒子のバスケ
Tags:OP Opening Japanese 2moe4u Kuroko no Basket 2 Basuke Basketball dunking moe
BeatmapID:819552
BeatmapSetID:156331

[Difficulty]
HPDrainRate:3
CircleSize:3
OverallDifficulty:3
ApproachRate:3
SliderMultiplier:0.75
SliderTickRate:1

[Events]
//Background and Video events
0,0,"kuroko_no_basket_wall_2_by_naruble-d5yu5zl.jpg",0,0
Video,0,"video knb 2 osu.avi"
//Break Periods
//Storyboard Layer 0 (Background)
//Storyboard Layer 1 (Fail)
//Storyboard Layer 2 (Pass)
//Storyboard Layer 3 (Foreground)
//Storyboard Sound Samples

[TimingPoints]
1100,299.775168623532,4,2,0,75,1,0
11742,299.775168623532,4,2,0,75,1,0
62104,-100,4,2,0,75,0,1
71397,-100,4,2,0,75,0,0
71697,-100,4,2,0,75,0,1
80240,-100,4,2,0,75,0,0
88634,-100,4,2,0,5,0,0

[Colours]
Combo1 : 244,0,0
Combo2 : 128,128,255
Combo3 : 255,128,64
Combo4 : 196,54,6

[HitObjects]
383,77,1100,6,0,B|421:88|421:88|504:79,2,112.5
325,17,2299,2,0,P|341:86|305:160,1,150
228,171,3198,1,0,0:0:0:0:
146,158,3498,6,0,B|125:307,1,150
67,366,4397,2,0,P|153:330|283:371,1,225,0|0,0:0|0:0,0:0:0:0:
342,317,5596,1,0,0:0:0:0:
396,254,5896,6,0,P|417:286|386:387,1,150,0|0,0:0|0:0,0:0:0:0:
271,266,7095,2,0,P|250:234|281:133,1,150,0|0,0:0|0:0,0:0:0:0:
376,58,8144,2,0,L|367:182,1,112.5,0|0,0:0|0:0,0:0:0:0:
256,192,8894,12,0,10542,0:0:0:0:
96,93,11742,6,0,B|145:108|145:108|223:100,1,112.5,4|8,0:0|0:0,0:0:0:0:
278,61,12491,2,0,L|363:75,1,75,8|8,0:0|0:0,0:0:0:0:
433,60,13091,1,12,0:0:0:0:
471,132,13390,1,8,0:0:0:0:
444,210,13690,2,0,P|454:266|428:334,1,112.5,8|4,0:0|0:0,0:0:0:0:
315,335,14589,6,0,L|237:349,2,75,8|8|8,0:0|0:0|0:0,0:0:0:0:
350,260,15489,2,0,P|343:218|312:183,1,75,12|8,0:0|0:0,0:0:0:0:
273,127,16088,2,0,L|131:140,1,112.5,0|14,0:0|0:0,0:0:0:0:
50,192,16988,5,10,0:0:0:0:
107,250,17287,2,0,L|201:243,1,75,10|10,0:0|0:0,0:0:0:0:
250,197,17887,2,0,P|264:235|245:293,1,75,2|10,0:0|0:0,0:0:0:0:
220,341,18486,2,0,B|259:334|259:334|293:345|293:345|329:338,1,112.5,10|14,0:0|0:0,0:0:0:0:
427,261,19386,6,0,P|431:306|416:345,2,75,10|10|10,0:0|0:0|0:0,0:0:0:0:
439,179,20285,1,2,0:0:0:0:
360,154,20585,1,10,0:0:0:0:
281,179,20885,2,0,B|244:190|244:190|165:176,1,112.5,8|4,0:0|0:0,0:0:0:0:
64,113,21784,5,8,0:0:0:0:
57,195,22084,2,0,B|45:231|45:231|48:268|48:268|35:303,2,112.5,8|8|8,1:0|0:0|0:0,0:0:0:0:
125,241,23283,2,0,P|178:230|245:260,1,112.5,10|12,0:0|0:0,0:0:0:0:
311,343,24182,6,0,L|408:357,1,75,8|8,0:0|0:0,0:0:0:0:
462,324,24782,1,0,0:0:0:0:
406,263,25082,2,0,P|389:226|408:147,1,112.5,0|0,0:0|0:0,0:0:0:0:
465,106,25831,2,0,L|432:8,1,75,10|4,0:0|0:0,0:0:0:0:
317,45,26580,6,0,L|309:125,1,75,8|0,0:0|0:0,0:0:0:0:
268,191,27180,1,8,0:0:0:0:
185,181,27480,2,0,B|148:188|148:188|111:178|111:178|75:185,2,112.5,0|8|0,0:0|0:0|0:0,0:0:0:0:
226,109,28679,6,0,P|205:61|101:42,1,150,12|8,0:0|0:0,0:0:0:0:
51,86,29578,1,0,0:0:0:0:
72,165,29878,2,0,L|42:289,1,112.5,8|10,0:0|0:0,0:0:0:0:
116,316,30627,2,0,L|136:236,1,75,12|12,0:0|0:0,0:0:0:0:
248,195,31377,5,8,0:0:0:0:
311,247,31677,2,0,P|296:298|326:360,2,112.5,8|0|0,0:0|1:0|0:0,0:0:0:0:
377,296,32876,2,0,L|496:283,1,112.5,10|12,0:0|0:0,0:0:0:0:
496,160,33775,6,0,P|463:108|457:78,1,75,8|0,0:0|0:0,0:0:0:0:
396,41,34375,1,8,0:0:0:0:
355,112,34674,2,0,L|231:124,1,112.5,0|0,0:0|0:0,0:0:0:0:
180,68,35424,2,0,L|101:55,1,75,10|12,0:0|0:0,0:0:0:0:
32,162,36173,6,0,L|54:248,1,75,8|8,0:0|0:0,0:0:0:0:
83,310,36773,1,8,0:0:0:0:
165,304,37073,2,0,B|202:319|202:319|288:317,2,112.5,0|8|0,0:0|0:0|0:0,0:0:0:0:
132,228,38272,6,0,P|122:171|181:108,1,150,12|8,0:0|0:0,0:0:0:0:
256,141,39171,1,0,0:0:0:0:
318,86,39471,2,0,B|392:103|392:103|483:86,1,150,8|8,0:0|0:0,0:0:0:0:
493,166,40370,1,8,0:0:0:0:
429,218,40670,6,0,P|448:265|409:356,1,150,14|10,0:0|0:0,0:0:0:0:
291,327,41719,2,0,L|172:349,1,112.5,10|0,0:0|0:0,0:0:0:0:
144,272,42468,2,0,L|217:258,1,75,0|10,0:0|0:0,0:0:0:0:
269,193,43068,6,0,P|279:140|237:68,1,112.5,14|10,0:0|0:0,0:0:0:0:
195,32,43817,1,8,0:0:0:0:
133,87,44117,2,0,L|14:74,1,112.5,10|0,0:0|0:0,0:0:0:0:
29,157,44867,2,0,L|103:165,1,75,8|14,0:0|0:0,0:0:0:0:
162,223,45466,6,0,P|221:199|294:217,1,112.5,12|10,0:0|0:0,0:0:0:0:
322,267,46216,1,8,0:0:0:0:
359,340,46515,2,0,L|497:336,1,112.5,10|0,0:0|0:0,0:0:0:0:
488,255,47265,2,0,L|413:257,1,75,8|10,0:0|0:0,0:0:0:0:
379,181,47864,6,0,P|365:123|306:83,1,112.5,14|10,0:0|0:0,0:0:0:0:
244,103,48614,1,8,0:0:0:0:
170,66,48914,2,0,L|35:68,1,112.5,10|8,0:0|0:0,0:0:0:0:
8,134,49663,1,8,0:0:0:0:
2,217,49963,1,0,3:0:0:0:
33,294,50263,6,0,P|77:272|177:307,1,150,12|8,0:0|0:0,0:0:0:0:
226,239,51162,1,0,0:0:0:0:
249,318,51462,2,0,P|316:346|385:322,1,150,8|8,0:0|0:0,0:0:0:0:
383,238,52361,1,0,0:0:0:0:
456,276,52661,6,0,P|432:225|459:140,1,150,12|8,0:0|0:0,0:0:0:0:
425,64,53560,1,0,0:0:0:0:
361,116,53860,2,0,L|212:108,1,150,8|8,0:0|0:0,0:0:0:0:
158,44,54759,1,0,0:3:0:0:
103,106,55059,6,0,L|119:202,1,75,8|8,0:0|0:0,0:0:0:0:
48,228,55659,2,0,L|32:324,1,75,8|8,0:0|0:0,0:0:0:0:
104,347,56258,2,0,P|157:335|197:348,1,75,0|8,1:0|0:0,0:0:0:0:
248,297,56858,2,0,P|301:309|341:296,1,75,12|8,0:0|1:2,0:0:0:0:
256,192,57457,12,12,59855,0:0:0:0:
185,40,61354,5,0,3:0:0:0:
208,118,61654,2,2,P|262:105|317:113,1,112.5,0|12,3:0|0:0,0:0:0:0:
399,101,62404,6,0,L|383:245,1,112.5,0|8,0:0|0:0,0:0:0:0:
427,284,63153,1,10,0:0:0:0:
370,344,63453,2,0,L|291:326,1,75,0|10,0:0|0:0,0:0:0:0:
260,253,64052,2,0,P|243:310|188:350,1,112.5,0|14,0:0|0:0,0:0:0:0:
82,320,64952,6,0,L|65:232,1,75,10|12,0:0|0:0,0:0:0:0:
18,180,65551,2,0,P|63:203|157:175,1,150,8|10,0:0|0:0,0:0:0:0:
216,122,66450,2,0,L|345:130,1,112.5,8|14,0:0|0:0,0:0:0:0:
409,35,67350,5,10,0:0:0:0:
471,88,67650,2,0,B|494:140|494:140|495:215,2,112.5,8|14|10,0:0|0:0|0:0,0:0:0:0:
392,113,68849,2,0,P|374:166|376:234,1,112.5,8|14,0:0|0:0,0:0:0:0:
434,278,69598,6,0,P|362:259|291:280,1,150,8|0,0:0|0:0,0:0:0:0:
232,338,70497,2,0,L|102:330,1,112.5,14|10,0:0|0:0,0:0:0:0:
56,278,71247,1,10,0:0:0:0:
27,157,71697,6,0,L|151:168,1,112.5,14|10,0:0|0:0,0:0:0:0:
199,222,72446,2,0,P|186:158|233:97,2,112.5,8|14|10,0:0|0:0|0:0,0:0:0:0:
266,175,73645,1,0,0:0:0:0:
384,139,74095,6,0,L|362:12,1,112.5,14|10,0:0|0:0,0:0:0:0:
284,46,74844,2,0,P|210:63|152:28,1,112.5,8|12,0:0|0:0,0:0:0:0:
61,33,75744,1,10,0:0:0:0:
30,109,76043,2,0,L|40:229,1,112.5,8|14,0:0|0:0,0:0:0:0:
136,298,76943,6,0,L|104:374,2,75,10|8|0,0:0|0:0|0:0,0:0:0:0:
204,252,77842,2,0,P|246:271|294:259,1,75,8|10,0:0|0:0,0:0:0:0:
340,219,78441,2,0,L|455:231,1,112.5,8|14,0:0|0:0,0:0:0:0:
487,111,79341,6,0,L|395:120,1,75,10|8,0:0|0:0,0:0:0:0:
335,88,79940,1,0,0:0:0:0:
265,133,80240,2,0,P|130:160|77:64,1,262.5,12|12,0:0|0:0,0:0:0:0:
188,12,81739,6,0,L|288:29,2,75,8|8|8,0:0|0:0|0:0,0:0:0:0:
173,93,82638,2,0,P|177:137|169:193,1,75,12|8,0:0|0:0,0:0:0:0:
131,238,83238,2,0,P|199:256|255:254,1,112.5,8|12,0:0|0:0,0:0:0:0:
364,244,84137,5,8,0:0:0:0:
386,164,84437,2,0,P|410:134|477:125,1,75,8|8,0:0|0:0,0:0:0:0:
457,203,85037,2,0,L|433:304,1,75,12|8,0:0|0:0,0:0:0:0:
379,332,85636,2,0,P|323:331|271:309,1,112.5,8|12,0:0|0:0,0:0:0:0:
256,192,86236,12,0,88634,0:0:0:0:
