osu file format v14

[General]
AudioFilename: get ya head in the game.mp3
AudioLeadIn: 0
PreviewTime: 61234
Countdown: 0
SampleSet: Soft
StackLeniency: 0.3
Mode: 0
LetterboxInBreaks: 1
WidescreenStoryboard: 1

[Editor]
Bookmarks: 32126,50263
DistanceSpacing: 2
BeatDivisor: 4
GridSize: 4
TimelineZoom: 1.5

[Metadata]
Title:Hengen Jizai no Magical Star (TV Size)
TitleUnicode:変幻自在のマジカルスタ (TV Size)
Artist:GRANRODEO
ArtistUnicode:GRANRODEO
Creator:Xexxar
Version:Makyu's Hyper
Source:黒子のバスケ
Tags:OP Opening Japanese 2moe4u Kuroko no Basket 2 Basuke Basketball dunking moe
BeatmapID:819539
BeatmapSetID:156331

[Difficulty]
HPDrainRate:5
CircleSize:4
OverallDifficulty:7.2
ApproachRate:8.8
SliderMultiplier:1.4
SliderTickRate:1

[Events]
//Background and Video events
0,0,"kuroko_no_basket_wall_2_by_naruble-d5yu5zl.jpg",0,0
//Break Periods
//Storyboard Layer 0 (Background)
//Storyboard Layer 1 (Fail)
//Storyboard Layer 2 (Pass)
//Storyboard Layer 3 (Foreground)
//Storyboard Sound Samples

[TimingPoints]
1100,299.775168623532,4,2,0,100,1,0
1100,-166.666666666667,4,2,0,40,0,0
11742,299.775168623532,4,2,0,40,1,0
11742,-133.333333333333,4,2,0,50,0,0
16538,-100,4,2,0,65,0,0
50263,-133.333333333333,4,2,0,40,0,0
62104,-90.9090909090909,4,2,0,80,0,1
71397,-90.9090909090909,4,2,0,80,0,0
71697,-90.9090909090909,4,2,0,80,0,1
80240,-90.9090909090909,4,2,0,80,0,0
81289,-133.333333333333,4,2,0,45,0,0
88634,-133.333333333333,4,2,0,5,0,0

[Colours]
Combo1 : 244,0,0
Combo2 : 128,128,255
Combo3 : 255,128,64
Combo4 : 196,54,6

[HitObjects]
413,354,1100,6,0,L|423:257,1,83.9999974365235,2|0,0:0|0:0,0:0:0:0:
373,200,1549,2,0,P|390:185|426:180,1,41.9999987182618,2|0,0:0|0:0,0:0:0:0:
298,152,1849,2,0,P|281:167|245:172,1,41.9999987182618
203,113,2149,1,2,0:0:0:0:
161,180,2299,6,0,L|148:269,1,83.9999974365235,2|0,0:0|0:0,0:0:0:0:
68,290,2748,2,0,P|96:334|132:345,1,83.9999974365235,2|0,0:0|0:0,0:0:0:0:
204,318,3198,1,0,0:0:0:0:
278,356,3348,1,0,0:0:0:0:
335,208,3498,6,0,L|337:296,1,83.9999974365235,2|0,0:0|0:0,0:0:0:0:
250,194,3947,2,0,P|260:150|302:131,1,83.9999974365235,2|0,0:0|0:0,0:0:0:0:
375,118,4397,1,0,0:0:0:0:
415,191,4547,1,0,0:0:0:0:
378,32,4697,6,0,L|280:43,1,83.9999974365235,2|0,0:0|0:0,0:0:0:0:
222,84,5146,2,0,P|205:42|232:-1,1,83.9999974365235,2|0,0:0|0:0,0:0:0:0:
297,143,5596,1,0,0:0:0:0:
284,226,5746,1,0,0:0:0:0:
171,354,5896,6,0,L|180:255,1,83.9999974365235,2|0,0:0|0:0,0:0:0:0:
72,241,6346,2,0,L|63:142,1,83.9999974365235,2|0,0:0|0:0,0:0:0:0:
116,91,6795,1,0,0:0:0:0:
32,80,6945,1,0,0:0:0:0:
212,11,7095,6,0,P|253:31|270:74,1,83.9999974365235,2|0,0:0|0:0,0:0:0:0:
230,158,7545,1,2,0:0:0:0:
338,343,7844,5,0,0:0:0:0:
338,258,7994,1,0,0:0:0:0:
340,173,8144,1,0,0:0:0:0:
293,103,8294,6,0,P|330:86|376:97,1,83.9999974365235,2|0,0:0|0:0,0:0:0:0:
340,173,8744,2,0,P|303:190|257:179,1,83.9999974365235,2|0,0:0|0:0,0:0:0:0:
137,105,9193,1,0,0:0:0:0:
73,160,9343,1,0,0:0:0:0:
102,238,9493,1,2,0:0:0:0:
362,352,11742,6,0,B|360:320|360:320|369:276|369:276|365:240,1,105.000004005432,4|0,1:0|0:0,0:0:0:0:
341,167,12191,1,0,1:0:0:0:
66,35,12491,6,0,L|64:93,1,52.5000020027161,0|0,1:0|0:0,0:0:0:0:
184,199,12791,2,0,L|185:132,1,52.5000020027161,0|0,1:0|0:0,0:0:0:0:
54,37,13090,2,0,L|52:95,1,52.5000020027161,4|0,1:2|0:0,0:0:0:0:
199,207,13390,2,0,L|200:140,1,52.5000020027161,0|0,1:0|0:0,0:0:0:0:
41,39,13690,2,0,L|39:97,1,52.5000020027161,0|0,1:0|0:0,0:0:0:0:
67,171,13990,1,0,1:0:0:0:
0,324,14140,6,0,P|53:298|108:332,1,105.000004005432,4|0,1:2|0:0,0:0:0:0:
301,311,14589,2,0,L|236:341,1,52.5000020027161,0|0,1:0|0:0,0:0:0:0:
199,134,14889,2,0,L|270:105,1,52.5000020027161,0|0,1:0|0:0,0:0:0:0:
189,249,15189,2,0,L|129:275,1,52.5000020027161,0|0,1:0|0:0,0:0:0:0:
227,19,15489,2,0,L|298:-10,1,52.5000020027161,4|0,1:2|0:0,0:0:0:0:
339,54,15788,5,0,1:0:0:0:
419,30,15938,1,0,0:0:0:0:
492,70,16088,1,0,1:0:0:0:
455,145,16238,5,0,0:0:0:0:
434,181,16313,1,0,0:0:0:0:
428,222,16388,1,0,0:0:0:0:
432,263,16463,1,0,0:0:0:0:
468,305,16538,6,0,B|414:295|414:295|367:304|367:304|305:298,1,140,4|0,0:0|0:0,0:0:0:0:
223,335,16988,1,0,1:0:0:0:
112,315,17137,2,0,L|119:237,1,70
41,162,17437,2,0,L|48:84,1,70,0|0,0:0|1:0,0:0:0:0:
146,38,17737,1,0,0:0:0:0:
315,43,17887,6,0,P|310:85|286:111,1,70
370,188,18187,2,0,P|336:214|301:215,1,70,0|0,1:0|0:0,0:0:0:0:
288,328,18486,2,0,P|245:323|220:299,1,70
211,194,18786,1,0,1:0:0:0:
154,97,18936,6,0,L|147:247,1,140,4|0,1:0|0:0,0:0:0:0:
288,328,19386,6,0,P|319:274|268:209,2,140,0|0|0,1:0|0:0|1:0,0:0:0:0:
192,267,20135,1,0,0:0:0:0:
122,178,20285,6,0,P|82:195|32:192,1,70
149,46,20585,2,0,P|188:28|239:32,1,70,0|0,1:0|0:0,0:0:0:0:
359,149,20885,5,0,1:0:0:0:
220,156,21035,1,0,1:0:0:0:
390,78,21334,6,0,P|432:121|404:212,1,140,4|0,1:0|0:0,0:0:0:0:
318,240,21784,2,0,P|318:283|340:317,1,70,2|0,0:0|0:0,0:0:0:0:
438,272,22084,1,2,0:0:0:0:
222,344,22234,2,0,P|253:374|292:382,1,70,0|0,0:0|1:0,0:0:0:0:
194,251,22533,6,0,L|46:263,1,140,2|0,0:0|0:0,0:0:0:0:
97,95,22983,1,0,1:0:0:0:
186,135,23133,1,0,0:0:0:0:
358,49,23283,6,0,L|281:54,2,70,0|2|0,0:0|0:0|0:0,0:0:0:0:
332,242,23733,2,0,B|286:240|286:240|242:251|242:251|176:250,1,140,4|0,0:1|0:0,0:0:0:0:
400,140,24182,1,0,1:0:0:0:
488,180,24332,2,0,L|465:231,2,35
512,293,24632,2,0,L|482:368,1,70,0|0,0:0|1:0,0:0:0:0:
332,379,24932,6,0,P|316:341|323:302,1,70,2|0,0:0|0:0,0:0:0:0:
225,282,25231,2,0,P|240:244|273:221,1,70,2|0,0:0|1:0,0:0:0:0:
214,139,25531,2,0,P|251:123|291:130,1,70,2|0,0:0|0:0,0:0:0:0:
512,128,25831,5,2,0:0:0:0:
415,145,25981,1,0,0:0:0:0:
362,43,26131,6,0,B|352:76|352:76|362:132|362:132|343:194,1,140,2|0,0:0|0:0,0:0:0:0:
435,341,26580,2,0,L|431:258,2,70,0|0|0,1:0|0:0|0:0,0:0:0:0:
323,230,27030,2,0,L|318:133,1,70,0|0,0:0|1:0,0:0:0:0:
196,44,27330,6,0,P|184:78|194:132,1,70,2|0,0:0|0:0,0:0:0:0:
56,212,27630,2,0,P|67:177|58:124,1,70,2|0,0:0|1:0,0:0:0:0:
212,74,27929,2,0,P|200:108|210:162,1,70,2|0,0:0|0:0,0:0:0:0:
46,175,28229,2,0,P|57:140|48:87,1,70,2|0,0:0|1:0,0:0:0:0:
153,214,28529,6,0,L|142:357,1,140,4|0,0:0|0:0,0:0:0:0:
272,242,28979,2,0,L|270:156,1,70
381,38,29278,2,0,L|370:181,1,140,2|0,0:0|0:0,0:0:0:0:
487,73,29728,2,0,L|485:-13,2,70,0|2|0,0:0|0:0|0:0,0:0:0:0:
423,327,30178,1,0,0:0:0:0:
334,284,30328,1,2,0:0:0:0:
239,309,30477,1,0,1:0:0:0:
171,147,30627,5,0,0:0:0:0:
40,313,30927,1,0,0:0:0:0:
40,313,31227,5,0,0:0:0:0:
43,214,31377,2,0,P|86:210|121:240,1,70,2|0,0:0|0:0,0:0:0:0:
171,147,31677,2,0,P|204:174|207:220,1,70,2|0,0:0|0:0,0:0:0:0:
172,289,31976,1,0,1:0:0:0:
356,278,32126,5,0,0:0:0:0:
408,171,32276,2,0,L|384:220,2,35
277,249,32576,2,0,L|315:170,1,70,0|0,1:0|0:0,0:0:0:0:
175,107,32876,5,2,0:0:0:0:
196,202,33026,1,2,0:0:0:0:
104,169,33175,1,0,0:0:0:0:
271,76,33325,6,0,B|316:83|316:83|367:75|367:75|416:86,1,140,4|0,0:0|0:0,0:0:0:0:
373,176,33775,1,0,0:0:0:0:
290,250,33925,2,0,L|284:197,2,35
195,353,34225,2,0,L|190:281,1,70,0|0,0:0|1:0,0:0:0:0:
171,147,34524,6,0,P|129:130|93:141,1,70,2|0,0:0|0:0,0:0:0:0:
274,102,34824,2,0,P|256:61|223:42,1,70,2|0,0:0|0:0,0:0:0:0:
373,176,35124,2,0,P|389:134|379:98,1,70,2|0,0:0|0:0,0:3:0:0:
263,198,35424,1,2,0:0:0:0:
433,282,35574,1,0,0:0:0:0:
335,295,35724,6,0,B|293:288|293:288|184:324,1,140,4|0,0:0|0:0,0:0:0:0:
69,200,36173,6,0,P|107:131|60:64,1,140,2|0,0:0|0:0,0:0:0:0:
148,273,36623,2,0,L|137:365,1,70,2|0,0:0|0:0,0:0:0:0:
259,279,36923,2,0,L|252:129,2,140,2|0|2,0:0|0:0|0:0,0:0:0:0:
160,85,37672,2,0,P|178:55|223:48,1,70,2|0,0:0|0:0,0:0:0:0:
400,103,37972,1,2,0:0:0:0:
422,264,38122,5,0,0:0:0:0:
351,336,38272,2,0,B|298:333|298:333|258:343|258:343|191:336,1,140,4|0,0:0|1:0,0:0:0:0:
173,247,38721,2,0,P|141:262|121:308,2,70,0|2|0,0:0|0:0|0:0,0:0:0:0:
404,262,39171,1,0,1:0:0:0:
215,158,39321,2,0,P|181:145|135:164,2,70,0|2|0,0:0|0:0|0:0,0:0:0:0:
475,205,39770,6,0,L|467:133,1,70,0|2,1:0|0:0,0:0:0:0:
323,29,40070,2,0,L|330:98,1,70,2|0,0:0|0:0,0:0:0:0:
468,105,40370,5,0,1:0:0:0:
418,104,40445,1,0,1:0:0:0:
373,124,40520,1,0,1:0:0:0:
342,162,40595,1,0,1:0:0:0:
314,202,40670,6,0,B|329:158|329:158|301:54,1,140,4|0,0:1|0:0,0:0:0:0:
184,18,41119,2,0,L|170:102,1,70,0|2,0:0|0:0,0:0:0:0:
92,144,41419,1,0,0:0:0:0:
138,302,41569,5,0,1:0:0:0:
138,302,41719,2,0,P|100:292|59:320,1,70,0|0,1:0|0:0,0:0:0:0:
221,222,42019,1,2,0:0:0:0:
305,341,42169,2,0,L|296:255,1,70,0|0,1:0|0:0,0:0:0:0:
372,102,42468,2,0,B|377:151|377:151|403:202|403:202|408:249,1,140,2|0,0:0|1:0,0:0:0:0:
226,107,42918,1,0,0:0:0:0:
129,117,43068,6,0,L|243:12,1,140,4|0,0:1|1:0,0:0:0:0:
48,66,43518,2,0,P|33:98|40:146,1,70,2|0,0:0|0:0,0:0:0:0:
172,254,43817,2,0,P|186:221|180:174,1,70,2|0,0:0|1:0,0:0:0:0:
4,322,44117,6,0,L|161:346,1,140,0|0,1:0|0:0,0:0:0:0:
237,316,44567,1,2,1:2:0:0:
331,289,44717,1,0,0:0:0:0:
436,179,44867,6,0,L|419:330,1,140,2|0,0:0|0:0,0:0:0:0:
420,318,45466,6,0,P|482:298|523:350,1,140,4|0,0:1|1:0,0:0:0:0:
324,356,45916,2,0,L|332:279,1,70,2|0,0:0|0:0,0:0:0:0:
257,156,46216,2,0,L|249:233,1,70,0|0,0:0|1:0,0:0:0:0:
395,105,46515,2,0,P|356:40|267:26,1,140,2|0,0:0|0:0,0:0:0:0:
76,75,46965,5,0,1:0:0:0:
190,68,47115,2,0,P|190:28|166:-6,1,70,2|2,0:0|0:0,0:0:0:0:
76,75,47415,2,0,P|76:115|100:149,1,70,0|0,0:0|1:0,0:0:0:0:
212,270,47715,1,0,0:0:0:0:
255,346,47864,6,0,L|273:187,1,140,4|0,1:0|0:0,0:0:0:0:
138,296,48314,2,0,L|131:372,1,70,2|0,0:0|0:0,0:0:0:0:
376,238,48614,2,0,L|383:162,1,70,2|0,0:0|1:0,0:0:0:0:
374,21,48914,5,2,0:0:0:0:
291,72,49064,1,0,0:0:0:0:
196,44,49213,1,0,0:0:0:0:
102,74,49363,2,0,L|91:-1,1,70,0|2,1:0|0:0,0:0:0:0:
12,124,49663,6,0,L|38:274,1,140,2|0,0:0|0:0,0:0:0:0:
316,326,50263,6,0,L|319:211,1,105.000004005432,4|0,0:1|0:0,0:0:0:0:
408,96,50712,2,0,P|365:126|314:122,1,105.000004005432,2|0,0:0|0:0,0:0:0:0:
275,60,51162,1,2,0:0:0:0:
81,168,52061,6,0,L|68:277,1,105.000004005432
197,127,52661,2,0,B|173:113|173:113|144:77|144:77|106:62,1,105.000004005432,4|0,0:1|0:0,0:0:0:0:
306,65,53110,2,0,L|294:190,1,105.000004005432,2|0,0:0|0:0,0:0:0:0:
286,242,53560,1,2,0:0:0:0:
146,318,54759,6,0,L|143:196,1,105.000004005432,0|4,0:0|0:1,0:0:0:0:
232,11,55509,2,0,P|192:51|123:45,1,105.000004005432,2|0,0:0|0:0,0:0:0:0:
75,33,55958,1,2,0:0:0:0:
252,350,56558,5,2,0:0:0:0:
345,337,56858,1,2,0:0:0:0:
400,260,57157,1,2,0:0:0:0:
404,166,57457,6,0,P|348:144|344:93,1,105.000004005432,4|0,0:1|0:0,0:0:0:0:
234,41,57907,2,0,L|106:28,1,105.000004005432,2|0,0:0|0:0,0:0:0:0:
58,51,58357,1,2,0:0:0:0:
22,281,58656,1,2,0:0:0:0:
256,192,58731,12,4,59855,0:0:0:0:
393,70,61055,5,0,1:0:0:0:
393,70,62104,6,0,B|333:60|333:60|277:72|277:72|204:69,1,154.000004699707,4|0,0:0|0:0,0:0:0:0:
136,40,62553,2,0,P|120:82|137:135,1,77.0000023498536,0|0,1:0|0:0,0:0:0:0:
25,156,62853,2,0,P|43:196|92:222,1,77.0000023498536
327,201,63153,1,0,1:0:0:0:
220,213,63303,6,0,L|350:111,1,154.000004699707
485,101,63752,2,0,B|493:133|481:159|481:159|492:192|492:192|474:228|493:269,1,154.000004699707,0|0,1:0|0:0,0:0:0:0:
334,333,64202,2,0,P|374:319|426:349,1,77.0000023498536,2|0,0:0|1:0,0:0:0:0:
199,365,64502,2,0,L|220:208,1,154.000004699707,4|0,0:1|0:0,0:0:0:0:
131,94,64952,2,0,L|118:172,1,77.0000023498536,0|0,1:0|0:0,0:0:0:0:
295,95,65251,2,0,L|308:17,2,77.0000023498536,2|0|0,0:0|0:0|1:0,0:0:0:0:
453,307,65701,6,0,L|438:138,1,154.000004699707,4|0,0:1|0:0,0:0:0:0:
354,307,66151,2,0,P|348:340|366:385,1,77.0000023498536,0|0,1:0|0:0,0:0:0:0:
296,208,66450,2,0,P|268:227|249:271,1,77.0000023498536,2|0,0:0|0:0,3:0:0:0:
247,374,66750,1,0,1:0:0:0:
180,156,66900,6,0,L|190:-9,1,154.000004699707,4|0,0:1|0:0,0:0:0:0:
66,137,67350,2,0,L|73:220,1,77.0000023498536,0|0,1:0|0:0,0:0:0:0:
141,316,67650,1,2,0:0:0:0:
247,374,67799,1,0,0:0:0:0:
233,251,67949,1,0,1:0:0:0:
385,229,68099,6,0,P|359:164|419:114,1,154.000004699707,2|0,0:0|0:0,0:0:0:0:
385,229,68549,2,0,L|222:252,1,154.000004699707,0|0,1:0|0:0,0:0:0:0:
28,183,68999,2,0,L|120:174,1,77.0000023498536,2|0,0:0|1:0,0:0:0:0:
293,109,69298,6,0,B|265:95|230:101|230:101|204:85|204:85|174:94|136:77,1,154.000004699707,4|0,0:1|0:0,0:0:0:0:
104,6,69748,2,0,P|144:-5|202:17,1,77.0000023498536,0|0,1:0|0:0,0:0:0:0:
345,215,70048,2,0,P|308:225|270:219,1,77.0000023498536
293,109,70348,1,0,1:0:0:0:
416,162,70497,6,0,L|396:322,1,154.000004699707,0|0,0:0|1:0,0:0:0:0:
303,368,70947,1,0,1:0:0:0:
89,153,71247,5,0,1:0:0:0:
77,44,71397,1,2,0:0:0:0:
200,61,71547,1,2,0:0:0:0:
200,61,71697,6,0,L|365:75,1,154.000004699707,4|0,0:1|0:0,0:0:0:0:
154,141,72146,2,0,P|124:119|105:64,1,77.0000023498536,0|0,1:0|0:0,0:0:0:0:
153,276,72446,2,0,P|116:281|63:256,1,77.0000023498536
154,141,72746,1,0,1:0:0:0:
261,338,72896,6,0,L|250:172,1,154.000004699707
360,57,73345,2,0,L|365:161,1,77.0000023498536,0|2,1:0|0:0,0:0:0:0:
426,327,73645,1,0,0:0:0:0:
393,222,73795,2,0,P|427:206|447:174,1,77.0000023498536,2|0,0:0|1:0,0:0:0:0:
291,158,74095,6,0,L|131:189,1,154.000004699707,4|0,0:1|0:0,0:0:0:0:
75,307,74544,1,0,1:0:0:0:
156,370,74694,2,0,P|175:337|182:300,1,77.0000023498536,0|2,0:0|0:0,0:0:0:0:
264,221,74994,2,0,P|286:251|295:295,1,77.0000023498536,0|0,0:0|1:0,0:0:0:0:
158,109,75294,6,0,B|205:112|205:112|256:128|256:128|337:124,1,154.000004699707,4|0,0:1|0:0,0:0:0:0:
185,220,75743,2,0,L|100:208,1,77.0000023498536,0|0,1:0|0:0,0:0:0:0:
284,19,76043,2,0,L|386:12,1,77.0000023498536,2|0,0:0|0:0,0:0:0:0:
340,157,76343,1,0,0:0:0:0:
416,373,76493,6,0,L|430:192,1,154.000004699707,4|0,0:1|0:0,0:0:0:0:
333,43,76943,2,0,B|357:55|388:48|388:48|431:74|492:68,1,154.000004699707,0|2,1:0|0:0,0:0:0:0:
340,157,77392,2,0,P|303:181|257:164,1,77.0000023498536,0|0,0:0|1:0,0:0:0:0:
238,72,77692,6,0,L|208:230,1,154.000004699707
105,255,78142,2,0,P|106:310|146:341,1,77.0000023498536,0|0,1:0|0:0,0:0:0:0:
330,309,78441,1,0,1:0:0:0:
249,163,78591,2,0,P|211:203|217:252,1,77.0000023498536,0|2,0:0|0:0,0:0:0:0:
462,355,78891,6,0,L|472:187,1,154.000004699707,4|0,0:1|0:0,0:0:0:0:
379,94,79341,2,0,P|349:124|339:166,1,77.0000023498536,0|0,1:0|0:0,0:0:0:0:
330,309,79641,1,0,0:0:0:0:
232,90,79790,2,0,P|232:132|254:169,1,77.0000023498536,0|0,0:0|1:0,0:0:0:0:
404,216,80090,1,0,0:0:0:0:
158,171,80240,5,0,1:0:0:0:
458,183,81289,6,0,P|416:155|352:178,1,105.000004005432,0|0,1:0|0:0,0:0:0:0:
401,241,81739,1,0,1:0:0:0:
477,69,82039,2,0,L|485:17,1,52.5000020027161,0|0,1:0|0:0,0:0:0:0:
375,115,82339,2,0,L|366:166,1,52.5000020027161,0|0,1:0|0:0,0:0:0:0:
273,60,82638,2,0,L|281:8,1,52.5000020027161,0|0,1:0|0:0,0:0:0:0:
170,100,82938,2,0,L|161:151,1,52.5000020027161,0|0,1:0|0:0,0:0:0:0:
68,51,83238,2,0,L|76:0,1,52.5000020027161,0|0,1:0|0:0,0:0:0:0:
72,180,83538,1,0,1:0:0:0:
155,277,83688,6,0,P|200:256|269:280,1,105.000004005432,4|0,1:0|0:0,0:0:0:0:
382,346,84137,2,0,P|379:309|358:280,1,52.5000020027161,0|0,1:0|0:0,0:0:0:0:
438,212,84437,2,0,P|410:187|374:182,1,52.5000020027161,0|0,1:0|0:0,0:0:0:0:
395,77,84737,2,0,P|358:79|329:101,1,52.5000020027161,0|0,1:0|0:0,0:0:0:0:
266,16,85037,2,0,P|241:43|236:79,1,52.5000020027161,0|0,1:0|0:0,0:0:0:0:
133,60,85336,2,0,P|134:96|156:125,1,52.5000020027161,0|0,1:0|0:0,0:0:0:0:
245,131,85636,5,0,1:0:0:0:
278,145,85711,1,0,1:0:0:0:
299,174,85786,1,0,1:0:0:0:
304,210,85861,1,0,0:0:0:0:
289,243,85936,1,0,0:0:0:0:
260,266,86011,1,0,0:0:0:0:
223,269,86086,5,4,0:1:0:0:
256,192,86161,12,0,88634,0:0:0:0:
