osu file format v14

[General]
AudioFilename: get ya head in the game.mp3
AudioLeadIn: 0
PreviewTime: 61234
Countdown: 0
SampleSet: Soft
StackLeniency: 0.7
Mode: 0
LetterboxInBreaks: 1
WidescreenStoryboard: 1

[Editor]
Bookmarks: 1100,5896,11742,16538,21334,26131,30927,35724,40520,50113,54909,59706,62104,71697,81289,86086
DistanceSpacing: 0.7
BeatDivisor: 4
GridSize: 4
TimelineZoom: 1.5

[Metadata]
Title:Hengen Jizai no Magical Star (TV Size)
TitleUnicode:変幻自在のマジカルスタ (TV Size)
Artist:GRANRODEO
ArtistUnicode:GRANRODEO
Creator:Xexxar
Version:Fury's Insane
Source:黒子のバスケ
Tags:OP Opening Japanese 2moe4u Kuroko no Basket 2 Basuke Basketball dunking moe
BeatmapID:819538
BeatmapSetID:156331

[Difficulty]
HPDrainRate:5.8
CircleSize:4
OverallDifficulty:8
ApproachRate:9
SliderMultiplier:1.6
SliderTickRate:1

[Events]
//Background and Video events
0,0,"kuroko_no_basket_wall_2_by_naruble-d5yu5zl.jpg",0,0
Video,0,"video knb 2 osu.avi"
//Break Periods
//Storyboard Layer 0 (Background)
//Storyboard Layer 1 (Fail)
//Storyboard Layer 2 (Pass)
//Storyboard Layer 3 (Foreground)
//Storyboard Sound Samples

[TimingPoints]
1100,299.775168623532,4,2,0,55,1,0
1100,-125,4,2,0,55,0,0
11292,-125,4,2,0,5,0,0
11742,299.775168623532,4,1,0,60,1,0
11742,-90.9090909090909,4,1,0,60,0,0
14140,-76.9230769230769,4,1,0,60,0,0
14439,-90.9090909090909,4,1,0,60,0,0
16538,-83.3333333333333,4,1,0,70,0,0
21334,-66.6666666666667,4,1,0,60,0,0
21634,-111.111111111111,4,1,0,55,0,0
23733,-76.9230769230769,4,1,0,60,0,0
24032,-111.111111111111,4,1,0,55,0,0
26131,-76.9230769230769,4,1,0,60,0,0
26430,-111.111111111111,4,1,0,55,0,0
28679,-76.9230769230769,4,1,0,60,0,0
29728,-111.111111111111,4,1,0,55,0,0
30328,-66.6666666666667,4,1,0,55,0,0
30552,-66.6666666666667,4,1,0,5,0,0
30627,-66.6666666666667,4,1,0,55,0,0
30852,-66.6666666666667,4,1,0,5,0,0
30927,-66.6666666666667,4,1,0,55,0,0
31227,-90.9090909090908,4,1,0,55,0,0
33325,-76.9230769230769,4,1,0,60,0,0
33625,-90.9090909090908,4,1,0,55,0,0
35724,-76.9230769230769,4,1,0,60,0,0
47789,-66.6666666666667,4,1,0,5,0,0
47864,-76.9230769230769,4,1,0,60,0,0
50263,-142.857142857143,4,2,0,20,0,0
51462,-142.857142857143,4,2,0,25,0,0
52661,-142.857142857143,4,2,0,30,0,0
53860,-142.857142857143,4,2,0,35,0,0
55059,-111.111111111111,4,2,0,40,0,0
55209,-111.111111111111,4,2,0,20,0,0
56108,-111.111111111111,4,2,0,25,0,0
56258,-111.111111111111,4,2,0,30,0,0
56408,-111.111111111111,4,2,0,35,0,0
56558,-111.111111111111,4,2,0,40,0,0
57157,-111.111111111111,4,2,0,30,0,0
57307,-111.111111111111,4,2,0,32,0,0
57457,-111.111111111111,4,2,0,34,0,0
57607,-111.111111111111,4,2,0,36,0,0
57757,-111.111111111111,4,2,0,38,0,0
57907,-111.111111111111,4,2,0,40,0,0
58057,-111.111111111111,4,2,0,42,0,0
58207,-111.111111111111,4,2,0,44,0,0
58357,-111.111111111111,4,2,0,46,0,0
58506,-111.111111111111,4,2,0,48,0,0
58656,-111.111111111111,4,2,0,50,0,0
58806,-111.111111111111,4,2,0,52,0,0
58956,-111.111111111111,4,2,0,54,0,0
59106,-111.111111111111,4,2,0,56,0,0
59256,-111.111111111111,4,2,0,58,0,0
59406,-111.111111111111,4,2,0,60,0,0
62104,-80,4,1,0,70,0,1
81289,-90.9090909090909,4,1,0,60,0,0
88484,-66.6666666666667,4,1,0,5,0,0

[Colours]
Combo1 : 244,0,0
Combo2 : 128,128,255
Combo3 : 255,128,64
Combo4 : 196,54,6

[HitObjects]
232,228,1100,6,0,B|276:224|276:224|312:240|312:240|356:236,1,128
416,188,1549,2,0,P|428:152|424:124,1,64,0|2,0:0|0:0,0:0:0:0:
336,72,1849,1,0,0:0:0:0:
252,128,1999,2,0,L|184:136,1,64
44,88,2299,6,0,P|72:148|56:212,1,128
128,268,2748,2,0,P|157:258|192:256,1,64,0|2,0:0|0:0,0:0:0:0:
284,296,3048,1,0,0:0:0:0:
336,208,3198,2,0,L|328:144,1,64
244,84,3498,6,0,P|184:108|120:96,2,128,0|0|2,0:0|0:0|0:0,0:0:0:0:
336,40,4247,2,0,P|372:32|400:32,1,64
475,102,4547,1,0,0:0:0:0:
460,204,4697,6,0,B|420:228|420:228|332:224,1,128
224,116,5146,2,0,P|248:136|264:168,1,64,2|0,0:0|0:0,0:0:0:0:
200,272,5446,1,0,0:0:0:0:
200,272,5596,1,0,0:0:0:0:
140,160,5746,1,0,0:0:0:0:
324,244,5896,6,0,P|360:248|444:208,1,128
357,138,6346,1,0,0:0:0:0:
220,220,6495,6,0,B|208:260|208:260|244:340,1,128,2|0,0:0|0:0,0:0:0:0:
324,356,6945,1,0,0:0:0:0:
404,338,7095,6,0,B|424:296|424:296|416:264|416:264|436:220,1,128,2|0,0:0|0:0,0:0:0:0:
492,284,7545,1,0,0:0:0:0:
492,284,7695,6,0,P|437:305|372:276,1,128,2|0,0:0|0:0,0:0:0:0:
300,244,8144,6,0,B|260:236|260:236|236:252|236:252|200:232|144:236|116:260,1,192
56,200,8744,6,0,B|66:154|66:154|92:130|92:130|100:85,1,128
36,32,9193,1,4,0:0:0:0:
256,192,9493,12,0,11292,0:0:0:0:
48,212,11742,38,0,P|112:248|204:212,1,176.000005371094,4|0,0:0|0:0,0:0:0:0:
126,62,12191,2,0,P|116:105|126:150,1,88.000002685547,8|0,0:0|0:0,0:0:0:0:
288,172,12491,2,0,P|255:141|210:128,1,88.000002685547,8|0,0:0|0:0,0:0:0:0:
110,257,12791,2,0,P|152:243|186:212,1,88.000002685547,8|0,0:0|0:0,0:0:0:0:
32,192,13090,5,8,0:0:0:0:
16,308,13240,1,0,0:0:0:0:
120,356,13390,2,0,B|176:344|176:344|216:300|216:300|276:284,1,176.000005371094,0|8,0:0|0:0,0:0:0:0:
380,328,13840,1,0,0:0:0:0:
380,328,13915,1,0,0:0:0:0:
380,328,13990,1,0,0:0:0:0:
124,260,14140,6,0,P|90:171|158:87,1,207.999990478516,4|0,0:0|0:0,0:0:0:0:
264,120,14589,1,8,0:0:0:0:
264,120,14739,1,0,0:0:0:0:
376,96,14889,2,0,P|408:68|424:24,1,88.000002685547,8|0,0:0|0:0,0:0:0:0:
260,192,15189,2,0,P|260:234|284:275,1,88.000002685547,8|0,0:0|0:0,0:0:0:0:
320,88,15489,5,0,0:0:0:0:
320,88,15564,1,0,0:0:0:0:
320,88,15639,1,0,0:0:0:0:
168,76,15788,2,0,P|122:83|80:107,1,88.000002685547,8|0,0:0|0:0,0:0:0:0:
88,260,16088,2,0,B|136:296|136:296|252:284,1,176.000005371094,0|8,0:0|0:0,0:0:0:0:
268,268,16463,1,0,0:0:0:0:
284,252,16538,6,0,B|300:220|300:220|282:190|282:190|304:156|304:104|272:64,1,191.999994140625,12|0,0:0|0:0,0:0:0:0:
160,52,16988,1,8,0:0:0:0:
72,136,17137,1,0,0:0:0:0:
72,136,17212,1,0,0:0:0:0:
72,136,17287,2,0,B|68:168|68:168|88:228,1,95.9999970703126,8|0,0:0|0:0,0:0:0:0:
280,224,17587,2,0,P|236:204|188:204,1,95.9999970703126,8|0,0:0|0:0,0:0:0:0:
328,312,17887,5,8,0:0:0:0:
404,224,18037,1,0,0:0:0:0:
336,92,18187,1,8,0:0:0:0:
260,180,18337,1,0,0:0:0:0:
120,112,18486,2,0,P|110:65|124:20,1,95.9999970703126,8|0,0:0|0:0,0:0:0:0:
200,228,18786,1,8,0:0:0:0:
200,228,18936,6,0,B|145:256|145:256|82:248|82:248|22:276,1,191.999994140625,12|0,0:0|0:0,0:0:0:0:
132,168,19386,2,0,P|140:120|124:72,1,95.9999970703126,8|0,0:0|0:0,0:0:0:0:
44,252,19686,1,8,0:0:0:0:
177,301,19835,1,0,0:0:0:0:
272,192,19985,6,0,P|320:168|368:164,1,95.9999970703126,8|0,0:0|0:0,0:0:0:0:
144,248,20285,2,0,P|93:231|56:199,1,95.9999970703126,8|0,0:0|0:0,0:0:0:0:
224,152,20585,5,8,0:0:0:0:
256,320,20735,1,0,0:0:0:0:
368,80,20885,5,8,0:0:0:0:
408,296,21035,1,12,0:0:0:0:
408,296,21334,38,0,P|368:340|208:300,1,240.000009155274,8|0,0:0|0:0,0:0:0:0:
136,260,21784,2,0,P|96:252|64:256,1,71.9999978027344,8|0,0:0|0:0,0:0:0:0:
212,348,22084,2,0,P|252:356|284:352,1,71.9999978027344,8|0,0:0|0:0,0:0:0:0:
384,272,22384,1,0,0:0:0:0:
312,204,22533,6,0,P|299:173|300:128,1,71.9999978027344,8|0,0:0|0:0,0:0:0:0:
416,40,22833,1,0,0:0:0:0:
416,40,22983,2,0,P|356:80|284:76,1,143.999995605469,8|8,0:0|0:0,0:0:0:0:
200,0,23433,1,8,0:0:0:0:
232,156,23583,1,8,0:0:0:0:
108,256,23733,6,0,P|39:241|12:116,1,207.999990478516,12|0,0:0|0:0,0:0:0:0:
118,98,24182,2,0,P|110:134|90:166,1,71.9999978027344,8|0,0:0|0:0,0:0:0:0:
64,24,24482,1,0,0:0:0:0:
176,28,24632,1,0,0:0:0:0:
212,136,24782,1,0,0:0:0:0:
212,136,24932,6,0,B|266:166|266:166|354:158,1,143.999995605469,8|0,0:0|0:0,0:0:0:0:
384,0,25381,2,0,P|357:21|343:54,1,71.9999978027344,8|0,0:0|0:0,0:0:0:0:
448,216,25681,2,0,P|442:182|420:153,1,71.9999978027344,8|0,0:0|0:0,0:0:0:0:
288,288,25981,1,0,0:0:0:0:
120,236,26131,6,0,B|34:176|34:176|136:157,1,207.999990478516,12|0,0:0|0:0,0:0:0:0:
220,100,26580,2,0,P|232:64|228:28,1,71.9999978027344,8|0,0:0|0:0,0:0:0:0:
76,172,26880,1,8,0:0:0:0:
76,172,27030,1,0,0:0:0:0:
212,272,27180,1,0,0:0:0:0:
212,272,27330,6,0,P|280:264|344:304,1,143.999995605469,8|0,0:0|0:0,0:0:0:0:
124,336,27779,1,8,0:0:0:0:
124,336,27929,2,0,P|108:304|104:264,1,71.9999978027344,8|0,0:0|0:0,0:0:0:0:
232,100,28229,2,0,P|229:135|213:172,1,71.9999978027344,8|0,0:0|0:0,0:0:0:0:
160,60,28529,5,8,0:0:0:0:
160,60,28679,2,0,P|256:21|314:92,1,207.999990478516,12|0,0:0|0:0,0:0:0:0:
256,272,29128,1,0,0:0:0:0:
72,216,29278,2,0,B|50:151|50:151|79:83|79:83|58:18,1,207.999990478516,8|0,0:0|0:0,0:0:0:0:
0,88,29728,6,0,P|53:109|131:74,1,143.999995605469
212,32,30178,1,8,0:0:0:0:
296,72,30328,2,0,B|320:207|320:207|348:168,1,180.000006866455,8|0,0:0|0:0,0:0:0:0:
272,144,30627,2,0,P|184:136|108:192,1,180.000006866455,8|0,0:0|0:0,0:0:0:0:
168,244,30927,6,0,B|192:152|192:152|116:24,1,240.000009155274,12|0,0:0|0:0,0:0:0:0:
248,84,31377,2,0,L|336:92,1,88.000002685547,8|0,0:0|0:0,0:0:0:0:
512,136,31677,2,0,L|424:144,1,88.000002685547,8|0,0:0|0:0,0:0:0:0:
316,244,31976,1,0,0:0:0:0:
180,92,32126,6,0,P|168:48|176:4,1,88.000002685547,8|8,0:0|0:0,0:0:0:0:
288,152,32426,1,0,0:0:0:0:
188,212,32576,2,0,L|92:228,1,88.000002685547,8|0,0:0|0:0,0:0:0:0:
276,120,32876,1,8,0:0:0:0:
376,268,33026,1,8,0:0:0:0:
440,44,33175,1,8,0:0:0:0:
280,232,33325,6,0,P|192:264|104:200,1,207.999990478516,12|0,0:0|0:0,0:0:0:0:
344,180,33775,2,0,P|388:192|436:184,1,88.000002685547,8|0,0:0|0:0,0:0:0:0:
258,84,34075,1,0,0:0:0:0:
258,84,34225,2,0,P|225:116|208:161,1,88.000002685547,8|0,0:0|0:0,0:0:0:0:
272,300,34524,5,8,0:0:0:0:
396,336,34674,1,0,0:0:0:0:
392,156,34824,2,0,L|373:69,1,88.000002685547,8|0,0:0|0:0,0:0:0:0:
214,226,35124,2,0,P|258:224|300:207,1,88.000002685547,8|0,0:0|0:0,0:0:0:0:
130,101,35424,2,0,P|85:102|43:119,1,88.000002685547,8|0,0:0|0:0,0:0:0:0:
216,248,35724,6,0,B|199:179|199:179|228:114|228:114|214:47,1,207.999990478516,12|0,0:0|0:0,0:0:0:0:
296,192,36173,2,0,P|344:208|396:204,1,103.999995239258,8|0,0:0|0:0,0:0:0:0:
512,84,36473,1,8,0:0:0:0:
412,26,36623,1,0,0:0:0:0:
328,103,36773,1,8,0:0:0:0:
374,207,36923,6,0,P|368:304|272:340,1,207.999990478516,8|0,0:0|0:0,0:0:0:0:
312,120,37372,1,8,0:0:0:0:
440,104,37522,1,0,0:0:0:0:
292,250,37672,2,0,L|188:232,1,103.999995239258,8|0,0:0|0:0,0:0:0:0:
132,60,37972,2,0,P|160:96|164:152,1,103.999995239258,8|0,0:0|0:0,0:0:0:0:
44,203,38272,6,0,B|104:152|104:152|240:164,1,207.999990478516,12|0,0:0|0:0,0:0:0:0:
308,248,38721,1,0,0:0:0:0:
436,180,38871,2,0,P|464:136|464:84,1,103.999995239258,8|0,0:0|0:0,0:0:0:0:
308,248,39171,2,0,P|332:294|377:320,1,103.999995239258,8|0,0:0|0:0,0:0:0:0:
313,103,39471,2,0,P|260:100|215:126,1,103.999995239258,8|0,0:0|0:0,0:0:0:0:
404,180,39770,5,8,0:0:0:0:
464,56,39920,1,0,0:0:0:0:
512,236,40070,1,8,0:0:0:0:
356,140,40220,1,0,0:0:0:0:
220,224,40370,1,0,0:0:0:0:
218,234,40445,1,0,0:0:0:0:
217,244,40520,1,0,0:0:0:0:
216,254,40595,1,0,0:0:0:0:
215,264,40670,6,0,P|140:296|32:244,1,207.999990478516,8|0,0:0|0:0,0:0:0:0:
132,168,41119,1,0,0:0:0:0:
260,180,41269,2,0,B|305:235|305:235|300:301|300:301|349:355,1,207.999990478516,8|0,0:0|0:0,0:0:0:0:
472,336,41719,6,0,P|484:288|472:236,1,103.999995239258,8|0,0:0|0:0,0:0:0:0:
304,120,42019,2,0,P|339:154|390:169,1,103.999995239258,8|0,0:0|0:0,0:0:0:0:
288,12,42319,1,0,0:0:0:0:
124,136,42468,2,0,P|121:237|204:297,2,207.999990478516,8|0|8,0:0|0:0|0:0,0:0:0:0:
220,96,43218,5,0,0:0:0:0:
300,160,43368,1,0,0:0:0:0:
396,120,43518,2,0,P|416:72|404:12,1,103.999995239258,8|0,0:0|0:0,0:0:0:0:
248,196,43817,2,0,B|288:228|288:228|304:220|304:220|324:232|324:232|344:244|376:252|408:248|440:232,2,207.999990478516,8|0|8,0:0|0:0|0:0,0:0:0:0:
308,12,44567,6,0,P|324:52|316:112,1,103.999995239258,0|8,0:0|0:0,0:0:0:0:
228,168,44867,2,0,P|160:180|88:132,1,155.999992858887,8|0,0:0|0:0,0:0:0:0:
124,76,45166,2,0,L|104:288,1,207.999990478516,8|8,0:0|0:0,0:0:0:0:
188,224,45616,5,0,0:0:0:0:
188,224,45766,2,0,P|240:208|288:216,1,103.999995239258,0|8,0:0|0:0,0:0:0:0:
468,316,46066,2,0,P|416:332|368:324,1,103.999995239258,0|8,0:0|0:0,0:0:0:0:
288,216,46366,1,0,0:0:0:0:
472,144,46515,6,0,B|489:212|489:212|453:268|453:268|471:336,2,207.999990478516,8|0|8,0:0|0:0|0:0,0:0:0:0:
364,100,47265,2,0,B|328:120|328:120|264:112,1,103.999995239258,8|0,0:0|0:0,0:0:0:0:
224,8,47565,2,0,P|240:60|176:128,1,155.999992858887,8|0,0:0|0:0,0:0:0:0:
108,112,47864,6,0,B|153:116|179:154|179:154|215:149|215:149|238:185|287:191,1,207.999990478516,8|0,0:0|0:0,0:0:0:0:
368,48,48314,2,0,P|320:68|288:108,1,103.999995239258,8|0,0:0|0:0,0:0:0:0:
380,328,48614,2,0,P|386:276|368:228,1,103.999995239258,8|0,0:0|0:0,0:0:0:0:
260,192,48914,6,0,B|204:184|168:228|168:228|124:184|156:132,1,207.999990478516,8|0,0:0|0:0,0:0:0:0:
242,278,49363,1,0,0:0:0:0:
64,304,49513,1,0,0:0:0:0:
240,88,49663,2,0,P|332:116|362:217,1,207.999990478516,8|0,0:0|0:0,0:0:0:0:
292,304,50263,6,0,L|168:328,1,111.999996582031
104,264,50712,1,0,0:0:0:0:
104,264,50862,2,0,P|116:208|88:152,1,111.999996582031
152,68,51312,1,0,0:0:0:0:
152,68,51387,1,0,0:0:0:0:
152,68,51462,6,0,B|192:80|192:80|260:64,1,111.999996582031,2|0,0:0|0:0,0:0:0:0:
420,112,51911,1,0,0:0:0:0:
420,112,52061,2,0,P|376:104|312:136,1,111.999996582031
284,256,52511,1,0,0:0:0:0:
284,256,52661,6,0,P|264:204|220:172,1,111.999996582031,2|0,0:0|0:0,0:0:0:0:
204,336,53260,2,0,B|244:328|244:328|272:340|272:340|312:332,1,111.999996582031
356,256,53710,1,0,0:0:0:0:
356,256,53785,1,0,0:0:0:0:
356,256,53860,6,0,P|320:212|320:156,1,111.999996582031,2|0,0:0|0:0,0:0:0:0:
392,108,54310,2,0,L|448:104,1,55.9999982910157
320,160,54609,1,0,0:0:0:0:
244,116,54759,2,0,P|188:108|140:124,1,83.9999974365235
124,132,55059,6,0,L|112:280,1,143.999995605469,2|0,0:0|0:0,0:0:0:0:
56,204,55509,2,0,P|132:187|188:224,1,143.999995605469
216,308,55958,1,0,0:0:0:0:
284,196,56108,1,0,0:0:0:0:
285,192,56183,1,0,0:0:0:0:
286,188,56258,1,2,0:0:0:0:
244,64,56408,1,0,0:0:0:0:
344,128,56558,6,0,P|378:138|416:136,1,71.9999978027344
504,72,56858,1,0,0:0:0:0:
508,184,57008,6,0,L|512:220,5,35.9999989013672
503,232,57457,5,2,0:0:0:0:
491,240,57532,1,0,0:0:0:0:
478,247,57607,1,0,0:0:0:0:
465,252,57682,1,0,0:0:0:0:
451,256,57757,1,2,0:0:0:0:
437,258,57832,1,0,0:0:0:0:
424,256,57907,6,0,L|385:261,5,35.9999989013672,2|0|0|0|0|0,0:0|0:0|0:0|0:0|0:0|0:0,0:0:0:0:
308,336,58357,6,0,L|269:341,4,35.9999989013672,2|0|0|0|0,0:0|0:0|0:0|0:0|0:0,0:0:0:0:
156,292,58806,5,0,0:0:0:0:
140,272,58881,1,0,0:0:0:0:
136,248,58956,1,0,0:0:0:0:
144,224,59031,1,0,0:0:0:0:
164,208,59106,1,0,0:0:0:0:
188,204,59181,1,0,0:0:0:0:
212,212,59256,1,0,0:0:0:0:
228,228,59331,1,0,0:0:0:0:
236,252,59406,5,0,0:0:0:0:
228,276,59481,1,0,0:0:0:0:
212,296,59556,1,0,0:0:0:0:
188,304,59631,1,0,0:0:0:0:
164,304,59706,1,0,0:0:0:0:
140,296,59780,1,0,0:0:0:0:
124,284,59855,6,0,P|84:186|306:200,1,431.999986816407,10|0,0:0|0:0,0:0:0:0:
195,198,60905,5,0,0:0:0:0:
195,198,60980,1,0,0:0:0:0:
195,198,61055,1,4,0:0:0:0:
424,144,61354,6,0,P|440:96|424:40,1,107.999996704102
352,92,61654,6,0,P|284:112|216:92,1,143.999995605469
128,152,62104,6,0,B|115:220|115:220|142:276|142:276|128:344,1,200,12|0,0:0|0:0,0:0:0:0:
208,204,62553,2,0,P|256:192|304:204,1,100,8|0,0:0|0:0,0:0:0:0:
192,308,62853,1,0,0:0:0:0:
308,128,63003,1,8,0:0:0:0:
476,264,63153,1,0,0:0:0:0:
184,188,63303,6,0,B|136:128|136:128|160:0,1,200,8|0,0:0|0:0,0:0:0:0:
236,104,63752,1,8,0:0:0:0:
72,200,63902,2,0,P|52:244|56:308,1,100
204,252,64202,1,8,0:0:0:0:
204,112,64352,1,0,0:0:0:0:
324,276,64502,6,0,P|404:304|496:244,1,200,12|0,0:0|0:0,0:0:0:0:
216,248,64952,2,0,P|196:292|200:352,1,100,8|0,0:0|0:0,0:0:0:0:
397,194,65251,2,0,L|381:90,1,100,0|8,0:0|0:0,0:0:0:0:
248,16,65551,1,0,0:0:0:0:
120,100,65701,6,0,B|110:140|110:140|125:166|125:166|104:202|106:260|129:289,1,200,8|0,0:0|0:0,0:0:0:0:
248,332,66151,2,0,P|300:340|348:328,1,100,8|0,0:0|0:0,0:0:0:0:
272,204,66450,1,0,0:0:0:0:
177,298,66600,1,8,0:0:0:0:
393,258,66750,1,0,0:0:0:0:
192,164,66900,6,0,P|156:84|216:0,1,200,12|0,0:0|0:0,0:0:0:0:
324,200,67350,2,0,L|300:300,1,100,8|0,0:0|0:0,0:0:0:0:
251,89,67650,1,0,0:0:0:0:
376,216,67799,1,8,0:0:0:0:
428,44,67949,1,0,0:0:0:0:
252,216,68099,6,0,B|184:232|184:232|64:184,1,200,8|0,0:0|0:0,0:0:0:0:
192,136,68549,1,8,0:0:0:0:
240,320,68699,1,0,0:0:0:0:
356,112,68849,1,0,0:0:0:0:
404,296,68999,2,0,P|368:332|320:340,1,100,8|0,0:0|0:0,0:0:0:0:
208,288,69298,6,0,B|194:220|194:220|221:164|221:164|208:96,1,200,12|0,0:0|0:0,0:0:0:0:
112,44,69748,2,0,P|60:48|8:84,1,100,8|0,0:0|0:0,0:0:0:0:
152,140,70048,1,0,0:0:0:0:
252,40,70198,1,8,0:0:0:0:
412,96,70348,1,0,0:0:0:0:
272,256,70497,6,0,P|208:280|100:216,1,200,8|0,0:0|0:0,0:0:0:0:
236,92,70947,1,8,0:0:0:0:
236,92,71097,1,0,0:0:0:0:
300,248,71247,1,0,0:0:0:0:
384,64,71397,1,8,0:0:0:0:
252,168,71547,1,0,0:0:0:0:
84,64,71697,6,0,B|104:128|104:128|64:256,1,200,12|0,0:0|0:0,0:0:0:0:
188,168,72146,2,0,P|240:156|288:160,1,100,8|0,0:0|0:0,0:0:0:0:
452,272,72446,1,0,0:0:0:0:
320,276,72596,1,8,0:0:0:0:
432,140,72746,2,0,P|448:92|440:44,1,100,0|8,0:0|0:0,0:0:0:0:
232,236,73046,2,0,P|224:284|240:331,1,100
328,184,73345,5,8,0:0:0:0:
204,144,73495,1,0,0:0:0:0:
308,296,73645,1,0,0:0:0:0:
312,80,73795,1,8,0:0:0:0:
104,152,73945,1,0,0:0:0:0:
360,240,74095,6,0,B|458:219|458:219|368:168,1,200,12|0,0:0|0:0,0:0:0:0:
284,104,74544,2,0,P|268:56|276:8,1,100,8|0,0:0|0:0,0:0:0:0:
416,148,74844,1,0,0:0:0:0:
296,224,74994,1,8,0:0:0:0:
112,88,75144,1,0,0:0:0:0:
112,88,75294,6,0,B|96:156|96:156|116:216|116:216|100:284,1,200,8|0,0:0|0:0,0:0:0:0:
188,152,75743,2,0,L|288:144,1,100,8|0,0:0|0:0,0:0:0:0:
392,224,76043,1,0,0:0:0:0:
380,64,76193,1,8,0:0:0:0:
280,228,76343,1,0,0:0:0:0:
84,168,76493,6,0,P|36:104|84:0,1,200,12|0,0:0|0:0,0:0:0:0:
192,156,76943,2,0,L|172:256,1,100,8|0,0:0|0:0,0:0:0:0:
68,288,77242,1,8,0:0:0:0:
220,328,77392,1,0,0:0:0:0:
316,204,77542,1,8,0:0:0:0:
466,243,77692,1,0,0:0:0:0:
448,332,77842,6,0,P|384:280|416:168,1,200,8|0,0:0|0:0,0:0:0:0:
466,243,78292,1,0,0:0:0:0:
336,340,78441,2,0,B|276:368|276:368|140:340,1,200,8|0,0:0|0:0,0:0:0:0:
48,180,78891,6,0,P|53:83|133:29,1,200,12|0,0:0|0:0,0:0:0:0:
200,200,79341,1,8,0:0:0:0:
200,200,79491,2,0,L|301:221,1,100
500,144,79790,2,0,L|399:165,1,100,8|0,0:0|0:0,0:0:0:0:
332,292,80090,1,0,0:0:0:0:
240,120,80240,6,0,P|152:88|60:144,1,200,8|0,0:0|0:0,0:0:0:0:
216,212,80690,2,0,B|284:204|284:204|329:161|329:161|398:152,1,200,8|0,0:0|0:0,0:0:0:0:
484,220,81139,1,8,0:0:0:0:
384,324,81289,6,0,B|339:340|339:340|313:333|313:333|272:352|196:347,1,176.000005371094,12|0,0:0|0:0,0:0:0:0:
140,172,81739,2,0,P|172:200|188:244,1,88.000002685547,8|0,0:0|0:0,0:0:0:0:
108,316,82039,2,0,L|20:300,1,88.000002685547,8|0,0:0|0:0,0:0:0:0:
224,252,82339,2,0,L|312:268,1,88.000002685547,8|0,0:0|0:0,0:0:0:0:
384,204,82638,5,8,0:0:0:0:
384,204,82713,1,0,0:0:0:0:
384,204,82788,1,0,0:0:0:0:
352,112,82938,2,0,P|352:68|372:28,1,88.000002685547,8|0,0:0|0:0,0:0:0:0:
424,200,83238,1,8,0:0:0:0:
328,244,83388,1,0,0:0:0:0:
328,244,83463,1,0,0:0:0:0:
328,244,83538,1,8,0:0:0:0:
232,200,83688,6,0,P|148:180|60:200,1,176.000005371094,12|0,0:0|0:0,0:0:0:0:
200,328,84137,5,8,0:0:0:0:
276,240,84287,1,0,0:0:0:0:
208,108,84437,1,8,0:0:0:0:
132,196,84587,1,0,0:0:0:0:
0,120,84736,2,0,P|-10:73|4:32,1,88.000002685547,8|0,0:0|0:0,0:0:0:0:
100,0,85037,5,8,0:0:0:0:
100,0,85111,1,0,0:0:0:0:
100,0,85186,1,0,0:0:0:0:
176,76,85336,2,0,P|220:84|268:80,1,88.000002685547,8|0,0:0|0:0,0:0:0:0:
352,8,85636,2,0,B|312:60|312:60|336:172,1,176.000005371094,8|0,0:0|0:0,0:0:0:0:
335,167,86011,1,0,0:0:0:0:
335,167,86086,1,4,0:0:0:0:
256,192,86123,12,0,88484,0:0:0:0:
