osu file format v14

[General]
AudioFilename: get ya head in the game.mp3
AudioLeadIn: 0
PreviewTime: 61234
Countdown: 0
SampleSet: Normal
StackLeniency: 0.7
Mode: 0
LetterboxInBreaks: 1
WidescreenStoryboard: 1

[Editor]
DistanceSpacing: 1.1
BeatDivisor: 4
GridSize: 4
TimelineZoom: 1

[Metadata]
Title:Hengen Jizai no Magical Star (TV Size)
TitleUnicode:変幻自在のマジカルスタ (TV Size)
Artist:GRANRODEO
ArtistUnicode:GRANRODEO
Creator:Xexxar
Version:Extra
Source:黒子のバスケ
Tags:OP Opening Japanese 2moe4u Kuroko no Basket 2 Basuke Basketball dunking moe
BeatmapID:818512
BeatmapSetID:156331

[Difficulty]
HPDrainRate:5.6
CircleSize:4
OverallDifficulty:9
ApproachRate:9.3
SliderMultiplier:1.4
SliderTickRate:1

[Events]
//Background and Video events
0,0,"kuroko_no_basket_wall_2_by_naruble-d5yu5zl.jpg",0,0
Video,0,"video knb 2 osu.avi"
//Break Periods
//Storyboard Layer 0 (Background)
//Storyboard Layer 1 (Fail)
//Storyboard Layer 2 (Pass)
//Storyboard Layer 3 (Foreground)
//Storyboard Sound Samples

[TimingPoints]
1100,299.775168623532,4,2,0,100,1,0
1100,-133.333333333333,4,2,0,60,0,0
11742,299.775168623532,4,1,0,60,1,0
11742,-66.6666666666667,4,1,0,60,0,0
12036,-83.3333333333333,4,1,0,60,0,0
14135,-66.6666666666667,4,1,0,60,0,0
14435,-83.3333333333333,4,1,0,60,0,0
26129,-66.6666666666667,4,1,0,60,0,0
26429,-83.3333333333333,4,1,0,60,0,0
28228,-104.166666666667,4,1,0,60,0,0
28678,-76.9230769230769,4,1,0,60,0,0
37822,-114.942528735632,4,1,0,60,0,0
38272,-76.9230769230769,4,1,0,60,0,0
40670,-66.6666666666667,4,1,0,60,0,0
40971,-76.9230769230769,4,1,0,60,0,0
45466,-66.6666666666667,4,1,0,60,0,0
45769,-76.9230769230769,4,1,0,60,0,0
49963,-133.333333333333,4,1,0,60,0,0
50253,-133.333333333333,4,2,0,60,0,0
56114,-116.279069767442,4,2,0,60,0,0
57613,-116.279069767442,4,1,0,60,0,0
60748,-100,4,1,0,60,0,0
62104,-62.5,4,1,0,95,0,1
62411,-74.0740740740741,4,1,0,85,0,1
63303,-62.5,4,1,0,85,0,1
63752,-76.9230769230769,4,1,0,85,0,1
64502,-62.5,4,1,0,85,0,1
64810,-76.9230769230769,4,1,0,85,0,1
66900,-62.5,4,1,0,85,0,1
67208,-76.9230769230769,4,1,0,85,0,1
68099,-62.5,4,1,0,85,0,1
68408,-76.9230769230769,4,1,0,85,0,1
69298,-62.5,4,1,0,85,0,1
69607,-76.9230769230769,4,1,0,85,0,1
71397,-74.0740740740741,4,1,0,80,0,0
71697,-62.5,4,1,0,80,0,1
72006,-74.0740740740741,4,1,0,80,0,1
72896,-62.5,4,1,0,80,0,1
73205,-74.0740740740741,4,1,0,80,0,1
74095,-62.5,4,1,0,80,0,1
74405,-74.0740740740741,4,1,0,80,0,1
75294,-62.5,4,1,0,80,0,1
75604,-74.0740740740741,4,1,0,80,0,1
76493,-62.5,4,1,0,80,0,1
76804,-74.0740740740741,4,1,0,80,0,1
78891,-62.5,4,1,0,80,0,1
79202,-74.0740740740741,4,1,0,80,0,1
80240,-76.9230769230769,4,1,0,87,0,0
81289,-66.6666666666667,4,1,0,69,0,0
81601,-80,4,1,0,69,0,0
83688,-66.6666666666667,4,1,0,69,0,0
84000,-80,4,1,0,69,0,0
88484,-76.9230769230769,4,1,0,5,0,0

[Colours]
Combo1 : 244,0,0
Combo2 : 128,128,255
Combo3 : 255,128,64
Combo4 : 196,54,6

[HitObjects]
320,224,1100,6,0,L|296:332,1,105.000004005432
272,144,1549,1,0,0:0:0:0:
384,284,1699,2,0,L|452:300,1,52.5000020027161
216,216,1999,2,0,P|205:246|208:290,1,52.5000020027161
272,144,2299,6,0,L|224:40,1,105.000004005432
364,172,2748,1,0,0:0:0:0:
176,124,2898,2,0,L|112:152,1,52.5000020027161
336,80,3198,2,0,P|320:44|296:20,1,52.5000020027161
296,240,3498,6,0,L|416:264,1,105.000004005432
452,176,3947,1,0,0:0:0:0:
264,328,4097,2,0,L|200:340,1,52.5000020027161
316,160,4397,2,0,L|380:172,1,52.5000020027161
192,40,4697,6,0,L|72:64,1,105.000004005432
76,232,5146,2,0,P|120:256|196:256,1,105.000004005432
256,116,5596,1,0,0:0:0:0:
288,280,5746,1,0,0:0:0:0:
328,44,5896,6,0,L|348:156,1,105.000004005432
400,264,6346,1,0,0:0:0:0:
196,272,6495,6,0,L|216:376,1,105.000004005432
128,200,6945,1,0,0:0:0:0:
224,32,7095,6,0,L|200:144,1,105.000004005432
272,208,7545,1,0,0:0:0:0:
124,120,7695,6,0,P|100:72|108:8,1,105.000004005432
200,244,8144,2,0,L|212:312,1,52.5000020027161
208,300,8594,5,0,0:0:0:0:
276,72,8744,2,0,P|272:28|256:0,1,52.5000020027161
128,200,9044,1,0,0:0:0:0:
336,208,9193,1,0,0:0:0:0:
200,56,9343,1,0,0:0:0:0:
280,356,9493,5,0,0:0:0:0:
252,272,11742,6,0,B|218:274|182:281|182:281|156:296|124:302|76:306|76:306|40:310,1,210.000008010865,4|0,0:0|0:0,0:0:0:0:
332,192,12191,2,0,L|444:208,1,83.9999974365235,8|0,0:0|0:0,0:0:0:0:
176,116,12491,2,0,L|64:100,1,83.9999974365235,8|0,0:0|0:0,0:0:0:0:
332,272,12791,2,0,P|348:312|340:368,1,83.9999974365235,8|0,0:0|0:0,0:0:0:0:
284,92,13091,2,0,B|304:72|304:72|376:44,1,83.9999974365235,12|0,0:0|0:0,0:0:0:0:
420,260,13390,2,0,L|444:356,1,83.9999974365235,8|0,0:0|0:0,0:0:0:0:
448,104,13690,2,0,L|492:32,1,83.9999974365235,8|0,0:0|0:0,0:0:0:0:
332,276,13990,1,8,0:0:0:0:
208,120,14140,6,0,B|164:104|164:104|108:100|68:116|68:116|-4:104,1,210.000008010865,4|0,0:0|0:0,0:0:0:0:
272,192,14589,2,0,L|160:220,1,83.9999974365235,8|0,0:0|0:0,0:0:0:0:
56,356,14889,2,0,B|75:359|75:359|168:340,1,83.9999974365235,8|0,0:0|0:0,0:0:0:0:
320,164,15189,2,0,L|284:280,1,83.9999974365235,8|0,0:0|0:0,0:0:0:0:
476,368,15489,2,0,P|500:328|504:284,1,83.9999974365235,12|0,0:0|0:0,0:0:0:0:
456,140,15788,2,0,L|440:96,2,41.9999987182618,8|0|0,0:0|0:0|0:0,0:0:0:0:
448,180,16013,1,0,0:0:0:0:
428,216,16088,1,0,0:0:0:0:
396,244,16163,1,0,0:0:0:0:
356,256,16238,1,8,0:0:0:0:
316,248,16313,1,0,0:0:0:0:
280,228,16388,1,0,0:0:0:0:
252,196,16463,1,0,0:0:0:0:
216,172,16538,6,0,P|144:160|72:200,1,125.999996154785,14|0,0:0|2:0,0:0:0:0:
64,204,16838,1,8,0:0:0:0:
348,164,16988,2,0,L|452:148,1,83.9999974365235,10|0,0:0|0:0,0:0:0:0:
216,304,17287,1,10,0:0:0:0:
216,304,17437,1,0,0:0:0:0:
224,56,17587,1,10,0:0:0:0:
320,304,17737,2,0,L|420:288,1,83.9999974365235,0|2,0:0|0:0,0:0:0:0:
256,220,18037,5,0,0:0:0:0:
472,100,18187,2,0,L|372:116,1,83.9999974365235,10|0,0:0|0:0,0:0:0:0:
184,148,18486,1,10,0:0:0:0:
380,116,18636,1,10,0:0:0:0:
224,56,18786,1,8,0:0:0:0:
320,304,18936,6,0,L|480:320,1,125.999996154785,14|0,0:0|2:0,0:0:0:0:
488,320,19236,1,8,0:0:0:0:
256,252,19386,2,0,P|236:300|252:344,1,83.9999974365235,10|0,0:0|0:0,0:0:0:0:
384,120,19686,1,10,0:0:0:0:
384,120,19835,1,0,0:0:0:0:
445,316,19985,1,10,0:0:0:0:
288,80,20135,2,0,L|192:68,1,83.9999974365235,0|2,0:0|0:0,0:0:0:0:
144,8,20435,5,0,0:0:0:0:
88,220,20585,2,0,L|104:316,1,83.9999974365235,10|0,0:0|0:0,0:0:0:0:
60,32,20885,1,8,0:0:0:0:
108,324,21035,1,12,0:0:0:0:
108,324,21334,6,0,B|152:344|152:344|300:352,1,167.999994873047,4|8,0:0|0:0,0:0:0:0:
240,168,21784,1,8,0:0:0:0:
428,280,21934,2,0,L|376:276,1,41.9999987182618
168,216,22084,2,0,P|156:160|180:104,2,83.9999974365235,8|0|0,1:0|1:0|1:0,1:0:0:0:
428,280,22533,6,0,P|448:232|436:168,1,83.9999974365235,8|0,0:0|0:0,0:0:0:0:
368,76,22833,1,0,0:0:0:0:
320,304,22983,2,0,L|232:320,1,83.9999974365235,8|0,0:0|0:0,0:0:0:0:
340,68,23283,1,10,0:0:0:0:
428,280,23433,1,8,0:0:0:0:
472,104,23583,1,8,0:0:0:0:
264,240,23733,6,0,L|92:208,1,167.999994873047,12|0,0:0|0:0,0:0:0:0:
184,36,24182,1,8,0:0:0:0:
260,168,24332,2,0,L|316:180,1,41.9999987182618
428,280,24482,2,0,P|432:328|408:372,2,83.9999974365235,8|0|0,0:0|0:0|0:0,0:0:0:0:
216,304,24932,6,0,L|312:320,1,83.9999974365235,8|0,0:0|0:0,0:0:0:0:
344,104,25231,1,0,0:0:0:0:
160,164,25381,2,0,L|216:172,1,41.9999987182618,8|0,0:0|0:0,0:0:0:0:
392,200,25531,1,0,0:0:0:0:
216,304,25681,2,0,L|124:316,1,83.9999974365235,8|10,0:0|0:0,0:0:0:0:
48,56,25981,1,10,0:0:0:0:
272,224,26131,6,0,B|312:220|312:220|352:248|352:248|400:240|488:292,1,210.000008010865,4|0,0:0|0:0,0:0:0:0:
404,96,26580,1,8,0:0:0:0:
384,348,26730,2,0,L|288:360,1,83.9999974365235,8|0,0:0|0:0,0:0:0:0:
476,288,27030,1,0,0:0:0:0:
228,320,27180,1,8,0:0:0:0:
392,200,27330,2,0,L|488:188,1,83.9999974365235,8|0,0:0|0:0,0:0:0:0:
328,272,27630,1,0,0:0:0:0:
276,100,27779,2,0,L|264:156,1,41.9999987182618,8|0,0:0|0:0,0:0:0:0:
228,320,27929,2,0,L|132:332,1,83.9999974365235,8|0,0:0|0:0,0:0:0:0:
37,201,28229,6,0,B|31:176|31:176|40:156|40:156|38:130|38:130|53:80|98:40,1,168.000004101563,0|0,0:0|2:0,0:0:0:0:
119,32,28679,6,0,L|325:47,1,181.999991668702,12|0,0:0|0:0,0:0:0:0:
409,25,29128,5,10,0:0:0:0:
250,98,29278,1,8,0:0:0:0:
393,214,29428,2,0,L|421:311,1,90.9999958343508,8|0,0:0|0:0,0:0:0:0:
481,236,29728,5,10,0:0:0:0:
409,25,29878,1,8,0:0:0:0:
300,236,30028,2,0,L|199:250,1,90.9999958343508,8|0,0:0|0:0,0:0:0:0:
154,28,30328,5,10,0:0:0:0:
140,343,30477,1,8,0:0:0:0:
334,97,30627,1,12,0:0:0:0:
346,104,30927,6,0,P|380:139|391:272,1,181.999991668702,12|0,0:0|0:0,0:0:0:0:
254,120,31377,2,0,L|267:27,1,90.9999958343508,8|0,0:0|0:0,0:0:0:0:
144,245,31677,2,0,L|131:152,1,90.9999958343508,8|0,0:0|0:0,0:0:0:0:
277,317,31976,1,8,0:0:0:0:
264,132,32126,1,0,1:0:0:0:
264,132,32201,1,0,0:0:0:0:
264,132,32276,1,0,0:0:0:0:
352,220,32426,1,8,0:0:0:0:
172,56,32576,2,0,L|60:44,1,90.9999958343508
144,244,32876,1,10,0:0:0:0:
352,220,33026,1,8,0:0:0:0:
186,57,33175,1,8,0:0:0:0:
277,317,33325,6,0,B|309:318|309:318|334:315|334:315|352:331|383:331|383:331|422:341|480:337,1,181.999991668702,12|0,0:0|0:0,0:0:0:0:
352,104,33775,1,8,0:0:0:0:
212,260,33925,2,0,L|192:364,1,90.9999958343508,8|0,0:0|0:0,0:0:0:0:
180,104,34225,1,8,0:0:0:0:
133,272,34375,6,0,L|124:317,1,45.4999979171754,8|0,0:0|0:0,0:0:0:0:
252,146,34524,2,0,P|261:98|246:49,1,90.9999958343508
86,17,34824,1,8,0:0:0:0:
203,218,34974,2,0,L|313:231,1,90.9999958343508,8|0,0:0|0:0,0:0:0:0:
363,51,35274,1,0,0:0:0:0:
430,298,35424,1,10,0:0:0:0:
453,155,35574,1,8,0:0:0:0:
298,337,35724,6,0,L|94:362,1,181.999991668702,12|0,0:0|0:0,0:0:0:0:
148,122,36173,1,8,0:0:0:0:
148,122,36248,1,0,0:0:0:0:
148,122,36323,1,0,0:0:0:0:
82,232,36473,1,8,0:0:0:0:
29,65,36623,1,8,0:0:0:0:
215,277,36773,6,0,L|338:263,2,90.9999958343508,8|0|0,0:0|0:0|0:0,0:0:0:0:
54,188,37222,2,0,P|29:137|29:71,1,90.9999958343508,8|0,0:0|0:0,0:0:0:0:
213,277,37522,2,0,L|239:377,1,90.9999958343508,8|0,0:0|0:0,0:0:0:0:
231,108,37822,6,0,B|252:73|252:73|277:74|277:74|298:51|369:58,1,152.250001277733,12|0,0:0|2:0,0:0:0:0:
387,66,38272,6,0,P|436:121|457:265,1,181.999991668702,12|0,0:0|0:0,0:0:0:0:
340,365,38721,5,10,0:0:0:0:
152,341,38871,1,8,0:0:0:0:
272,194,39021,2,0,L|393:167,1,90.9999958343508,8|0,0:0|0:0,0:0:0:0:
258,296,39321,5,10,0:0:0:0:
39,182,39471,1,8,0:0:0:0:
239,42,39621,2,0,L|350:65,1,90.9999958343508,8|0,0:0|0:0,0:0:0:0:
181,162,39920,5,10,0:0:0:0:
477,51,40070,1,8,0:0:0:0:
425,347,40220,1,8,0:0:0:0:
454,180,40370,2,0,P|464:158|471:129,1,45.4999979171754,8|0,0:0|0:0,0:0:0:0:
313,305,40520,2,0,L|307:374,1,45.4999979171754
332,124,40670,6,0,B|298:97|298:97|265:104|240:104|240:104|190:88|190:88|118:103,1,210.000008010865,14|8,0:0|0:0,0:0:0:0:
363,215,41119,1,0,0:0:0:0:
133,341,41269,2,0,L|35:360,1,90.9999958343508,10|0,0:0|0:0,0:0:0:0:
184,210,41569,1,0,0:0:0:0:
416,107,41719,2,0,L|445:10,1,90.9999958343508,10|0,0:0|0:0,0:0:0:0:
312,232,42019,5,10,0:0:0:0:
377,328,42169,1,0,0:0:0:0:
312,107,42319,2,0,L|341:10,2,90.9999958343508,8|0|8,0:0|0:0|0:0,0:0:0:0:
116,167,42768,2,0,P|108:88|125:54,1,90.9999958343508,10|0,0:0|0:0,0:0:0:0:
497,63,43068,6,0,P|504:141|487:175,1,90.9999958343508,14|0,0:0|0:0,0:0:0:0:
378,280,43368,1,8,0:0:0:0:
200,94,43518,2,0,L|104:77,1,90.9999958343508,10|0,0:0|0:0,0:0:0:0:
388,188,43817,2,0,P|412:137|396:79,1,90.9999958343508,8|0,0:0|0:0,0:0:0:0:
283,256,44117,2,0,L|258:364,1,90.9999958343508,10|0,0:0|0:0,0:0:0:0:
387,61,44417,5,10,0:0:0:0:
391,67,44717,1,8,0:0:0:0:
201,283,44867,2,0,L|108:297,1,90.9999958343508,8|0,0:0|0:0,0:0:0:0:
473,104,45166,5,14,0:0:0:0:
473,104,45466,2,0,B|491:142|491:142|479:176|479:176|493:208|486:320,1,210.000008010865,12|8,0:0|0:0,0:0:0:0:
369,42,45916,1,10,0:0:0:0:
369,42,46066,1,0,0:0:0:0:
320,278,46216,2,0,L|202:299,1,90.9999958343508,8|0,0:0|0:0,0:0:0:0:
73,111,46515,2,0,P|128:133|156:182,1,90.9999958343508,10|0,0:0|0:0,0:0:0:0:
93,362,46815,2,8,L|129:272,1,90.9999958343508,8|0,0:0|0:0,0:0:0:0:
118,24,47115,5,10,0:0:0:0:
230,264,47265,2,0,L|333:280,1,90.9999958343508,8|0,0:0|0:0,0:0:0:0:
67,189,47565,2,0,P|49:237|56:292,1,90.9999958343508,10|0,0:0|0:0,0:0:0:0:
488,356,47864,6,0,P|505:307|498:252,1,90.9999958343508,14|0,0:0|0:0,0:0:0:0:
424,78,48164,1,8,0:0:0:0:
343,273,48314,2,0,L|356:376,1,90.9999958343508,10|0,0:0|0:0,0:0:0:0:
213,154,48614,2,0,L|226:257,1,90.9999958343508,8|0,0:0|0:0,0:0:0:0:
467,152,48914,2,0,P|449:99|392:67,1,90.9999958343508,10|0,0:0|0:0,0:0:0:0:
412,343,49213,5,10,0:0:0:0:
380,147,49363,1,8,0:0:0:0:
459,239,49513,1,0,0:0:0:0:
279,71,49663,2,0,L|187:56,1,90.9999958343508,8|0,0:0|0:0,0:0:0:0:
41,157,49963,6,0,L|145:177,1,105.000004005432,0|12,3:0|0:0,0:0:0:0:
144,176,50562,5,0,0:0:0:0:
224,256,50712,1,0,0:0:0:0:
278,70,50862,2,0,L|262:21,1,52.5000020027161,8|0,0:0|0:0,0:0:0:0:
344,200,51162,2,0,P|372:208|412:204,1,52.5000020027161
416,200,51387,1,0,0:0:0:0:
432,184,51462,5,8,0:0:0:0:
384,52,51612,1,8,0:0:0:0:
248,168,51762,1,0,0:0:0:0:
460,100,51911,1,8,0:0:0:0:
248,76,52061,2,0,L|180:68,1,52.5000020027161,8|0,0:0|0:0,0:0:0:0:
76,176,52361,1,0,0:0:0:0:
88,200,52436,1,0,0:0:0:0:
108,220,52511,1,0,0:0:0:0:
132,232,52586,1,0,0:0:0:0:
160,236,52661,6,0,P|188:236|224:216,1,52.5000020027161,12|0,0:0|0:0,0:0:0:0:
195,69,52961,2,0,L|171:9,1,52.5000020027161
328,128,53260,2,0,P|344:148|352:172,1,26.2500010013581,8|0,0:0|0:0,0:0:0:0:
320,296,53410,2,0,L|256:308,1,52.5000020027161
48,240,53710,1,0,0:0:0:0:
68,220,53785,1,0,0:0:0:0:
88,200,53860,6,0,L|152:192,1,52.5000020027161,8|8,0:0|0:0,0:0:0:0:
372,224,54160,1,0,0:0:0:0:
176,188,54310,1,8,0:0:0:0:
328,128,54459,1,8,0:0:0:0:
261,304,54609,2,0,L|251:341,1,26.2500010013581
436,266,54759,1,0,0:3:0:0:
445,238,54834,1,0,0:3:0:0:
454,210,54909,1,0,0:3:0:0:
462,182,54984,1,0,0:3:0:0:
468,156,55059,6,0,P|463:108|453:86,1,52.5000020027161,8|0,0:0|0:0,0:0:0:0:
381,330,55359,2,0,L|441:349,1,52.5000020027161,8|0,0:0|0:0,0:0:0:0:
294,239,55659,2,0,L|287:207,1,26.2500010013581,8|0,0:0|0:0,0:0:0:0:
352,86,55808,2,0,L|421:74,1,52.5000020027161,0|8,0:0|0:0,0:0:0:0:
293,241,56108,5,0,1:0:0:0:
263,259,56183,1,0,1:0:0:0:
229,270,56258,1,0,1:0:0:0:
108,227,56408,1,8,0:0:0:0:
182,58,56558,1,8,0:0:0:0:
73,112,56708,1,8,0:0:0:0:
284,15,56858,6,0,B|317:1|317:1|414:27,1,120.400001837158,12|8,0:0|1:2,0:0:0:0:
431,37,57232,1,0,1:2:0:0:
459,59,57307,1,0,1:2:0:0:
472,92,57382,1,0,1:2:0:0:
472,128,57457,1,12,1:2:0:0:
423,268,57607,1,0,0:0:0:0:
423,268,57682,1,0,0:0:0:0:
423,268,57757,1,0,0:0:0:0:
253,171,57907,1,8,0:0:0:0:
237,138,57982,1,0,0:0:0:0:
221,105,58057,1,0,0:0:0:0:
205,72,58132,1,0,0:0:0:0:
189,39,58207,1,0,0:0:0:0:
368,161,58357,5,8,0:0:0:0:
143,136,58506,1,0,0:0:0:0:
118,166,58581,1,0,0:0:0:0:
105,203,58656,1,8,0:0:0:0:
105,242,58731,1,0,0:0:0:0:
119,278,58806,1,0,0:0:0:0:
145,306,58881,1,0,0:0:0:0:
179,323,58956,1,8,0:0:0:0:
217,326,59031,1,0,0:0:0:0:
255,317,59106,5,0,0:0:0:0:
289,299,59181,1,0,0:0:0:0:
318,272,59256,1,8,0:0:0:0:
345,243,59331,1,0,0:0:0:0:
382,231,59406,1,0,0:0:0:0:
420,239,59481,1,0,0:0:0:0:
447,266,59556,1,8,0:0:0:0:
457,303,59631,1,0,0:0:0:0:
451,341,59706,1,0,0:0:0:0:
421,366,59780,1,0,0:0:0:0:
383,377,59855,1,12,0:0:0:0:
393,304,60755,5,8,0:0:0:0:
381,249,60830,1,0,0:0:0:0:
369,194,60905,1,0,0:0:0:0:
357,139,60980,1,0,0:0:0:0:
345,84,61055,1,12,0:0:0:0:
345,84,61354,5,0,3:0:0:0:
393,304,61654,5,0,3:0:0:0:
403,27,61954,5,0,3:0:0:0:
275,341,62104,6,0,B|227:338|227:338|180:357|180:357|110:351|23:352,1,224,12|0,0:0|0:0,0:0:0:0:
257,266,62553,1,10,0:0:0:0:
276,55,62703,1,0,0:0:0:0:
338,279,62853,1,8,0:0:0:0:
47,232,63003,1,2,0:0:0:0:
47,232,63153,1,10,0:0:0:0:
287,185,63303,6,0,B|330:188|330:188|376:175|376:175|408:170|454:198|546:180,1,224,14|0,0:0|0:0,0:0:0:0:
210,123,63753,2,0,P|183:70|192:26,1,90.9999958343508,10|0,0:0|0:0,0:0:0:0:
490,94,64052,1,0,0:0:0:0:
263,63,64202,1,8,0:0:0:0:
330,309,64352,1,10,0:0:0:0:
211,126,64502,6,0,B|171:101|171:101|122:121|122:121|75:101|-22:120,1,224,14|0,0:0|0:0,0:0:0:0:
334,182,64952,2,0,L|452:190,1,90.9999958343508,10|0,0:0|0:0,0:0:0:0:
146,257,65251,2,0,L|28:265,2,90.9999958343508,12|2|8,0:0|0:0|0:0,0:0:0:0:
424,188,65701,6,0,P|442:111|389:9,1,181.999991668702,14|0,0:0|0:0,0:0:0:0:
372,263,66151,1,10,0:0:0:0:
255,187,66301,1,0,0:0:0:0:
249,328,66450,1,8,0:0:0:0:
129,141,66600,1,8,0:0:0:0:
53,356,66750,1,2,0:0:0:0:
54,107,66900,6,0,B|81:66|81:66|123:66|123:66|163:45|297:46,1,224,14|0,0:0|0:0,0:0:0:0:
151,248,67350,2,0,L|53:257,1,90.9999958343508,10|0,0:0|0:0,0:0:0:0:
330,98,67650,2,0,L|334:7,1,90.9999958343508,8|0,0:0|0:0,0:0:0:0:
349,321,67949,1,10,0:0:0:0:
212,138,68099,6,0,B|160:121|160:121|110:138|110:138|53:135|-12:106,1,224,14|0,0:0|0:0,0:0:0:0:
276,208,68549,2,0,P|302:168|293:89,1,90.9999958343508,10|0,0:0|0:0,0:0:0:0:
182,220,68849,1,8,0:0:0:0:
56,335,68999,1,0,0:0:0:0:
97,59,69148,1,10,0:0:0:0:
154,320,69298,6,0,B|208:333|208:333|242:319|242:319|314:336|403:331,1,224,14|8,0:0|0:0,0:0:0:0:
491,204,69748,2,0,P|506:158|506:107,1,90.9999958343508,10|0,0:0|0:0,0:0:0:0:
372,332,70048,1,8,0:0:0:0:
287,154,70198,1,0,0:0:0:0:
491,203,70348,1,10,0:0:0:0:
265,327,70497,6,0,L|79:346,1,181.999991668702,14|0,0:0|0:0,0:0:0:0:
327,255,70947,1,10,0:0:0:0:
22,288,71097,1,8,0:0:0:0:
354,345,71247,1,10,0:0:0:0:
307,28,71397,1,14,0:0:0:0:
307,28,71697,6,0,L|344:280,1,224,14|0,0:0|0:0,0:0:0:0:
228,121,72146,2,0,L|213:20,1,94.5000003604889,10|0,0:0|0:0,0:0:0:0:
295,317,72446,2,0,P|351:330|395:317,1,94.5000003604889,8|0,0:0|0:0,0:0:0:0:
161,189,72746,1,10,0:0:0:0:
398,311,72896,6,0,P|417:252|388:56,1,224,14|0,0:0|0:0,0:0:0:0:
296,317,73345,1,10,0:0:0:0:
228,120,73495,1,8,0:0:0:0:
400,312,73645,1,0,0:0:0:0:
161,189,73795,1,0,0:0:0:0:
392,68,73945,1,10,0:0:0:0:
296,317,74095,6,0,B|244:332|244:332|200:332|200:332|132:332|64:360,1,224,14|0,0:0|0:0,0:0:0:0:
328,216,74544,2,0,L|448:184,1,94.5000003604889,10|0,0:0|0:0,0:0:0:0:
68,136,74844,2,0,P|56:188|68:252,1,94.5000003604889,8|0,0:0|0:0,0:0:0:0:
312,64,75144,1,10,0:0:0:0:
406,340,75294,6,0,B|422:304|422:304|410:256|410:256|430:176|410:88,1,224,14|0,0:0|0:0,0:0:0:0:
261,17,75744,1,10,0:0:0:0:
344,179,75893,1,0,0:0:0:0:
198,306,76043,2,0,L|91:328,2,94.5000003604889,8|0|8,0:0|0:0|0:0,0:0:0:0:
277,110,76493,6,0,B|227:126|227:126|180:129|180:129|119:170|17:152,1,224,14|0,0:0|0:0,0:0:0:0:
344,179,76943,1,10,0:0:0:0:
408,56,77093,2,0,L|388:13,1,47.2500001802444
490,257,77242,2,0,L|382:282,1,94.5000003604889,8|0,0:0|0:0,0:0:0:0:
277,111,77542,1,8,0:0:0:0:
256,251,77692,1,10,0:0:0:0:
144,129,77842,6,0,P|142:79|163:27,1,94.5000003604889,0|4,0:0|0:0,0:0:0:0:
490,257,78142,2,0,P|491:306|471:359,1,94.5000003604889,10|4,0:0|0:0,0:0:0:0:
182,337,78441,1,8,0:0:0:0:
468,365,78591,1,12,0:0:0:0:
89,256,78891,6,0,B|80:213|80:213|93:176|93:176|75:115|92:19,1,224,14|0,0:0|0:0,0:0:0:0:
179,249,79341,2,0,P|160:313|101:349,1,94.5000003604889,10|0,0:0|0:0,0:0:0:0:
89,36,79641,1,8,0:0:0:0:
177,247,79790,1,8,0:0:0:0:
56,120,79940,1,0,0:0:0:0:
296,194,80090,1,0,0:0:0:0:
30,341,80240,5,12,0:0:0:0:
84,278,81289,6,0,B|95:227|95:227|63:25,1,210.000008010865,12|8,0:0|0:0,0:3:0:0:
193,232,81739,2,0,L|172:332,1,87.5,8|0,0:0|0:0,0:0:0:0:
268,105,82039,2,0,L|252:17,1,87.5,8|0,0:0|0:0,0:0:0:0:
313,286,82339,2,0,P|377:309|421:297,1,87.5,8|0,0:0|0:0,0:0:0:0:
476,121,82638,6,0,L|460:33,1,87.5,12|0,0:0|0:0,0:0:0:0:
394,306,82938,2,0,L|485:281,1,87.5,8|0,0:0|0:0,0:0:0:0:
220,210,83238,2,0,L|109:180,1,87.5,8|0,0:0|0:0,0:0:0:0:
367,190,83538,1,8,0:0:0:0:
210,335,83688,6,0,B|161:339|161:339|127:359|127:359|-1:367,1,210.000008010865,12|0,0:0|0:0,0:0:0:0:
339,355,84137,2,0,L|445:345,1,87.5,8|0,0:0|0:0,0:0:0:0:
101,285,84437,2,0,P|77:241|78:188,1,87.5,8|0,0:0|0:0,0:0:0:0:
177,7,84737,2,0,L|162:102,1,87.5,8|0,0:0|0:0,0:0:0:0:
283,296,85037,6,0,L|268:201,1,87.5,12|0,0:0|0:0,0:0:0:0:
336,37,85336,2,0,P|383:36|428:53,1,87.5,8|0,0:0|0:0,0:0:0:0:
480,189,85636,1,8,0:0:0:0:
465,234,85711,1,0,0:0:0:0:
436,273,85786,1,0,0:0:0:0:
397,301,85861,1,0,0:0:0:0:
350,315,85936,1,0,0:0:0:0:
301,315,86011,1,0,0:0:0:0:
256,295,86086,1,12,0:0:0:0:
256,192,86236,12,0,88484,0:0:0:0:
