osu file format v14

[General]
AudioFilename: get ya head in the game.mp3
AudioLeadIn: 0
PreviewTime: 61234
Countdown: 0
SampleSet: Normal
StackLeniency: 0.3
Mode: 0
LetterboxInBreaks: 1
WidescreenStoryboard: 1

[Editor]
DistanceSpacing: 1.3
BeatDivisor: 4
GridSize: 32
TimelineZoom: 1.9

[Metadata]
Title:Hengen Jizai no Magical Star (TV Size)
TitleUnicode:変幻自在のマジカルスタ (TV Size)
Artist:GRANRODEO
ArtistUnicode:GRANRODEO
Creator:Xexxar
Version:Anxient's Hard
Source:黒子のバスケ
Tags:OP Opening Japanese 2moe4u Kuroko no Basket 2 Basuke Basketball dunking moe
BeatmapID:818510
BeatmapSetID:156331

[Difficulty]
HPDrainRate:4
CircleSize:4
OverallDifficulty:6
ApproachRate:8
SliderMultiplier:1.4
SliderTickRate:1

[Events]
//Background and Video events
0,0,"kuroko_no_basket_wall_2_by_naruble-d5yu5zl.jpg",0,0
//Break Periods
//Storyboard Layer 0 (Background)
//Storyboard Layer 1 (Fail)
//Storyboard Layer 2 (Pass)
//Storyboard Layer 3 (Foreground)
//Storyboard Sound Samples

[TimingPoints]
1100,299.775168623532,4,2,0,100,1,0
1100,-166.666666666667,4,2,0,100,0,0
4697,-142.857142857143,4,2,0,100,0,0
11742,299.775168623532,4,1,0,60,1,0
11742,-100,4,1,0,60,0,0
21784,-111.111111111111,4,1,0,60,0,0
40670,-100,4,1,0,60,0,0
50253,-100,4,2,0,60,0,0
50263,-125,4,2,0,60,0,0
55059,-111.111111111111,4,2,0,60,0,0
57607,-111.111111111111,4,2,0,60,0,0
57613,-111.111111111111,4,1,0,60,0,0
60755,-76.9230769230769,4,1,0,60,0,0
61055,-76.9230769230769,4,1,0,70,0,0
62097,-76.9230769230769,4,1,0,80,0,0
62104,-90.9090909090909,4,1,0,95,0,1
62404,-90.9090909090909,4,1,0,95,0,1
62411,-90.9090909090909,4,1,0,85,0,1
71397,-90.9090909090909,4,1,0,80,0,0
71697,-90.9090909090909,4,1,0,80,0,1
80240,-100,4,1,0,87,0,0
81289,-100,4,1,0,69,0,0
88484,-100,4,1,0,5,0,0

[Colours]
Combo1 : 244,0,0
Combo2 : 128,128,255
Combo3 : 255,128,64
Combo4 : 196,54,6

[HitObjects]
125,90,1100,6,0,P|115:131|125:184,1,83.9999974365235,2|0,0:0|0:0,0:0:0:0:
187,221,1549,1,0,0:0:0:0:
257,175,1699,2,0,L|354:161,1,83.9999974365235,0|0,0:0|0:0,0:0:0:0:
399,102,2149,1,0,0:0:0:0:
465,153,2299,6,0,P|478:191|473:245,1,83.9999974365235,2|0,0:0|0:0,0:0:0:0:
421,298,2748,1,0,0:0:0:0:
343,266,2898,2,0,P|336:304|359:355,1,83.9999974365235,0|0,0:0|0:0,0:0:0:0:
421,298,3348,1,0,0:0:0:0:
408,214,3498,6,0,P|375:190|325:184,1,83.9999974365235,2|0,0:0|0:0,0:0:0:0:
257,221,3947,1,0,0:0:0:0:
178,189,4097,2,0,P|168:163|175:93,1,83.9999974365235,0|0,0:0|0:0,0:0:0:0:
231,50,4547,1,0,0:0:0:0:
303,92,4697,1,2,0:0:0:0:
409,220,4997,5,0,0:0:0:0:
398,137,5146,1,0,0:0:0:0:
257,221,5596,1,0,0:0:0:0:
236,302,5746,1,0,0:0:0:0:
318,283,5896,6,0,P|337:238|306:149,1,146.999995513916,2|0,0:0|0:0,0:0:0:0:
238,101,6495,2,0,P|212:117|130:108,1,97.9999970092774,0|0,0:0|0:0,0:0:0:0:
75,71,6945,1,0,0:0:0:0:
63,153,7095,6,0,L|77:255,1,97.9999970092774,0|0,0:0|0:0,0:0:0:0:
148,293,7545,1,0,0:0:0:0:
213,240,7695,2,0,P|250:233|314:256,1,97.9999970092774,0|0,0:0|0:0,0:0:0:0:
375,297,8144,1,0,0:0:0:0:
432,236,8294,6,0,P|410:207|399:131,1,97.9999970092774,0|0,0:0|0:0,0:0:0:0:
344,82,8744,2,0,P|314:72|286:70,1,48.9999985046387,0|0,0:0|0:0,0:0:0:0:
300,153,9044,2,0,P|264:150|237:156,1,48.9999985046387,0|0,0:0|0:0,0:0:0:0:
173,182,9343,1,0,0:0:0:0:
128,111,9493,5,2,0:0:0:0:
62,247,11742,6,0,P|41:193|71:109,1,140,4|0,0:0|0:0,0:0:0:0:
144,60,12191,2,0,L|233:55,1,70,8|0,0:0|0:0,0:0:0:0:
297,108,12491,2,0,L|366:111,1,70,8|0,0:0|0:0,0:0:0:0:
419,194,12791,2,0,L|350:191,1,70,8|0,0:0|0:0,0:0:0:0:
257,227,13090,6,0,P|240:264|268:368,1,140,12|8,0:0|0:0,0:0:0:0:
333,292,13540,1,0,0:0:0:0:
281,208,13690,2,0,L|212:205,1,70,8|0,0:0|0:0,0:0:0:0:
142,276,13990,2,0,L|73:279,1,70,8|4,0:0|0:0,0:0:0:0:
97,84,14439,5,0,0:0:0:0:
61,175,14589,2,0,L|130:172,1,70,8|0,0:0|0:0,0:0:0:0:
212,116,14889,2,0,L|281:119,1,70,8|0,0:0|0:0,0:0:0:0:
378,141,15189,2,0,P|395:184|393:238,1,70,8|0,0:0|0:0,0:0:0:0:
298,203,15489,6,0,P|277:235|304:342,1,140,12|8,0:0|0:0,0:0:0:0:
386,359,15938,1,0,0:0:0:0:
465,301,16088,2,0,L|550:297,2,70,0|0|0,0:0|0:0|0:0,0:0:0:0:
386,359,16538,6,0,P|330:367|232:322,1,140,14|8,0:0|0:0,0:0:0:0:
177,275,16988,2,0,P|129:271|85:288,1,70,10|0,0:0|0:0,0:0:0:0:
28,219,17287,2,0,P|12:171|53:74,1,140,10|0,0:0|0:0,0:0:0:0:
105,161,17737,1,10,0:0:0:0:
186,106,17887,6,0,P|202:155|192:200,1,70,0|0,0:0|0:0,0:0:0:0:
276,236,18187,1,10,0:0:0:0:
322,149,18337,1,0,0:0:0:0:
380,227,18486,2,0,L|464:217,2,70,10|10|8,0:0|0:0|0:0,0:0:0:0:
322,149,18936,6,0,P|306:98|386:46,1,140,14|0,0:0|0:0,0:0:0:0:
434,111,19386,2,0,P|467:129|509:134,1,70,10|0,0:0|0:0,0:0:0:0:
477,230,19686,2,0,P|461:287|366:333,1,140,10|10,0:0|0:0,0:0:0:0:
311,283,20135,1,0,0:0:0:0:
232,342,20285,6,0,P|214:299|219:256,1,70,2|0,0:0|0:0,0:0:0:0:
236,180,20585,2,0,P|233:145|217:114,1,70,10|0,0:0|0:0,0:0:0:0:
138,56,20885,1,8,0:0:0:0:
124,153,21035,2,0,B|118:195|106:220|106:220|128:241|102:277|107:287,1,140,8|4,0:0|0:0,0:0:0:0:
107,286,21784,6,0,P|151:267|245:302,1,125.999996154785,8|8,0:0|1:0,0:0:0:0:
293,339,22234,1,0,0:0:0:0:
359,280,22384,2,0,L|361:199,1,62.9999980773926,0|8,1:0|0:0,0:0:0:0:
295,157,22683,2,0,P|286:115|354:42,1,125.999996154785,0|8,0:0|0:0,0:0:0:0:
399,104,23133,1,0,0:0:0:0:
475,59,23283,2,0,P|486:110|477:139,2,62.9999980773926,10|8|8,0:0|0:0|0:0,0:0:0:0:
399,104,23733,1,12,0:0:0:0:
399,104,24182,6,0,P|366:143|287:155,1,125.999996154785,8|8,0:0|0:0,0:0:0:0:
219,110,24632,1,0,0:0:0:0:
149,164,24782,2,0,P|139:213|156:251,1,62.9999980773926,0|8,0:0|0:0,0:0:0:0:
217,269,25081,2,0,P|179:302|143:313,1,62.9999980773926,0|0,0:0|0:0,0:0:0:0:
294,228,25381,2,0,L|368:238,1,62.9999980773926,0|0,0:0|0:0,0:0:0:0:
415,302,25681,1,0,0:0:0:0:
488,253,25831,2,0,P|479:193|483:116,1,125.999996154785,10|4,0:0|0:0,0:0:0:0:
481,127,26580,6,0,P|424:103|363:115,1,125.999996154785,8|0,0:0|0:0,0:0:0:0:
283,153,27030,1,0,0:0:0:0:
210,102,27180,2,0,P|194:147|200:179,1,62.9999980773926,8|8,0:0|0:0,0:0:0:0:
245,234,27480,2,0,P|233:275|137:319,1,125.999996154785,0|0,0:0|0:0,0:0:0:0:
96,265,27929,1,8,0:0:0:0:
13,297,28079,2,0,P|5:336|22:376,1,62.9999980773926,0|0,0:0|0:0,0:0:0:0:
96,265,28379,2,0,P|101:234|93:204,1,62.9999980773926,0|0,0:0|0:0,0:0:0:0:
48,127,28679,6,0,P|92:96|186:107,1,125.999996154785,12|0,0:0|0:0,0:0:0:0:
228,153,29128,1,0,0:0:0:0:
295,96,29278,2,0,L|378:88,1,62.9999980773926,8|8,0:0|0:0,0:0:0:0:
430,140,29578,2,0,L|492:146,1,62.9999980773926,0|10,0:0|0:0,0:0:0:0:
350,175,29878,6,0,P|333:207|358:310,1,125.999996154785,8|0,0:0|0:0,0:0:0:0:
283,357,30328,1,10,0:0:0:0:
216,300,30477,1,8,0:0:0:0:
142,349,30627,2,0,P|127:289|156:235,1,125.999996154785,12|12,0:0|0:0,0:0:0:0:
156,234,31377,6,0,P|177:194|145:96,1,125.999996154785,8|8,0:0|0:0,0:0:0:0:
93,170,31826,1,0,0:0:0:0:
135,92,31976,2,0,L|225:74,1,62.9999980773926,8|0,0:0|1:0,0:0:0:0:
270,129,32276,2,0,P|316:140|401:100,1,125.999996154785,0|0,0:0|0:0,0:0:0:0:
451,51,32726,1,0,0:0:0:0:
499,124,32876,2,0,L|494:206,2,62.9999980773926,10|8|8,0:0|0:0|0:0,0:0:0:0:
408,205,33325,1,12,0:0:0:0:
408,205,33625,5,0,0:0:0:0:
408,205,33775,2,0,P|394:250|425:337,1,125.999996154785,8|0,0:0|0:0,0:0:0:0:
342,376,34225,1,8,0:0:0:0:
268,326,34375,1,8,0:0:0:0:
233,245,34524,2,0,L|236:155,1,62.9999980773926,0|0,0:0|0:0,0:0:0:0:
146,143,34824,2,0,L|149:206,1,62.9999980773926,8|0,0:0|0:0,0:0:0:0:
215,86,35124,2,0,P|257:66|352:95,1,125.999996154785,0|10,0:0|0:0,0:0:0:0:
390,147,35574,2,0,L|463:138,1,62.9999980773926,8|12,0:0|0:0,0:0:0:0:
306,160,36173,6,0,P|292:197|338:292,1,125.999996154785,8|8,0:0|0:0,0:0:0:0:
259,343,36623,1,0,0:0:0:0:
183,297,36773,2,0,L|96:306,1,62.9999980773926,8|0,0:0|0:0,0:0:0:0:
133,215,37073,2,0,P|102:179|114:91,1,125.999996154785,0|0,0:0|0:0,0:0:0:0:
171,45,37522,1,8,0:0:0:0:
249,85,37672,2,0,L|326:74,1,62.9999980773926,0|12,0:0|0:0,0:0:0:0:
385,27,37972,2,0,L|447:35,1,62.9999980773926,0|0,0:0|0:0,0:0:0:0:
403,113,38272,6,0,P|421:161|394:246,1,125.999996154785,12|0,0:0|0:0,0:0:0:0:
338,174,38721,1,0,0:0:0:0:
283,243,38871,2,0,P|275:285|289:321,1,62.9999980773926,8|8,0:0|0:0,0:0:0:0:
194,227,39171,2,0,P|198:196|190:165,1,62.9999980773926,0|10,0:0|0:0,0:0:0:0:
109,202,39471,2,0,P|70:217|43:310,2,125.999996154785,8|0|8,0:0|0:0|0:0,0:0:0:0:
174,142,40220,1,8,3:0:0:0:
122,62,40370,2,0,L|81:56,3,31.4999990386963,8|0|0|0,3:0|0:0|0:0|0:0,0:0:0:0:
152,64,40670,6,0,P|193:63|294:22,1,140,14|8,0:0|0:0,0:0:0:0:
371,73,41119,1,0,0:0:0:0:
313,152,41269,2,0,P|301:201|315:239,1,70,10|0,0:0|0:0,0:0:0:0:
372,290,41569,1,0,0:0:0:0:
288,341,41719,6,0,L|123:334,1,140,10|10,0:0|0:0,0:0:0:0:
73,270,42169,1,0,0:0:0:0:
162,229,42319,1,8,0:0:0:0:
82,172,42468,2,0,P|70:124|114:30,1,140,0|6,0:0|0:0,0:0:0:0:
101,41,43068,6,0,L|180:37,1,70,14|0,0:0|0:0,0:0:0:0:
250,96,43368,1,8,0:0:0:0:
337,52,43518,2,0,P|347:105|336:149,1,70,10|0,0:0|0:0,0:0:0:0:
273,187,43817,2,0,P|263:240|274:284,1,70,8|0,0:0|0:0,0:0:0:0:
360,229,44117,6,0,P|401:220|485:288,2,140,10|10|8,0:0|0:0|0:0,0:0:0:0:
286,294,44867,2,0,L|132:285,1,140,8|14,0:0|0:0,0:0:0:0:
146,285,45466,6,0,P|123:233|128:189,1,70,12|0,0:0|0:0,0:0:0:0:
165,132,45766,1,8,0:0:0:0:
95,62,45916,2,0,P|151:96|245:80,1,140,10|8,0:0|0:0,0:0:0:0:
307,39,46366,1,0,0:0:0:0:
372,110,46515,6,0,L|385:201,1,70,10|0,0:0|0:0,0:0:0:0:
328,262,46815,2,0,P|376:275|478:220,1,140,8|10,0:0|0:0,0:0:0:0:
458,343,47265,2,0,P|405:359|368:359,1,70,8|0,0:0|0:0,0:0:0:0:
295,332,47565,2,0,P|242:316|205:316,1,70,14|0,0:0|0:0,0:0:0:0:
139,357,47864,6,0,P|131:303|201:219,1,140,14|8,0:0|0:0,0:0:0:0:
259,184,48314,2,0,P|272:133|257:86,1,70,10|0,0:0|0:0,0:0:0:0:
162,69,48614,2,0,P|161:104|173:137,1,70,8|0,0:0|0:0,0:0:0:0:
250,25,48914,2,0,L|403:15,2,140,10|10|0,0:0|0:0|0:0,0:0:0:0:
162,69,49663,2,0,L|79:64,2,70,8|0|4,0:0|0:0|3:0,0:0:0:0:
313,113,50263,6,0,P|337:150|330:231,1,112,12|0,0:0|0:0,0:0:0:0:
299,297,50712,2,0,P|354:300|402:273,1,112,0|0,0:0|0:0,0:0:0:0:
490,289,51162,1,0,0:0:0:0:
490,289,51462,6,0,P|471:233|487:127,1,168,8|8,0:0|0:0,0:0:0:0:
427,60,52061,1,0,0:0:0:0:
339,42,52211,1,0,0:0:0:0:
366,127,52361,1,0,0:0:0:0:
366,127,52661,6,0,P|323:132|257:81,1,112,12|0,0:0|0:0,0:0:0:0:
199,37,53110,2,0,L|75:49,1,112,0|0,0:0|0:0,0:0:0:0:
55,132,53560,2,0,L|0:136,1,56,0|0,0:0|0:0,0:0:0:0:
144,126,53860,6,0,P|157:164|139:253,1,112,8|0,0:0|0:0,0:0:0:0:
238,246,54310,2,0,P|225:284|243:373,1,112,8|0,0:0|0:0,0:0:0:0:
307,303,54759,1,0,0:3:0:0:
307,303,55059,6,0,P|354:301|423:242,1,125.999996154785,8|8,0:0|0:0,0:0:0:0:
361,184,55509,2,0,P|355:136|372:99,1,62.9999980773926,0|8,0:0|0:0,0:0:0:0:
441,153,55808,1,0,0:0:0:0:
420,67,55958,2,0,P|383:44|293:65,1,125.999996154785,8|8,0:0|1:2,0:0:0:0:
236,112,56408,1,0,0:0:0:0:
158,70,56558,6,0,L|86:65,1,62.9999980773926,0|0,0:0|0:0,0:0:0:0:
120,157,56858,2,0,P|101:204|123:291,2,125.999996154785,12|8|12,0:0|1:2|1:2,0:0:0:0:
256,192,57532,12,12,59855,0:0:0:0:
43,130,60755,6,0,P|37:152|38:184,4,45.4999979171754,8|0|0|0|12,3:0|3:0|3:0|3:0|3:0,0:0:0:0:
43,130,62104,6,0,P|92:109|209:144,1,154.000004699707,12|0,0:0|0:0,0:0:0:0:
253,192,62553,2,0,P|308:203|360:187,1,77.0000023498536,10|0,0:0|0:0,0:0:0:0:
300,111,62853,1,8,0:0:0:0:
377,60,63003,2,0,L|466:48,1,77.0000023498536,2|10,0:0|0:0,0:0:0:0:
433,140,63303,6,0,P|450:195|411:301,1,154.000004699707,14|0,0:0|0:0,0:0:0:0:
352,344,63752,2,0,L|268:340,1,77.0000023498536,10|0,0:0|0:0,0:0:0:0:
183,325,64052,1,0,0:0:0:0:
114,262,64202,2,0,P|93:294|88:332,1,77.0000023498536,8|10,0:0|0:0,0:0:0:0:
202,232,64502,6,0,P|154:177|50:189,1,154.000004699707,14|0,0:0|0:0,0:0:0:0:
8,110,64952,2,0,P|0:64|21:18,1,77.0000023498536,10|0,0:0|0:0,0:0:0:0:
92,75,65251,1,8,0:0:0:0:
184,72,65401,2,0,L|281:69,1,77.0000023498536,0|8,0:0|0:0,0:0:0:0:
344,110,65701,6,0,P|365:147|337:262,1,154.000004699707,6|0,0:0|0:0,0:0:0:0:
436,274,66151,2,0,P|434:319|459:359,1,77.0000023498536,10|0,0:0|0:0,0:0:0:0:
355,336,66450,2,0,L|266:337,1,77.0000023498536,8|0,0:0|0:0,0:0:0:0:
203,280,66750,1,8,0:0:0:0:
111,350,66900,6,0,P|123:298|94:192,1,154.000004699707,14|0,0:0|0:0,0:0:0:0:
120,111,67350,2,0,P|149:84|207:71,1,77.0000023498536,10|0,0:0|0:0,0:0:0:0:
196,163,67650,2,0,P|225:190|283:203,1,77.0000023498536,8|0,0:0|0:0,0:0:0:0:
329,141,67949,1,10,0:0:0:0:
406,89,68099,6,0,L|486:82,1,77.0000023498536,14|0,0:0|0:0,0:0:0:0:
454,170,68399,1,0,0:0:0:0:
486,256,68549,2,0,L|406:249,1,77.0000023498536,10|0,0:0|0:0,0:0:0:0:
320,277,68849,2,0,P|295:323|300:370,2,77.0000023498536,8|0|10,0:0|0:0|0:0,0:0:0:0:
339,186,69298,6,0,P|287:156|194:164,1,154.000004699707,14|8,0:0|0:0,0:0:0:0:
122,220,69748,2,0,P|104:171|117:117,1,77.0000023498536,10|0,0:0|0:0,0:0:0:0:
77,58,70048,2,0,L|-1:47,2,77.0000023498536,10|0|0,0:0|0:0|0:0,0:0:0:0:
105,147,70497,6,0,P|165:148|240:79,1,154.000004699707,14|0,0:0|0:0,0:0:0:0:
313,39,70947,2,0,L|404:34,1,77.0000023498536,10|8,0:0|0:0,0:0:0:0:
354,120,71247,1,8,0:0:0:0:
359,212,71397,1,8,0:0:0:0:
359,212,71697,6,0,P|378:249|333:361,1,154.000004699707,14|0,0:0|0:0,0:0:0:0:
291,277,72146,2,0,L|204:267,1,77.0000023498536,10|0,0:0|0:0,0:0:0:0:
128,304,72446,2,0,L|51:312,2,77.0000023498536,8|0|10,0:0|0:0|0:0,0:0:0:0:
205,251,72896,6,0,P|225:202|182:109,1,154.000004699707,14|0,0:0|0:0,0:0:0:0:
102,151,73345,2,0,P|95:113|103:76,1,77.0000023498536,10|8,0:0|0:0,0:0:0:0:
180,23,73645,1,0,0:0:0:0:
257,73,73795,1,0,0:0:0:0:
346,51,73945,1,10,0:0:0:0:
317,147,74095,6,0,P|297:219|334:284,1,154.000004699707,14|0,0:0|0:0,0:0:0:0:
422,259,74544,2,0,P|424:312|393:358,1,77.0000023498536,10|0,0:0|0:0,0:0:0:0:
334,284,74844,2,0,L|168:280,1,154.000004699707,8|10,0:0|0:0,0:0:0:0:
109,340,75294,6,0,P|88:288|156:193,1,154.000004699707,14|0,0:0|0:0,0:0:0:0:
186,132,75743,2,0,P|202:78|188:36,1,77.0000023498536,10|0,0:0|0:0,0:0:0:0:
107,78,76043,2,0,L|6:85,2,77.0000023498536,8|0|8,0:0|0:0|0:0,0:0:0:0:
191,39,76493,6,0,L|361:50,1,154.000004699707,14|0,0:0|0:0,0:0:0:0:
422,100,76943,2,0,P|430:143|410:202,1,77.0000023498536,10|0,0:0|0:0,0:0:0:0:
353,234,77242,2,0,P|345:277|365:336,2,77.0000023498536,8|0|0,0:0|0:0|0:0,0:0:0:0:
333,142,77692,6,0,L|167:157,1,154.000004699707,14|0,0:0|0:0,0:0:0:0:
110,93,78142,2,0,L|33:99,1,77.0000023498536,10|0,0:0|0:0,0:0:0:0:
80,180,78441,1,8,3:0:0:0:
93,272,78591,1,12,0:0:0:0:
93,272,78891,6,0,P|145:260|250:329,1,154.000004699707,14|0,0:0|0:0,0:0:0:0:
312,349,79341,2,0,P|357:350|407:315,1,77.0000023498536,10|0,0:0|0:0,0:0:0:0:
332,260,79641,1,8,0:0:0:0:
315,169,79790,1,8,0:0:0:0:
357,87,79940,2,0,P|314:78|259:95,1,77.0000023498536,0|8,0:0|0:0,0:0:0:0:
203,131,80240,1,4,0:0:0:0:
203,131,81289,6,0,P|161:136|90:53,1,140,12|8,0:0|0:0,0:0:0:0:
20,141,81739,2,0,L|15:226,1,70,8|0,0:0|0:0,0:0:0:0:
81,284,82039,2,0,L|86:369,1,70,8|0,0:0|0:0,0:0:0:0:
157,242,82339,2,0,P|135:215|105:199,1,70,8|0,0:0|0:0,0:0:0:0:
155,330,82638,6,0,L|299:316,1,140,12|8,0:0|0:0,0:0:0:0:
364,257,83088,1,0,0:0:0:0:
309,184,83238,2,0,L|305:106,2,70,8|0|8,0:0|0:0|0:0,0:0:0:0:
399,171,83688,6,0,P|445:133|431:42,1,140,12|0,0:0|0:0,0:0:0:0:
368,6,84137,2,0,L|288:0,1,70,8|0,0:0|0:0,0:0:0:0:
232,65,84437,2,0,L|162:70,1,70,8|0,0:0|0:0,0:0:0:0:
86,120,84737,2,0,P|76:154|82:188,1,70,8|0,0:0|0:0,0:0:0:0:
155,244,85037,6,0,P|102:275|8:249,1,140,12|8,0:0|0:0,0:0:0:0:
157,160,85486,1,0,0:0:0:0:
157,160,85636,2,0,L|246:171,1,70,8|0,3:0|0:0,0:0:0:0:
293,231,85936,2,0,L|362:222,1,70,0|12,3:0|3:1,0:0:0:0:
256,192,86161,12,0,88484,0:0:0:0:
