osu file format v14

[General]
AudioFilename: audio.mp3
AudioLeadIn: 0
PreviewTime: 63187
Countdown: 0
SampleSet: None
StackLeniency: 0.5
Mode: 0
LetterboxInBreaks: 0
WidescreenStoryboard: 0

[Editor]
Bookmarks: 36787
DistanceSpacing: 0.9
BeatDivisor: 4
GridSize: 4
TimelineZoom: 2.1

[Metadata]
Title:Can Do (TV Size)
TitleUnicode:Can Do (TV Size)
Artist:GRANRODEO
ArtistUnicode:GRANRODEO
Creator:Monstrata
Version:Extra: Midorima
Source:黒子のバスケ
Tags:kuroko no basuke basket the basketball which plays akashi midorima kise aomine murasakibara kagami season one opening theme
BeatmapID:1060576
BeatmapSetID:493273

[Difficulty]
HPDrainRate:6
CircleSize:6
OverallDifficulty:10
ApproachRate:9.3
SliderMultiplier:2
SliderTickRate:1

[Events]
//Background and Video events
0,0,"1b2dc54b-b50b-469c-c6f0-dcaac930cdc0.jpg",0,0
//Break Periods
//Storyboard Layer 0 (Background)
//Storyboard Layer 1 (Fail)
//Storyboard Layer 2 (Pass)
//Storyboard Layer 3 (Foreground)
//Storyboard Sound Samples

[TimingPoints]
-263,300,4,2,1,50,1,0
637,-133.333333333333,4,2,1,50,0,0
4237,-133.333333333333,5,2,1,55,0,0
5737,-100,5,3,1,70,0,0
8737,-100,4,3,0,55,0,0
9187,-100,4,3,1,70,0,0
21337,-100,4,3,2,70,0,0
22537,-133.333333333333,4,2,1,55,0,0
29737,-133.333333333333,4,3,0,45,0,0
32137,-100,4,3,1,70,0,0
41137,-100,4,3,0,40,0,0
41737,-133.333333333333,4,3,0,55,0,0
46087,-133.333333333333,4,3,0,65,0,0
46537,-133.333333333333,4,3,0,55,0,0
51337,-133.333333333333,4,2,1,60,0,0
53737,-125,4,2,1,60,0,0
56137,-100,4,3,1,60,0,0
62137,-100,4,3,1,45,0,0
62737,-166.666666666667,4,3,1,70,0,0
63337,-100,4,3,1,85,0,1
73537,-100,4,3,0,75,0,1
73687,-100,4,3,1,85,0,1
74737,-100,4,3,0,75,0,1
74887,-100,4,3,1,85,0,1
75937,-100,4,3,0,75,0,1
76087,-100,4,3,1,85,0,1
77137,-100,4,3,0,75,0,1
77287,-100,4,3,1,85,0,1
82537,-100,4,3,1,75,0,1
86437,-100,4,3,0,65,0,1
86537,-100,4,3,1,75,0,1
89437,-100,4,3,1,70,0,0

[Colours]
Combo1 : 0,142,0
Combo2 : 0,236,0

[HitObjects]
194,368,637,6,0,P|226:353|251:317,1,75.0000028610231,0|0,0:0|0:0,0:0:0:0:
180,293,937,5,2,0:0:0:0:
166,218,1087,1,0,0:0:0:0:
233,181,1237,2,0,L|339:193,1,75.0000028610231,0|0,0:0|0:0,0:0:0:0:
176,67,1537,2,0,L|167:141,1,75.0000028610231,2|0,0:0|0:0,0:0:0:0:
166,218,1837,1,0,0:0:0:0:
100,178,1987,1,0,0:0:0:0:
98,255,2137,6,0,L|106:329,1,75.0000028610231,2|0,0:0|0:0,0:0:0:0:
166,218,2437,2,0,L|174:292,1,75.0000028610231,0|0,0:0|0:0,0:0:0:0:
233,181,2737,2,0,L|241:255,1,75.0000028610231,2|0,0:0|0:0,0:0:0:0:
167,141,3037,1,0,0:0:0:0:
213,81,3187,1,0,0:0:0:0:
259,21,3337,6,0,B|288:13|288:13|338:35,1,75.0000028610231,2|0,0:0|0:0,0:0:0:0:
357,100,3637,2,0,B|328:108|328:108|287:90,1,75.0000028610231,0|0,0:0|0:0,0:0:0:0:
406,45,3937,2,0,P|427:74|430:113,1,75.0000028610231,2|0,0:0|0:0,0:0:0:0:
332,225,4237,1,2,0:0:0:0:
381,169,4387,1,0,0:0:0:0:
506,233,4537,6,0,L|432:225,1,75.0000028610231,2|0,0:0|0:0,0:0:0:0:
451,369,4837,1,2,0:0:0:0:
459,294,4987,1,0,0:0:0:0:
272,374,5137,2,0,P|217:374|176:339,1,112.500004291535,2|0,0:0|0:0,0:0:0:0:
167,282,5437,2,0,P|210:303|178:339,1,112.500004291535,2|0,0:0|0:0,0:0:0:0:
81,346,5737,6,0,B|115:328|115:328|194:342,1,100,4|0,0:1|0:0,0:0:0:0:
97,271,6037,2,0,B|63:289|63:289|-16:275,1,100,8|0,0:0|0:0,0:0:0:0:
111,196,6337,1,2,0:0:0:0:
125,121,6487,1,0,0:0:0:0:
186,183,6637,1,8,0:0:0:0:
200,108,6787,1,0,0:0:0:0:
111,196,6937,6,0,B|78:183|78:183|30:93,1,100,2|0,0:0|0:0,0:0:0:0:
61,51,7237,2,0,B|94:64|94:64|142:154,1,100,8|0,0:0|0:0,0:0:0:0:
172,258,7537,1,2,0:0:0:0:
186,183,7687,1,2,0:0:0:0:
158,333,7837,1,8,0:0:0:0:
97,271,7987,1,0,0:0:0:0:
247,245,8137,6,0,B|277:231|306:245|306:245|375:244,1,100,4|0,0:1|0:0,0:0:0:0:
424,179,8437,2,0,B|394:165|365:179|365:179|296:178,1,100,8|0,0:0|0:0,0:0:0:0:
274,303,8737,1,8,0:0:0:0:
351,114,8887,1,8,0:0:0:0:
156,274,9037,1,4,0:0:0:0:
469,141,9187,1,4,0:2:0:0:
469,141,9487,5,2,0:0:0:0:
231,52,9637,1,8,0:0:0:0:
274,303,9787,1,2,0:0:0:0:
296,0,9937,1,8,0:0:0:0:
209,355,10087,2,0,B|273:372|273:372|337:355|337:355|402:370,1,200,4|0,0:1|0:0,0:0:0:0:
109,370,10537,5,4,0:1:0:0:
512,192,10837,1,8,0:0:0:0:
429,156,10987,1,0,0:0:0:0:
418,66,11137,1,2,0:0:0:0:
490,12,11287,1,0,0:0:0:0:
501,102,11437,1,8,0:0:0:0:
0,192,11737,5,2,0:0:0:0:
407,336,12037,1,8,0:0:0:0:
490,300,12187,1,0,0:0:0:0:
418,246,12337,1,2,0:0:0:0:
429,156,12487,1,2,0:0:0:0:
501,210,12637,1,8,0:0:0:0:
0,384,12937,5,2,0:0:0:0:
256,0,13237,1,8,0:0:0:0:
224,84,13387,1,0,0:0:0:0:
284,148,13537,1,2,0:0:0:0:
252,232,13687,1,0,0:0:0:0:
366,133,13837,1,8,0:0:0:0:
0,0,14137,6,0,L|22:117,1,100,2|2,0:0|0:0,0:0:0:0:
68,384,14437,2,0,L|158:306,1,100,8|0,0:0|0:0,0:0:0:0:
366,133,14737,2,0,L|243:152,1,100,2|2,0:0|0:0,0:0:0:0:
0,192,15037,2,0,L|98:175,1,100,8|2,0:0|0:0,0:0:0:0:
512,192,15337,5,4,0:1:0:0:
68,384,15637,1,8,0:0:0:0:
19,310,15787,1,0,0:0:0:0:
74,240,15937,1,2,0:0:0:0:
156,271,16087,1,2,0:0:0:0:
152,360,16237,1,8,0:0:0:0:
360,24,16537,5,2,0:0:0:0:
512,384,16837,1,8,0:0:0:0:
492,296,16987,1,2,0:0:0:0:
408,324,17137,1,2,0:0:0:0:
388,236,17287,1,2,0:0:0:0:
304,264,17437,1,8,0:0:0:0:
284,176,17587,1,2,0:0:0:0:
200,204,17737,5,2,0:0:0:0:
235,30,17887,1,2,0:0:0:0:
368,148,18037,1,8,0:0:0:0:
20,384,18337,1,2,0:0:0:0:
235,30,18637,1,8,0:0:0:0:
67,87,18787,1,4,0:2:0:0:
67,87,19087,5,2,0:0:0:0:
200,204,19237,1,8,0:0:0:0:
235,30,19387,1,2,0:0:0:0:
31,260,19537,1,8,0:0:0:0:
369,148,19687,1,4,0:1:0:0:
369,148,20137,5,2,0:0:0:0:
308,140,20287,1,0,0:0:0:0:
252,207,20437,5,2,0:0:0:0:
331,196,20587,1,0,0:0:0:0:
379,256,20737,5,2,0:0:0:0:
293,244,20887,1,0,0:0:0:0:
233,300,21037,5,2,0:0:0:0:
330,287,21187,1,0,0:0:0:0:
386,345,21337,6,0,L|390:394,1,50,2|0,0:0|2:0,0:0:0:0:
286,325,21487,2,0,L|291:383,1,50,2|2,0:0|0:0,0:0:0:0:
233,300,21637,6,0,L|229:349,1,50,2|0,0:0|2:0,0:0:0:0:
330,287,21787,2,0,L|326:336,1,50,2|0,0:0|2:0,0:0:0:0:
379,256,21937,5,8,0:3:0:0:
307,175,22087,1,6,0:2:0:0:
413,198,22237,1,0,0:0:0:0:
314,242,22387,1,0,0:0:0:0:
368,148,22537,6,0,P|399:126|436:124,2,75.0000028610231,4|0|0,0:2|0:0|1:0,0:0:0:0:
190,294,23137,1,0,1:0:0:0:
249,70,23437,1,2,1:2:0:0:
332,285,23737,2,0,L|255:269,1,75.0000028610231,2|0,1:2|0:0,0:0:0:0:
235,198,24037,1,0,1:0:0:0:
138,111,24187,2,0,L|215:127,1,75.0000028610231,2|0,0:2|1:0,0:0:0:0:
235,198,24487,1,2,0:0:0:0:
111,238,24637,1,0,1:0:0:0:
401,238,24937,5,2,1:2:0:0:
256,0,25237,1,0,1:0:0:0:
236,72,25387,1,0,0:0:0:0:
308,92,25537,1,0,1:0:0:0:
328,20,25687,1,0,0:0:0:0:
254,144,25837,1,0,1:0:0:0:
256,0,25987,1,0,0:0:0:0:
328,168,26137,6,0,B|361:184|361:184|435:170|435:170|461:138,1,150.000005722046,2|0,1:2|1:0,0:0:0:0:
384,102,26587,1,2,0:2:0:0:
256,384,26887,1,2,0:2:0:0:
128,102,27187,1,2,0:2:0:0:
184,168,27337,6,0,B|151:184|151:184|77:170|77:170|53:140,1,150.000005722046,2|2,1:2|1:2,0:0:0:0:
256,40,27937,1,2,1:2:0:0:
252,268,28237,1,2,1:2:0:0:
458,140,28537,6,0,B|435:170|435:170|361:184|361:184|328:168,1,150.000005722046,2|2,1:2|0:3,0:0:0:0:
253,74,28987,2,0,B|286:58|286:58|360:72|360:72|383:101,1,150.000005722046,2|0,0:0|0:0,0:0:0:0:
464,48,29437,2,0,L|396:60,2,37.5000014305115,8|8|4,0:3|0:3|0:3,0:0:0:0:
380,8,29737,6,0,L|437:179,1,150.000005722046,8|2,0:0|0:0,0:0:0:0:
380,376,30187,2,0,L|437:205,1,150.000005722046,4|2,0:1|0:0,0:0:0:0:
132,8,30637,2,0,L|75:179,1,150.000005722046,8|2,0:0|0:0,0:0:0:0:
132,376,31087,2,0,L|84:233,1,150.000005722046,4|2,0:1|0:0,0:0:0:0:
256,48,31537,5,8,0:0:0:0:
256,336,31837,1,8,0:0:0:0:
512,196,32137,5,4,0:2:0:0:
132,8,32437,1,8,0:0:0:0:
152,96,32587,1,0,0:0:0:0:
92,160,32737,1,2,0:0:0:0:
156,220,32887,1,2,0:0:0:0:
140,308,33037,1,8,0:0:0:0:
228,324,33187,1,0,0:0:0:0:
322,243,33337,6,0,B|332:280|332:280|316:340,1,100,2|0,0:0|0:0,0:0:0:0:
296,168,33637,1,8,0:0:0:0:
374,182,33787,2,0,B|405:298,1,100,2|0,0:0|0:0,0:0:0:0:
296,168,34087,1,2,0:0:0:0:
425,120,34237,2,0,B|442:183|442:183|484:225,1,100,8|2,0:0|0:0,0:0:0:0:
476,58,34537,5,2,0:0:0:0:
396,44,34687,1,0,0:0:0:0:
343,106,34837,1,8,0:0:0:0:
315,29,34987,1,2,0:0:0:0:
266,134,35137,1,0,0:0:0:0:
238,57,35287,1,2,0:0:0:0:
185,119,35437,1,8,0:0:0:0:
176,4,35587,1,2,0:0:0:0:
123,66,35737,6,0,B|101:93|101:93|101:195,1,100,2|0,0:0|0:0,0:0:0:0:
101,248,36037,1,8,0:0:0:0:
207,301,36187,2,0,B|185:274|185:274|185:172,1,100,2|0,0:0|0:0,0:0:0:0:
185,119,36487,1,2,0:0:0:0:
267,14,36637,2,0,L|267:156,1,100,8|0,0:0|0:0,0:0:0:0:
101,158,36937,5,4,0:2:0:0:
411,158,37237,1,8,0:0:0:0:
85,226,37537,1,2,0:0:0:0:
426,226,37837,1,8,0:0:0:0:
69,294,38137,1,2,0:0:0:0:
443,294,38437,1,8,0:0:0:0:
52,362,38737,1,2,0:0:0:0:
460,362,39037,1,8,0:0:0:0:
256,8,39337,5,4,0:2:0:0:
222,184,39487,1,0,0:0:0:0:
391,125,39637,1,8,0:0:0:0:
239,96,39787,1,0,0:0:0:0:
289,242,39937,1,2,0:0:0:0:
323,66,40087,1,2,0:0:0:0:
205,272,40237,1,2,0:0:0:0:
459,184,40387,1,8,0:0:0:0:
459,184,40687,6,0,L|445:291,1,100,2|8,0:0|0:0,0:0:0:0:
306,154,40987,2,0,L|320:261,1,100,2|8,0:0|0:0,0:0:0:0:
391,125,41287,1,8,0:0:0:0:
222,184,41437,2,0,L|100:227,1,100,8|0,0:0|0:0,0:0:0:0:
256,0,41737,5,4,0:2:0:0:
368,347,42037,1,2,0:0:0:0:
388,284,42187,1,8,0:0:0:0:
73,132,42487,1,0,0:0:0:0:
92,195,42637,1,8,0:0:0:0:
137,147,42787,1,8,0:0:0:0:
27,179,42937,5,4,0:0:0:0:
388,284,43237,1,0,0:0:0:0:
451,302,43387,1,8,0:0:0:0:
256,0,43687,1,0,0:0:0:0:
192,18,43837,1,4,0:0:0:0:
384,384,44137,5,4,0:2:0:0:
320,18,44437,1,0,0:0:0:0:
260,45,44587,1,8,0:0:0:0:
256,348,44887,1,0,0:0:0:0:
320,366,45037,1,4,0:2:0:0:
303,301,45187,1,0,0:0:0:0:
192,330,45337,5,8,0:0:0:0:
286,236,45487,2,0,B|360:224,1,75.0000028610231,4|0,0:0|0:0,0:0:0:0:
158,202,45787,2,0,B|232:190,1,75.0000028610231,4|0,0:0|0:0,0:0:0:0:
30,168,46087,2,0,P|92:134|58:34,1,187.500007152558,4|0,0:1|2:0,2:0:0:0:
32,99,46537,5,4,0:2:0:0:
323,383,46837,1,0,0:0:0:0:
351,321,46987,1,8,0:0:0:0:
150,24,47287,1,0,0:0:0:0:
236,65,47437,1,8,0:0:0:0:
172,88,47587,1,0,0:0:0:0:
214,1,47737,5,4,0:0:0:0:
0,328,48037,1,0,0:0:0:0:
61,356,48187,1,8,0:0:0:0:
420,204,48487,1,0,0:0:0:0:
359,232,48637,2,0,P|382:260|417:271,1,75.0000028610231,4|0,0:0|0:0,0:0:0:0:
422,136,48937,5,4,0:2:0:0:
56,206,49237,1,0,0:0:0:0:
28,267,49387,1,8,0:0:0:0:
387,293,49687,1,0,0:0:0:0:
359,232,49837,1,8,0:0:0:0:
348,347,49987,1,0,0:0:0:0:
426,239,50137,5,8,0:0:0:0:
56,206,50437,1,8,0:0:0:0:
503,131,50737,2,0,P|495:60|428:35,1,150.000005722046,4|0,0:2|0:0,0:0:0:0:
428,35,51337,5,6,1:2:0:0:
12,349,51787,1,2,0:0:0:0:
75,372,51937,1,2,1:2:0:0:
181,83,52237,1,2,0:0:0:0:
10,331,52537,5,8,0:3:0:0:
73,354,52687,1,2,0:0:0:0:
124,310,52837,1,2,0:0:0:0:
61,287,52987,1,0,0:0:0:0:
73,354,53137,1,6,1:2:0:0:
112,243,53287,2,0,P|160:253|184:285,1,75.0000028610231,2|2,0:0|0:0,0:0:0:0:
512,384,53737,5,6,1:2:0:0:
165,16,54187,1,2,0:0:0:0:
146,85,54337,1,2,1:2:0:0:
347,368,54637,1,2,0:0:0:0:
182,7,54937,5,8,0:3:0:0:
163,76,55087,1,2,0:0:0:0:
213,127,55237,1,2,0:0:0:0:
232,58,55387,1,0,0:0:0:0:
144,145,55537,1,6,1:2:0:0:
464,72,55837,1,2,0:0:0:0:
112,25,56137,5,2,0:0:0:0:
148,108,56287,1,0,0:0:0:0:
80,167,56437,1,8,0:0:0:0:
115,249,56587,1,0,0:0:0:0:
47,308,56737,1,8,0:0:0:0:
465,308,57037,1,0,0:0:0:0:
430,226,57187,1,4,0:2:0:0:
80,167,57487,5,2,0:0:0:0:
115,249,57637,1,8,1:3:0:0:
512,0,57937,1,8,1:3:0:0:
80,167,58237,1,8,1:3:0:0:
512,334,58537,5,2,0:0:0:0:
456,275,58687,1,2,0:0:0:0:
432,352,58837,1,4,0:1:0:0:
0,334,59137,5,0,1:0:0:0:
56,275,59287,1,0,1:0:0:0:
80,352,59437,1,4,1:1:0:0:
385,107,59737,5,2,0:0:0:0:
307,28,59887,1,2,0:0:0:0:
416,0,60037,1,4,0:1:0:0:
96,384,60337,5,0,1:0:0:0:
127,277,60487,1,0,1:0:0:0:
205,356,60637,1,4,1:1:0:0:
228,13,60937,5,8,0:0:0:0:
117,126,61087,1,2,0:0:0:0:
272,165,61237,1,2,1:3:0:0:
156,293,61387,5,8,0:0:0:0:
205,103,61537,1,2,0:0:0:0:
347,239,61687,1,2,1:3:0:0:
303,10,61837,5,8,1:3:0:0:
240,216,61987,1,0,0:0:0:0:
450,168,62137,1,4,0:1:0:0:
450,168,62737,6,0,P|501:201|422:192,1,209.999993591309,2|0,0:2|0:0,0:0:0:0:
344,148,63337,6,0,B|365:179|365:179|364:281,1,100,4|0,0:2|0:0,0:0:0:0:
294,203,63637,1,8,0:0:0:0:
394,93,63787,1,2,0:0:0:0:
0,192,64087,1,2,0:0:0:0:
50,137,64237,1,8,0:0:0:0:
22,262,64387,1,2,0:0:0:0:
386,311,64687,5,2,0:0:0:0:
364,241,64837,1,8,0:0:0:0:
336,365,64987,1,2,0:0:0:0:
100,82,65287,1,2,0:0:0:0:
76,160,65437,1,8,0:0:0:0:
154,184,65587,1,0,0:0:0:0:
178,106,65737,5,2,0:0:0:0:
512,384,66037,1,8,0:0:0:0:
464,308,66187,1,2,0:0:0:0:
505,228,66337,1,0,0:0:0:0:
457,152,66487,1,2,0:0:0:0:
498,72,66637,1,8,0:0:0:0:
408,76,66787,1,4,0:2:0:0:
103,315,67087,5,2,0:0:0:0:
118,229,67237,1,8,0:0:0:0:
186,285,67387,1,0,0:0:0:0:
174,161,67537,1,2,0:0:0:0:
272,299,67687,1,2,0:0:0:0:
242,217,67837,2,0,L|255:163,1,50,8|0,0:0|0:0,0:0:0:0:
186,285,67987,2,0,L|199:339,1,50,0|0,0:0|0:0,0:0:0:0:
87,146,68137,5,2,0:0:0:0:
425,146,68437,1,8,0:0:0:0:
48,214,68737,1,2,0:0:0:0:
464,214,69037,1,8,0:0:0:0:
87,282,69337,5,2,0:0:0:0:
425,282,69637,1,8,0:0:0:0:
48,350,69937,1,2,0:0:0:0:
464,350,70237,1,8,0:0:0:0:
48,214,70537,5,2,0:0:0:0:
408,0,70837,1,8,0:0:0:0:
346,66,70987,1,0,0:0:0:0:
462,174,71137,1,2,0:0:0:0:
435,87,71287,1,2,0:0:0:0:
435,261,71437,1,8,0:0:0:0:
37,80,71737,5,2,0:0:0:0:
48,214,71887,1,8,0:0:0:0:
210,132,72037,1,8,0:0:0:0:
76,143,72187,1,2,0:0:0:0:
158,305,72337,2,0,L|223:310,1,50,8|0,0:0|0:0,0:0:0:0:
97,210,72487,2,0,L|32:215,1,50,2|0,0:0|0:0,0:0:0:0:
76,337,72637,2,0,L|80:288,1,50,8|0,0:0|0:0,0:0:0:0:
175,227,72787,2,0,L|171:177,1,50,2|0,0:0|0:0,0:0:0:0:
256,384,72937,5,4,0:2:0:0:
400,25,73237,1,8,0:0:0:0:
455,95,73387,1,2,0:0:0:0:
421,176,73537,2,0,P|415:225|444:264,1,100,8|0,0:0|0:0,0:0:0:0:
67,264,73987,5,2,0:0:0:0:
400,25,74287,1,2,0:0:0:0:
366,107,74437,1,8,0:0:0:0:
455,95,74587,1,0,0:0:0:0:
311,37,74737,2,0,P|386:96|385:196,1,200,8|8,0:0|0:0,0:0:0:0:
0,384,75337,5,2,0:0:0:0:
24,297,75487,1,0,0:0:0:0:
111,274,75637,1,8,0:0:0:0:
135,187,75787,1,2,0:0:0:0:
512,384,76087,1,0,0:0:0:0:
429,347,76237,1,8,0:0:0:0:
502,293,76387,1,2,0:0:0:0:
159,100,76687,5,2,0:0:0:0:
134,186,76837,2,0,P|184:184|225:157,1,100,8|0,0:0|0:0,0:0:0:0:
95,35,77137,2,0,P|72:78|74:128,1,100,8|0,0:0|0:0,0:0:0:0:
246,77,77437,2,0,P|219:35|175:12,1,100,0|0,0:0|0:0,0:0:0:0:
53,212,77737,5,2,0:0:0:0:
459,172,78037,1,8,0:0:0:0:
417,251,78187,1,0,0:0:0:0:
464,326,78337,1,2,0:0:0:0:
506,247,78487,1,2,0:0:0:0:
375,330,78637,1,8,0:0:0:0:
0,0,78937,5,2,0:0:0:0:
75,49,79087,1,0,0:0:0:0:
51,134,79237,1,8,0:0:0:0:
461,250,79537,1,2,0:0:0:0:
437,335,79687,1,2,0:0:0:0:
512,384,79837,1,8,0:0:0:0:
291,91,80137,5,2,0:0:0:0:
181,116,80287,1,2,0:0:0:0:
226,306,80437,1,8,0:0:0:0:
336,281,80587,1,2,0:0:0:0:
213,7,80737,1,8,0:0:0:0:
148,225,80887,1,2,0:0:0:0:
369,172,81037,1,8,0:0:0:0:
181,116,81187,1,2,0:0:0:0:
256,384,81337,5,8,0:0:0:0:
512,0,81637,1,0,1:0:0:0:
0,192,81937,1,0,1:0:0:0:
512,192,82237,1,0,1:0:0:0:
0,0,82537,5,4,0:1:0:0:
108,384,82837,1,8,0:0:0:0:
164,312,82987,1,2,0:0:0:0:
254,324,83137,1,0,0:0:0:0:
220,241,83287,1,2,0:0:0:0:
131,228,83437,1,8,0:0:0:0:
512,28,83737,5,2,0:0:0:0:
429,64,83887,1,2,0:0:0:0:
421,154,84037,1,8,0:0:0:0:
16,307,84337,1,2,0:0:0:0:
48,222,84487,1,0,0:0:0:0:
101,339,84637,1,8,0:0:0:0:
133,254,84787,1,2,0:0:0:0:
186,371,84937,5,2,0:0:0:0:
295,0,85237,1,8,0:0:0:0:
259,82,85387,1,2,0:0:0:0:
325,141,85537,1,0,0:0:0:0:
402,95,85687,1,2,0:0:0:0:
383,9,85837,1,8,0:0:0:0:
0,192,86137,6,0,L|23:102,2,66.6666666666667,8|2|2,0:0|0:0|0:0,0:0:0:0:
92,160,86437,2,0,L|108:95,2,66.6666666666667,8|2|2,0:0|0:0|0:0,0:0:0:0:
177,196,86737,5,8,0:0:0:0:
226,48,86887,1,2,0:0:0:0:
382,53,87037,1,2,1:3:0:0:
426,201,87187,1,8,0:0:0:0:
299,289,87337,5,4,0:1:0:0:
256,192,87412,12,0,89437,0:0:0:0:
