osu file format v14

[General]
AudioFilename: audio.mp3
AudioLeadIn: 0
PreviewTime: 63187
Countdown: 0
SampleSet: None
StackLeniency: 0.5
Mode: 0
LetterboxInBreaks: 0
WidescreenStoryboard: 0

[Editor]
DistanceSpacing: 1
BeatDivisor: 4
GridSize: 4
TimelineZoom: 5.199997

[Metadata]
Title:Can Do (TV Size)
TitleUnicode:Can Do (TV Size)
Artist:GRANRODEO
ArtistUnicode:GRANRODEO
Creator:Monstrata
Version:Extra: Aomine
Source:黒子のバスケ
Tags:kuroko no basuke basket the basketball which plays akashi midorima kise aomine murasakibara kagami season one opening theme
BeatmapID:1055880
BeatmapSetID:493273

[Difficulty]
HPDrainRate:6
CircleSize:4
OverallDifficulty:9
ApproachRate:9.6
SliderMultiplier:2.4
SliderTickRate:1

[Events]
//Background and Video events
0,0,"702787.jpg",0,0
//Break Periods
//Storyboard Layer 0 (Background)
//Storyboard Layer 1 (Fail)
//Storyboard Layer 2 (Pass)
//Storyboard Layer 3 (Foreground)
//Storyboard Sound Samples

[TimingPoints]
-263,300,4,2,1,50,1,0
637,-133.333333333333,4,2,1,50,0,0
4237,-133.333333333333,5,2,1,55,0,0
5737,-100,5,3,1,70,0,0
8737,-100,4,3,0,55,0,0
9187,-100,4,3,2,70,0,0
9637,-80,4,3,2,70,0,0
9787,-66.6666666666667,4,3,2,70,0,0
9937,-57.1428571428571,4,3,2,70,0,0
10087,-50,4,3,2,70,0,0
10537,-83.3333333333333,4,3,2,70,0,0
19087,-66.6666666666667,4,3,2,70,0,0
20137,-133.333333333333,4,2,1,70,0,0
22087,-133.333333333333,4,2,1,70,0,0
22537,-133.333333333333,4,2,1,55,0,0
29737,-100,4,3,0,45,0,0
30187,-83.3333333333333,4,3,0,45,0,0
30637,-71.4285714285714,4,3,0,45,0,0
31087,-62.5,4,3,0,45,0,0
31537,-71.4285714285714,4,3,0,45,0,0
31837,-76.9230769230769,4,3,0,45,0,0
32137,-83.3333333333333,4,3,2,70,0,0
41137,-83.3333333333333,4,3,0,40,0,0
41737,-83.3333333333333,4,3,0,55,0,0
46087,-83.3333333333333,4,3,0,65,0,0
46537,-83.3333333333333,4,3,0,55,0,0
51337,-133.333333333333,4,2,1,60,0,0
53737,-125,4,2,1,60,0,0
56137,-100,4,3,2,60,0,0
59137,-90.9090909090909,4,3,2,60,0,0
59737,-83.3333333333333,4,3,2,60,0,0
60337,-76.9230769230769,4,3,2,60,0,0
60937,-71.4285714285714,4,3,2,60,0,0
61087,-66.6666666666667,4,3,2,60,0,0
61237,-62.5,4,3,2,60,0,0
61387,-58.8235294117647,4,3,2,60,0,0
61537,-55.5555555555556,4,3,2,60,0,0
61687,-52.6315789473684,4,3,2,60,0,0
61837,-50,4,3,2,60,0,0
62137,-50,4,3,2,45,0,0
62737,-100,4,3,2,70,0,0
62774,-100,4,3,2,50,0,0
63337,-76.9230769230769,4,3,2,85,0,1
72937,-100,4,3,2,85,0,1
73537,-100,4,3,0,75,0,1
73687,-100,4,3,2,85,0,1
74737,-100,4,3,0,75,0,1
74887,-100,4,3,2,85,0,1
75937,-100,4,3,0,75,0,1
76087,-100,4,3,2,85,0,1
77137,-100,4,3,0,75,0,1
77287,-100,4,3,2,85,0,1
77737,-76.9230769230769,4,3,2,85,0,1
80437,-55.5555555555556,4,3,2,85,0,1
80737,-43.4782608695652,4,3,2,85,0,1
81037,-35.7142857142857,4,3,2,85,0,1
81337,-30.3030303030303,4,3,2,85,0,1
81637,-35.7142857142857,4,3,2,85,0,1
81937,-43.4782608695652,4,3,2,85,0,1
82237,-55.5555555555556,4,3,2,85,0,1
82537,-76.9230769230769,4,3,2,75,0,1
86437,-76.9230769230769,4,3,0,65,0,1
86537,-76.9230769230769,4,3,2,75,0,1
89437,-100,4,3,2,70,0,0

[Colours]
Combo1 : 2,173,255
Combo2 : 0,0,255

[HitObjects]
302,53,637,6,0,P|330:83|340:144,1,90.0000034332276
170,129,937,6,0,P|180:86|210:53,1,90.0000034332276,2|0,0:0|0:0,0:0:0:0:
200,202,1237,1,0,0:0:0:0:
251,128,1387,1,0,0:0:0:0:
168,287,1537,1,2,0:0:0:0:
219,213,1687,1,0,0:0:0:0:
136,372,1837,2,0,L|35:362,1,90.0000034332276
256,293,2137,6,0,P|301:298|343:283,1,90.0000034332276,2|0,0:0|0:0,0:0:0:0:
401,207,2437,2,0,P|357:211|315:197,1,90.0000034332276
257,121,2737,2,0,P|301:125|343:110,1,90.0000034332276,2|0,0:0|0:0,0:0:0:0:
401,34,3037,2,0,P|356:38|314:23,1,90.0000034332276
111,34,3337,6,0,P|155:38|197:23,1,90.0000034332276,2|0,0:0|0:0,0:0:0:0:
172,121,3637,2,0,P|142:154|102:173,1,90.0000034332276
228,203,3937,2,0,P|272:207|314:192,1,90.0000034332276,2|0,0:0|0:0,0:0:0:0:
289,290,4237,2,0,P|259:323|219:342,1,90.0000034332276,2|0,0:0|0:0,0:0:0:0:
70,256,4537,6,0,L|160:262,1,90.0000034332276,2|0,0:0|0:0,0:0:0:0:
233,113,4837,2,0,L|226:234,1,90.0000034332276,2|0,0:0|0:0,0:0:0:0:
17,100,5137,2,0,L|76:167,1,90.0000034332276,2|0,0:0|3:0,0:0:0:0:
233,113,5437,2,0,L|142:193,1,90.0000034332276,2|0,0:0|0:0,0:0:0:0:
477,56,5737,6,0,P|389:50|322:107,1,180,4|0,0:1|0:0,0:0:0:0:
233,113,6037,2,0,P|320:106|387:164,1,180,8|0,0:0|0:0,0:0:0:0:
444,275,6337,2,0,L|385:261,1,60,2|0,0:0|2:0,0:0:0:0:
248,228,6488,2,0,L|306:214,1,60,0|0,0:0|2:0,0:0:0:0:
493,112,6637,2,0,P|493:201|443:274,1,180,8|0,0:0|0:0,0:0:0:0:
315,303,6937,6,0,L|434:297,1,120,2|0,0:0|0:0,0:0:0:0:
271,214,7237,2,0,B|292:321|292:321|259:384,1,180,8|0,0:0|0:0,0:0:0:0:
155,316,7537,2,0,P|184:319|213:311,1,60,2|0,0:0|2:0,0:0:0:0:
171,186,7687,2,0,P|179:214|175:244,1,60,2|0,0:0|2:0,0:0:0:0:
0,254,7837,2,0,P|47:220|106:223,1,120,8|0,0:0|0:0,0:0:0:0:
71,303,8062,1,0,0:0:0:0:
71,303,8137,6,0,L|86:98,1,180,4|0,0:1|0:0,0:0:0:0:
93,44,8437,2,0,L|106:223,1,180,8|0,0:0|0:0,0:0:0:0:
30,351,8737,2,0,L|89:341,1,60,8|0,0:0|0:0,0:0:0:0:
182,237,8887,2,0,L|241:246,1,60,8|0,0:0|0:0,0:0:0:0:
334,351,9037,2,0,L|393:341,1,60,4|0,0:0|0:0,0:0:0:0:
404,206,9187,6,0,P|400:294|333:350,1,180,4|0,0:2|0:0,0:0:0:0:
184,325,9487,2,0,L|243:334,1,60,2|0,0:0|0:0,0:0:0:0:
332,133,9637,2,0,L|221:149,1,75,8|0,0:0|0:0,0:0:0:0:
93,223,9787,2,0,L|181:236,1,90.0000034332277,2|0,0:0|0:0,0:0:0:0:
256,47,9937,2,0,L|152:62,1,105.000001001358,8|0,0:0|0:0,0:0:0:0:
0,314,10087,6,0,L|503:237,1,480,4|0,0:1|0:0,0:0:0:0:
257,144,10537,6,0,P|269:214|237:277,1,143.999995605469,4|0,0:1|0:0,0:0:0:0:
95,192,10837,2,0,L|167:198,1,71.9999978027344,8|0,0:0|2:0,0:0:0:0:
152,61,10987,2,0,L|48:76,1,71.9999978027344,0|0,0:0|2:0,0:0:0:0:
91,202,11137,2,0,L|162:207,1,71.9999978027344,2|0,0:0|2:0,0:0:0:0:
148,71,11287,2,0,L|44:86,1,71.9999978027344,0|0,0:0|2:0,0:0:0:0:
87,212,11437,2,0,L|158:217,1,71.9999978027344,8|0,0:0|2:0,0:0:0:0:
144,81,11587,2,0,L|40:96,1,71.9999978027344,0|0,0:0|2:0,0:0:0:0:
51,258,11737,6,0,P|118:238|181:268,1,143.999995605469,2|0,0:0|0:0,0:0:0:0:
360,345,12037,2,0,P|396:348|427:332,1,71.9999978027344,8|0,0:0|2:0,0:0:0:0:
408,227,12187,2,0,P|372:224|340:240,1,71.9999978027344,0|0,0:0|2:0,0:0:0:0:
362,352,12337,2,0,P|397:355|429:339,1,71.9999978027344,2|0,0:0|2:0,0:0:0:0:
409,234,12487,2,0,P|373:231|341:247,1,71.9999978027344,2|0,0:0|2:0,0:0:0:0:
363,360,12637,2,0,P|398:362|430:346,1,71.9999978027344,8|0,0:0|2:0,0:0:0:0:
410,240,12787,2,0,P|374:238|342:254,1,71.9999978027344,0|0,0:0|2:0,0:0:0:0:
268,342,12937,6,0,B|162:373|163:308|53:343,1,215.999993408203,2|0,0:0|2:0,0:0:0:0:
20,231,13237,2,0,L|117:269,1,71.9999978027344,8|0,0:0|2:0,0:0:0:0:
30,191,13387,2,0,L|113:252,1,71.9999978027344,0|0,0:0|2:0,0:0:0:0:
50,154,13537,2,0,L|115:235,1,71.9999978027344,2|0,0:0|2:0,0:0:0:0:
78,124,13687,2,0,L|119:219,1,71.9999978027344,0|0,0:0|2:0,0:0:0:0:
170,35,13837,2,0,L|154:138,1,71.9999978027344,8|0,0:0|2:0,0:0:0:0:
201,22,13987,2,0,L|185:125,1,71.9999978027344,0|0,0:0|2:0,0:0:0:0:
232,8,14137,6,0,P|336:1|412:73,1,215.999993408203,2|0,0:0|2:0,0:0:0:0:
366,211,14437,2,0,L|358:139,1,71.9999978027344,8|0,0:0|2:0,0:0:0:0:
467,128,14587,2,0,L|459:200,1,71.9999978027344,0|0,0:0|2:0,0:0:0:0:
358,226,14737,2,0,L|350:154,1,71.9999978027344,2|0,0:0|2:0,0:0:0:0:
455,143,14887,2,0,L|447:215,1,71.9999978027344,2|0,0:0|2:0,0:0:0:0:
350,241,15037,2,0,L|342:169,1,71.9999978027344,8|0,0:0|2:0,0:0:0:0:
443,158,15187,2,0,L|435:230,1,71.9999978027344,2|0,0:0|2:0,0:0:0:0:
342,256,15337,6,0,B|239:222|239:222|144:272,1,215.999993408203,4|0,0:1|2:0,0:0:0:0:
59,189,15637,2,0,B|93:200|93:200|124:183,1,71.9999978027344,8|0,0:0|2:0,0:0:0:0:
154,112,15787,2,0,B|119:100|119:100|88:117,1,71.9999978027344,0|0,0:0|2:0,0:0:0:0:
57,197,15937,2,0,B|91:208|91:208|122:191,1,71.9999978027344,2|0,0:0|2:0,0:0:0:0:
152,120,16087,2,0,B|117:108|117:108|86:125,1,71.9999978027344,2|0,0:0|2:0,0:0:0:0:
55,205,16237,2,0,B|280:282,1,215.999993408203,8|0,0:0|2:0,0:0:0:0:
200,342,16537,6,0,P|174:245|256:185,1,215.999993408203,2|0,0:0|2:0,0:0:0:0:
358,157,16837,2,0,L|340:226,1,71.9999978027344,8|0,0:0|2:0,0:0:0:0:
389,287,16987,2,0,L|371:217,1,71.9999978027344,2|0,0:0|2:0,0:0:0:0:
452,105,17137,2,0,L|434:174,1,71.9999978027344,2|0,0:0|2:0,0:0:0:0:
483,235,17287,2,0,L|465:165,1,71.9999978027344,2|0,0:0|2:0,0:0:0:0:
426,8,17437,2,0,L|361:249,1,215.999993408203,8|0,0:0|2:0,0:0:0:0:
259,276,17737,6,0,P|334:227|255:184,1,215.999993408203,2|0,0:0|2:0,0:0:0:0:
125,222,18037,2,0,L|196:237,1,71.9999978027344,8|0,0:0|2:0,0:0:0:0:
254,184,18187,2,0,L|183:198,1,71.9999978027344,0|0,0:0|2:0,0:0:0:0:
73,166,18337,2,0,L|143:180,1,71.9999978027344,2|0,0:0|2:0,0:0:0:0:
308,128,18487,2,0,L|237:142,1,71.9999978027344,2|0,0:0|2:0,0:0:0:0:
20,109,18637,2,0,L|90:123,1,71.9999978027344,8|0,0:0|2:0,0:0:0:0:
360,71,18787,6,0,L|109:122,1,215.999993408203,4|0,0:2|2:0,0:0:0:0:
171,287,19087,2,0,L|184:198,1,90.0000034332277,2|0,0:0|0:0,0:0:0:0:
360,162,19237,2,0,L|271:180,1,90.0000034332277,8|0,0:0|0:0,0:0:0:0:
239,353,19387,2,0,L|252:263,1,90.0000034332277,2|0,0:0|0:0,0:0:0:0:
427,227,19537,2,0,L|338:245,1,90.0000034332277,8|0,0:0|0:0,0:0:0:0:
69,267,19687,6,0,L|509:358,1,450.000017166138,4|0,0:1|0:0,0:0:0:0:
427,227,20137,6,0,L|446:272,1,45.0000017166138,2|0,0:0|0:0,0:0:0:0:
438,218,20287,2,0,L|448:265,1,45.0000017166138,0|0,0:0|0:0,0:0:0:0:
449,211,20437,2,0,L|451:259,1,45.0000017166138,2|0,0:0|0:0,0:0:0:0:
461,206,20587,2,0,L|454:254,1,45.0000017166138,0|0,0:0|0:0,0:0:0:0:
409,110,20737,6,0,L|390:155,1,45.0000017166138,2|0,0:0|0:0,0:0:0:0:
398,101,20887,2,0,L|387:148,1,45.0000017166138,0|0,0:0|0:0,0:0:0:0:
387,94,21037,2,0,L|384:142,1,45.0000017166138,2|0,0:0|0:0,0:0:0:0:
375,89,21187,2,0,L|381:137,1,45.0000017166138,0|0,0:0|0:0,0:0:0:0:
129,73,21337,6,0,L|124:118,1,45.0000017166138,2|0,0:0|0:0,0:0:0:0:
0,138,21487,2,0,L|44:132,1,45.0000017166138,2|2,0:0|0:0,0:0:0:0:
182,203,21637,2,0,L|138:198,1,45.0000017166138,2|0,0:0|0:0,0:0:0:0:
64,257,21787,2,0,L|58:212,1,45.0000017166138,2|0,0:0|0:0,0:0:0:0:
204,87,21937,2,0,L|209:131,1,45.0000017166138,8|0,0:3|0:0,0:0:0:0:
166,288,22087,6,0,B|212:293|212:293|244:264|244:264|289:269|289:269|320:236|320:236|382:244,1,225.000008583069,6|0,0:2|0:0,0:0:0:0:
442,319,22537,6,0,L|429:248,1,45.0000017166138,4|0,0:2|2:0,0:0:0:0:
427,198,22687,2,0,L|440:127,1,45.0000017166138,0|0,0:0|2:0,0:0:0:0:
399,73,22837,2,0,L|521:86,1,90.0000034332277,0|0,1:0|0:0,0:0:0:0:
345,163,23137,2,0,L|467:149,1,90.0000034332277,0|0,1:0|0:0,0:0:0:0:
312,261,23437,2,0,L|428:220,1,90.0000034332277,2|0,1:2|0:0,0:0:0:0:
300,363,23737,6,0,L|405:299,1,90.0000034332277,2|0,1:2|0:0,0:0:0:0:
216,306,24037,2,0,L|245:186,1,90.0000034332277,0|2,1:0|0:2,0:0:0:0:
116,325,24337,2,0,L|52:219,1,90.0000034332277,0|2,1:0|0:0,0:0:0:0:
137,136,24637,2,0,L|151:224,1,90.0000034332277,0|2,1:0|0:0,0:0:0:0:
311,260,24937,6,0,L|364:188,1,90.0000034332277,2|0,1:2|0:0,0:0:0:0:
258,131,25237,2,0,L|236:218,1,90.0000034332277,0|0,1:0|0:0,0:0:0:0:
92,130,25537,2,0,L|154:137,1,45.0000017166138,0|0,1:0|2:0,0:0:0:0:
89,121,25687,2,0,L|151:128,1,45.0000017166138,0|0,0:0|2:0,0:0:0:0:
199,13,25837,2,0,L|160:62,1,45.0000017166138,0|0,1:0|2:0,0:0:0:0:
193,5,25987,2,0,L|154:54,1,45.0000017166138,0|0,0:0|2:0,0:0:0:0:
264,72,26137,6,0,L|260:192,1,90.0000034332277,2|0,1:2|0:0,0:0:0:0:
249,346,26437,1,0,1:0:0:0:
177,290,26587,2,0,P|232:254|285:261,1,90.0000034332277,2|0,0:2|1:0,0:0:0:0:
332,304,26887,2,0,P|360:338|402:354,1,90.0000034332277,2|0,0:2|1:0,0:0:0:0:
414,263,27187,1,2,0:2:0:0:
249,346,27337,6,0,L|141:336,1,90.0000034332277,2|0,1:2|0:0,0:0:0:0:
0,341,27637,2,0,L|62:335,1,45.0000017166138,2|0,1:2|2:0,0:0:0:0:
72,261,27787,2,0,L|116:265,1,45.0000017166138,0|0,0:0|2:0,0:0:0:0:
164,197,27937,2,0,P|208:199|247:177,1,90.0000034332277,2|0,1:2|0:0,0:0:0:0:
213,33,28237,2,0,P|189:70|188:115,1,90.0000034332277,2|0,1:2|0:0,0:0:0:0:
306,269,28537,6,0,P|274:236|152:259,1,180.000006866455,2|2,1:2|0:3,0:0:0:0:
226,315,28987,2,0,L|416:283,1,180.000006866455,2|0,0:0|0:0,0:0:0:0:
297,109,29437,1,8,0:3:0:0:
264,114,29512,1,8,0:3:0:0:
231,120,29587,1,4,0:3:0:0:
198,125,29662,1,0,0:0:0:0:
164,131,29737,6,0,L|39:109,1,120,8|0,0:0|0:0,0:0:0:0:
174,45,30037,1,2,0:0:0:0:
308,192,30187,2,0,L|449:167,1,143.999995605469,4|0,0:1|0:0,0:0:0:0:
297,109,30487,1,2,0:0:0:0:
164,253,30637,2,0,L|-63:214,1,167.999994873047,8|0,0:0|0:0,0:0:0:0:
164,131,30937,1,2,0:0:0:0:
308,314,31087,2,0,L|535:275,1,192,4|0,0:1|0:0,0:0:0:0:
297,109,31387,1,2,0:0:0:0:
172,372,31537,6,0,P|71:326|67:182,1,251.999992309571,8|0,0:0|0:0,0:0:0:0:
164,253,31837,2,0,B|237:259|237:259|400:179,1,233.999989288331,8|0,0:0|0:0,0:0:0:0:
378,57,32137,6,0,P|354:123|381:188,1,143.999995605469,4|2,0:2|0:0,0:0:0:0:
500,342,32437,1,8,0:0:0:0:
452,119,32587,1,0,0:0:0:0:
241,338,32737,2,0,L|326:330,1,71.9999978027344,2|0,0:0|2:0,0:0:0:0:
287,192,32887,2,0,L|242:248,1,71.9999978027344,2|0,0:0|2:0,0:0:0:0:
169,41,33037,2,0,L|183:185,1,143.999995605469,8|0,0:0|0:0,0:0:0:0:
48,357,33337,6,0,P|108:235|243:249,1,287.999991210938,2|8,0:0|0:0,0:0:0:0:
438,331,33787,2,0,P|368:328|326:272,1,143.999995605469,2|0,0:0|0:0,0:0:0:0:
375,127,34087,2,0,L|352:195,1,71.9999978027344,2|0,0:0|2:0,0:0:0:0:
465,250,34237,2,0,L|442:181,1,71.9999978027344,8|0,0:0|2:0,0:0:0:0:
363,98,34387,2,0,L|340:166,1,71.9999978027344,2|0,0:0|2:0,0:0:0:0:
185,365,34537,6,0,L|41:331,1,143.999995605469,2|0,0:0|0:0,0:0:0:0:
327,365,34837,2,0,L|429:341,1,71.9999978027344,8|0,0:0|2:0,0:0:0:0:
363,192,34987,2,0,L|340:260,1,71.9999978027344,2|0,0:0|2:0,0:0:0:0:
87,256,35137,1,0,0:0:0:0:
256,128,35287,1,2,0:0:0:0:
256,384,35437,1,8,0:0:0:0:
425,256,35587,1,2,0:0:0:0:
96,169,35737,6,0,P|33:189|132:332,1,287.999991210938,2|8,0:0|0:0,0:0:0:0:
227,225,36187,2,0,B|87:255,1,143.999995605469,2|0,0:0|0:0,0:0:0:0:
256,128,36487,2,0,B|326:142,1,71.9999978027344,2|0,0:0|2:0,0:0:0:0:
341,24,36637,2,0,B|270:38,1,71.9999978027344,8|0,0:0|2:0,0:0:0:0:
239,135,36787,2,0,B|309:149,1,71.9999978027344,0|0,0:0|2:0,0:0:0:0:
358,31,36937,6,0,B|177:68,1,143.999995605469,4|0,0:2|0:0,0:0:0:0:
53,198,37237,2,0,P|43:163|20:136,1,71.9999978027344,8|0,0:0|2:0,0:0:0:0:
111,279,37387,2,0,P|120:244|143:217,1,71.9999978027344,2|0,0:0|2:0,0:0:0:0:
40,351,37537,2,0,L|132:365,1,71.9999978027344,2|0,0:0|2:0,0:0:0:0:
190,283,37687,2,0,L|261:272,1,71.9999978027344,2|0,0:0|2:0,0:0:0:0:
340,351,37837,2,0,L|496:374,1,143.999995605469,8|0,0:0|0:0,0:0:0:0:
366,188,38137,6,0,P|327:248|261:272,1,143.999995605469,2|0,0:0|0:0,0:0:0:0:
130,161,38437,2,0,B|197:135|197:135|262:166,1,143.999995605469,8|0,0:0|0:0,0:0:0:0:
97,307,38737,2,0,L|80:237,1,71.9999978027344,2|0,0:0|2:0,0:0:0:0:
1,209,38887,2,0,L|17:139,1,71.9999978027344,2|0,0:0|2:0,0:0:0:0:
97,21,39037,2,0,L|130:160,1,143.999995605469,8|0,0:0|0:0,0:0:0:0:
323,331,39337,5,4,0:2:0:0:
189,53,39487,1,0,0:0:0:0:
205,337,39637,1,8,0:0:0:0:
306,46,39787,1,0,0:0:0:0:
126,264,39937,1,2,0:0:0:0:
386,120,40087,1,2,0:0:0:0:
48,192,40237,1,2,0:0:0:0:
464,192,40387,1,8,0:0:0:0:
464,192,40687,6,0,P|475:225|470:261,1,71.9999978027344,2|0,0:0|2:0,0:0:0:0:
397,234,40837,2,0,P|381:266|353:287,1,71.9999978027344,8|0,0:0|2:0,0:0:0:0:
319,216,40987,2,0,P|285:227|249:222,1,71.9999978027344,2|0,0:0|2:0,0:0:0:0:
277,148,41137,2,0,P|245:132|224:104,1,71.9999978027344,8|0,0:0|2:0,0:0:0:0:
294,70,41287,2,0,P|283:36|288:0,1,71.9999978027344,8|0,0:0|2:0,0:0:0:0:
361,25,41437,2,0,P|430:12|493:45,1,143.999995605469,8|0,0:0|0:0,0:0:0:0:
481,275,41737,6,0,P|443:215|233:244,1,287.999991210938,4|2,0:2|0:0,0:0:0:0:
14,384,42187,2,0,P|51:324|262:353,1,287.999991210938,8|0,0:0|0:0,0:0:0:0:
409,354,42637,2,0,L|333:330,1,71.9999978027344,8|0,0:0|2:0,0:0:0:0:
248,223,42787,2,0,L|316:244,1,71.9999978027344,8|0,0:0|2:0,0:0:0:0:
136,384,42937,6,0,L|160:78,1,287.999991210938,4|0,0:0|0:0,0:0:0:0:
63,331,43387,2,0,B|196:400|193:277|339:332,1,287.999991210938,8|0,0:0|0:0,0:0:0:0:
512,268,43837,2,0,P|444:283|388:241,1,143.999995605469,4|0,0:0|0:0,0:0:0:0:
472,6,44137,6,0,B|532:65|532:65|512:267,1,287.999991210938,4|0,0:2|0:0,0:0:0:0:
339,331,44587,2,0,B|399:272|399:272|379:69,1,287.999991210938,8|0,0:0|0:0,0:0:0:0:
171,34,45037,2,0,L|190:212,1,143.999995605469,4|0,0:2|0:0,0:0:0:0:
60,331,45337,6,0,B|157:296|157:296|352:333,1,287.999991210938,8|0,0:0|0:0,0:0:0:0:
450,224,45787,2,0,B|373:251|373:251|220:222,1,215.999993408203,4|0,0:0|0:0,0:0:0:0:
234,120,46087,2,0,P|349:192|335:335,1,287.999991210938,4|0,0:1|0:0,0:0:0:0:
259,350,46462,1,0,0:0:0:0:
259,350,46537,6,0,B|154:325|154:325|110:333|110:333|-30:296,1,287.999991210938,4|0,0:2|0:0,0:0:0:0:
159,169,46987,2,0,B|289:203|289:203|333:195|333:195|438:220,1,287.999991210938,8|0,0:0|0:0,0:0:0:0:
303,49,47437,2,0,P|292:83|295:118,1,71.9999978027344,8|0,0:0|2:0,0:0:0:0:
329,280,47587,2,0,P|332:315|322:350,1,71.9999978027344,0|0,0:0|2:0,0:0:0:0:
168,250,47737,6,0,B|241:153|353:205|353:205|329:279,1,287.999991210938,4|0,0:0|0:0,0:0:0:0:
180,123,48187,2,0,B|107:26|-5:78|-5:78|18:152,1,287.999991210938,8|0,0:0|0:0,0:0:0:0:
244,42,48637,2,0,P|313:18|395:61,1,143.999995605469,4|0,0:0|0:0,0:0:0:0:
399,330,48937,6,0,P|285:256|312:123,1,287.999991210938,4|0,0:2|0:0,0:0:0:0:
471,275,49387,2,0,B|400:331|400:331|202:320,1,287.999991210938,8|0,0:0|0:0,0:0:0:0:
311,123,49837,2,0,B|508:133,1,143.999995605469,8|0,0:0|0:0,0:0:0:0:
262,36,50137,6,0,P|174:94|68:88,1,215.999993408203,8|0,0:0|0:0,0:0:0:0:
34,179,50437,2,0,P|122:120|228:126,1,215.999993408203,8|0,0:0|0:0,0:0:0:0:
170,0,50737,2,0,L|94:277,1,287.999991210938,4|0,0:2|0:0,0:0:0:0:
0,384,51337,6,0,B|52:354|52:354|191:363,1,180.000006866455,6|0,1:2|0:0,0:0:0:0:
182,224,51787,1,2,0:0:0:0:
296,304,51937,2,0,B|244:334|244:334|105:325,1,180.000006866455,2|2,1:2|0:0,0:0:0:0:
124,326,52537,5,8,0:3:0:0:
182,224,52687,1,2,0:0:0:0:
50,149,52837,1,2,0:0:0:0:
109,250,52987,1,0,0:0:0:0:
180,71,53137,1,6,1:2:0:0:
122,173,53287,1,2,0:0:0:0:
239,172,53437,2,0,P|283:178|327:220,1,90.0000034332277,2|0,0:0|0:0,0:0:0:0:
399,333,53737,6,0,P|384:241|441:168,1,192,6|0,1:2|0:0,0:0:0:0:
353,80,54187,1,2,0:0:0:0:
250,152,54337,2,0,B|464:170,1,192,2|2,1:2|0:0,0:0:0:0:
441,168,54937,5,8,0:3:0:0:
353,80,55087,1,2,0:0:0:0:
362,285,55237,1,2,0:0:0:0:
362,161,55387,1,0,0:0:0:0:
223,312,55537,1,6,1:2:0:0:
311,224,55687,1,2,0:0:0:0:
134,224,55837,2,0,P|91:242|65:282,1,96,2|0,0:0|0:0,0:0:0:0:
0,114,56137,6,0,P|37:142|131:131,1,120,2|0,0:0|0:0,0:0:0:0:
181,27,56437,2,0,P|131:59|73:57,1,120,8|0,0:0|0:0,0:0:0:0:
208,131,56737,2,0,P|264:95|445:147,1,240,8|0,0:0|0:0,0:0:0:0:
266,0,57187,6,0,L|289:267,1,240,4|2,0:2|0:0,0:0:0:0:
512,384,57637,2,0,L|500:245,1,120,8|0,1:3|0:0,0:0:0:0:
181,27,57937,2,0,L|191:146,1,120,8|0,1:3|0:0,0:0:0:0:
422,372,58237,2,0,L|410:233,1,120,8|0,1:3|0:0,0:0:0:0:
96,54,58537,6,0,L|101:113,1,60,2|0,0:0|0:2,0:0:0:0:
34,157,58687,2,0,L|79:195,1,60,2|0,0:0|0:2,0:0:0:0:
2,278,58837,2,0,L|121:267,1,120,4|0,0:1|0:0,0:0:0:0:
321,176,59137,6,0,P|294:194|263:204,1,66.0000020141602,0|0,1:0|2:0,0:0:0:0:
197,95,59287,2,0,P|224:113|255:123,1,66.0000020141602,0|0,1:0|2:0,0:0:0:0:
387,32,59437,2,0,P|323:18|262:41,1,132.00000402832,4|0,1:1|0:0,0:0:0:0:
189,233,59737,6,0,L|155:147,1,71.9999978027344,2|0,0:0|2:0,0:0:0:0:
125,51,59887,2,0,L|91:137,1,71.9999978027344,2|0,0:0|2:0,0:0:0:0:
0,226,60037,2,0,L|143:231,1,143.999995605469,4|0,0:1|0:0,0:0:0:0:
378,139,60337,6,0,P|342:154|321:186,1,77.9999964294435,0|0,1:0|2:0,0:0:0:0:
197,95,60487,2,0,P|228:117|281:121,1,77.9999964294435,0|0,1:0|2:0,0:0:0:0:
167,338,60637,2,0,P|211:276|286:264,1,155.999992858887,4|0,1:1|0:0,0:0:0:0:
262,40,60937,6,0,L|106:54,1,83.9999974365235,8|0,0:0|0:0,0:0:0:0:
55,114,61087,2,0,L|211:128,1,90.0000034332277,2|0,0:0|0:0,0:0:0:0:
272,187,61237,2,0,L|177:196,1,96,2|0,1:3|0:0,0:0:0:0:
84,304,61387,6,0,L|95:177,1,102.000001945496,8|0,0:0|0:0,0:0:0:0:
167,88,61537,2,0,L|177:208,1,107.999996704102,2|0,0:0|0:0,0:0:0:0:
248,314,61687,2,0,L|258:201,1,113.999996955872,2|0,1:3|0:0,0:0:0:0:
262,40,61837,6,0,L|13:62,1,240,8|0,1:3|0:0,0:0:0:0:
0,378,62137,6,0,L|505:332,1,480,4|0,0:1|0:0,0:0:0:0:
258,201,62737,6,0,L|250:259,14,30,2|0|0|0|0|0|0|0|0|0|0|0|0|0|0,0:2|0:0|0:0|0:0|0:0|0:0|0:0|0:0|0:0|0:0|0:0|0:0|0:0|0:0|0:0,0:0:0:0:
192,139,63337,6,0,P|262:169|339:159,1,155.999992858887,4|0,0:2|0:0,0:0:0:0:
189,62,63637,2,0,P|151:72|125:100,1,77.9999964294435,8|0,0:0|2:0,0:0:0:0:
178,287,63787,2,0,B|206:234|206:234|192:139,1,155.999992858887,2|0,0:0|0:0,0:0:0:0:
352,82,64087,2,0,L|331:210,1,77.9999964294435,2|0,0:0|2:0,0:0:0:0:
423,245,64237,2,0,L|435:168,1,77.9999964294435,8|0,0:0|2:0,0:0:0:0:
342,72,64387,2,0,L|321:200,1,77.9999964294435,2|0,0:0|2:0,0:0:0:0:
413,235,64537,2,0,L|425:158,1,77.9999964294435,0|0,0:0|2:0,0:0:0:0:
332,62,64687,2,0,L|311:190,1,77.9999964294435,2|0,0:0|2:0,0:0:0:0:
403,225,64837,2,0,L|415:148,1,77.9999964294435,8|0,0:0|2:0,0:0:0:0:
322,52,64987,6,0,L|293:227,1,155.999992858887,2|0,0:0|0:0,0:0:0:0:
428,384,65287,2,0,L|415:307,1,77.9999964294435,2|0,0:0|2:0,0:0:0:0:
429,68,65437,2,0,B|130:94,1,233.999989288331,8|0,0:0|0:0,0:0:0:0:
71,28,65737,6,0,P|146:29|195:87,1,155.999992858887,2|0,0:0|0:0,0:0:0:0:
42,260,66037,2,0,L|29:179,1,77.9999964294435,8|0,0:0|2:0,0:0:0:0:
107,113,66187,2,0,L|61:309,1,155.999992858887,2|0,0:0|0:0,0:0:0:0:
173,325,66487,2,0,P|211:336|249:328,1,77.9999964294435,2|0,0:0|2:0,0:0:0:0:
257,189,66637,2,0,P|219:178|181:186,1,77.9999964294435,8|0,0:0|2:0,0:0:0:0:
169,337,66787,2,0,P|206:347|244:339,1,77.9999964294435,4|0,0:2|2:0,0:0:0:0:
252,200,66937,2,0,P|214:189|176:197,1,77.9999964294435,0|0,0:0|2:0,0:0:0:0:
164,348,67087,2,0,P|201:358|239:350,1,77.9999964294435,2|0,0:0|2:0,0:0:0:0:
247,211,67237,2,0,P|209:200|171:208,1,77.9999964294435,8|0,0:0|2:0,0:0:0:0:
159,359,67387,2,0,P|196:369|234:361,1,77.9999964294435,0|0,0:0|2:0,0:0:0:0:
242,222,67537,6,0,P|166:224|115:281,1,155.999992858887,2|2,0:0|0:0,0:0:0:0:
304,296,67837,1,8,0:0:0:0:
342,302,67912,1,0,0:0:0:0:
379,293,67987,1,0,0:0:0:0:
410,270,68062,1,0,0:0:0:0:
430,236,68137,6,0,B|399:193|399:193|406:50,1,155.999992858887,2|0,0:0|0:0,0:0:0:0:
290,6,68437,2,0,B|321:49|321:49|314:192,1,155.999992858887,8|0,0:0|0:0,0:0:0:0:
163,225,68737,2,0,L|264:212,1,77.9999964294435,2|0,0:0|2:0,0:0:0:0:
238,76,68887,2,0,L|160:85,1,77.9999964294435,2|0,0:0|2:0,0:0:0:0:
158,235,69037,2,0,L|259:222,1,77.9999964294435,8|0,0:0|2:0,0:0:0:0:
233,86,69187,2,0,L|155:95,1,77.9999964294435,0|0,0:0|2:0,0:0:0:0:
153,245,69337,6,0,L|340:220,1,155.999992858887,2|0,0:0|0:0,0:0:0:0:
470,171,69637,2,0,L|282:146,1,155.999992858887,8|0,0:0|0:0,0:0:0:0:
155,95,69937,2,0,B|142:58|142:58|145:19,1,77.9999964294435,2|0,0:0|2:0,0:0:0:0:
271,10,70087,2,0,B|284:47|284:47|280:85,1,77.9999964294435,2|0,0:0|2:0,0:0:0:0:
147,103,70237,2,0,B|134:66|134:66|137:27,1,77.9999964294435,8|0,0:0|2:0,0:0:0:0:
263,18,70387,2,0,B|276:55|276:55|272:93,1,77.9999964294435,0|0,0:0|2:0,0:0:0:0:
138,111,70537,6,0,P|62:120|-14:88,1,155.999992858887,2|0,0:0|0:0,0:0:0:0:
255,26,70837,2,0,P|326:-3|403:5,1,155.999992858887,8|0,0:0|0:0,0:0:0:0:
301,230,71137,2,0,L|319:305,1,77.9999964294435,2|0,0:0|0:2,0:0:0:0:
363,160,71287,2,0,L|381:84,1,77.9999964294435,2|0,0:0|0:2,0:0:0:0:
291,236,71437,2,0,L|309:311,1,77.9999964294435,8|0,0:0|2:0,0:0:0:0:
353,166,71587,2,0,L|371:90,1,77.9999964294435,0|0,0:0|2:0,0:0:0:0:
140,90,71737,6,0,L|159:166,1,77.9999964294435,2|0,0:0|0:0,0:0:0:0:
110,241,71887,2,0,L|184:263,1,77.9999964294435,8|0,0:0|0:0,0:0:0:0:
233,144,72037,2,0,L|158:165,1,77.9999964294435,8|0,0:0|0:0,0:0:0:0:
166,338,72187,2,0,L|184:262,1,77.9999964294435,2|0,0:0|0:0,0:0:0:0:
336,200,72337,6,0,L|261:221,1,77.9999964294435,8|0,0:0|0:0,0:0:0:0:
379,348,72487,2,0,L|357:273,1,77.9999964294435,2|0,0:0|0:0,0:0:0:0:
358,125,72637,2,0,L|336:199,1,77.9999964294435,8|0,0:0|0:0,0:0:0:0:
304,369,72787,2,0,L|378:347,1,77.9999964294435,2|0,0:0|0:0,0:0:0:0:
482,223,72937,6,0,P|408:186|239:243,1,240,4|8,0:2|0:0,0:0:0:0:
87,218,73387,2,0,L|187:175,1,60,2|0,0:0|2:0,0:0:0:0:
232,58,73537,2,0,B|214:137|214:137|232:214|232:214|215:298,1,240,8|8,0:0|0:0,0:0:0:0:
112,57,73987,6,0,L|259:58,1,120,2|0,0:0|0:0,0:0:0:0:
404,212,74287,2,0,L|403:125,1,60,2|0,0:0|2:0,0:0:0:0:
400,57,74437,2,0,L|253:58,1,120,8|0,0:0|0:0,0:0:0:0:
193,208,74737,2,0,P|299:160|403:211,1,240,8|8,0:0|0:0,0:0:0:0:
403,211,75337,6,0,B|385:269|385:269|423:347,1,120,2|0,0:0|0:0,0:0:0:0:
488,128,75637,2,0,L|396:128,1,60,8|0,0:0|2:0,0:0:0:0:
268,168,75787,2,0,L|328:168,1,60,2|0,0:0|2:0,0:0:0:0:
459,36,75937,2,0,B|511:144|511:144|476:259,1,240,8|8,0:0|0:0,0:0:0:0:
183,165,76387,6,0,B|293:116|293:116|408:148,1,240,2|2,0:0|0:0,0:0:0:0:
117,93,76837,2,0,P|88:145|92:203,1,120,8|0,0:0|0:0,0:0:0:0:
329,324,77137,2,0,P|333:265|304:213,1,120,8|0,0:0|0:0,0:0:0:0:
90,292,77437,1,0,0:0:0:0:
90,292,77512,1,0,0:0:0:0:
90,292,77587,1,0,0:0:0:0:
90,292,77662,1,0,0:0:0:0:
89,291,77737,6,0,L|245:285,1,155.999992858887,2|0,0:0|0:0,0:0:0:0:
335,83,78037,2,0,L|355:163,1,77.9999964294435,8|0,0:0|2:0,0:0:0:0:
304,213,78187,2,0,L|331:105,1,77.9999964294435,0|0,0:0|2:0,0:0:0:0:
241,31,78337,2,0,L|260:106,1,77.9999964294435,2|0,0:0|2:0,0:0:0:0:
210,161,78487,2,0,L|231:78,1,77.9999964294435,2|0,0:0|2:0,0:0:0:0:
319,1,78637,2,0,P|386:16|393:139,1,155.999992858887,8|2,0:0|0:0,0:0:0:0:
365,305,78937,6,0,B|325:241|325:241|334:82,1,233.999989288331,2|0,0:0|0:0,0:0:0:0:
241,31,79237,2,0,L|260:106,1,77.9999964294435,8|0,0:0|2:0,0:0:0:0:
210,161,79387,2,0,L|231:78,1,77.9999964294435,0|0,0:0|2:0,0:0:0:0:
365,212,79537,2,0,L|385:133,1,77.9999964294435,2|0,0:0|2:0,0:0:0:0:
334,82,79687,2,0,L|353:159,1,77.9999964294435,2|0,0:0|2:0,0:0:0:0:
182,239,79837,2,0,P|131:192|186:82,1,155.999992858887,8|0,0:0|0:0,0:0:0:0:
258,384,80137,6,0,L|260:281,1,77.9999964294435,2|0,0:0|0:0,0:0:0:0:
261,228,80287,2,0,L|259:305,1,77.9999964294435,2|0,0:0|0:0,0:0:0:0:
206,321,80437,6,0,L|261:228,1,107.999996704102,8|0,0:0|0:0,0:0:0:0:
316,135,80587,2,0,L|260:227,1,107.999996704102,2|0,0:0|0:0,0:0:0:0:
196,203,80737,6,0,L|316:135,1,138.000002632141,8|0,0:0|0:0,0:0:0:0:
436,68,80887,2,0,L|315:135,1,138.000002632141,2|0,0:0|0:0,0:0:0:0:
149,119,81037,6,0,L|351:139,1,167.999994873047,8|0,0:0|0:0,0:0:0:0:
483,152,81187,2,0,L|280:131,1,167.999994873047,2|0,0:0|0:0,0:0:0:0:
89,192,81337,6,0,L|565:143,1,396.00000377655,8|0,0:0|2:0,0:0:0:0:
452,188,81562,1,0,0:0:0:0:
452,188,81637,6,0,L|117:222,1,335.999989746094,0|0,1:0|2:0,0:0:0:0:
145,252,81862,1,0,0:0:0:0:
145,252,81937,6,0,L|480:218,1,276.000005264282,0|0,1:0|2:0,0:0:0:0:
387,259,82162,1,0,0:0:0:0:
387,259,82237,6,0,L|173:282,1,215.999993408203,0|0,1:0|2:0,0:0:0:0:
200,311,82462,1,0,0:0:0:0:
200,311,82537,6,0,L|380:292,1,155.999992858887,4|0,0:1|0:0,0:0:0:0:
313,108,82837,2,0,B|274:112|274:112|250:143,1,77.9999964294435,8|0,0:0|2:0,0:0:0:0:
249,229,82987,2,0,B|287:224|287:224|311:193,1,77.9999964294435,2|0,0:0|2:0,0:0:0:0:
307,100,83137,2,0,B|268:104|268:104|244:135,1,77.9999964294435,0|0,0:0|2:0,0:0:0:0:
255,237,83287,2,0,B|293:232|293:232|317:201,1,77.9999964294435,2|0,0:0|2:0,0:0:0:0:
301,92,83437,2,0,L|58:117,1,233.999989288331,8|0,0:0|0:0,0:0:0:0:
42,42,83737,6,0,L|76:140,1,77.9999964294435,2|0,0:0|2:0,0:0:0:0:
118,218,83887,2,0,L|143:144,1,77.9999964294435,2|0,0:0|2:0,0:0:0:0:
33,303,84037,2,0,L|220:283,1,155.999992858887,8|0,0:0|0:0,0:0:0:0:
479,81,84337,2,0,L|291:100,1,155.999992858887,2|0,0:0|0:0,0:0:0:0:
256,192,84562,1,0,0:0:0:0:
256,192,84637,2,0,L|443:211,1,155.999992858887,8|2,0:0|0:0,0:0:0:0:
187,96,84937,6,0,P|112:82|39:108,1,155.999992858887,2|0,0:0|0:0,0:0:0:0:
166,347,85237,2,0,P|193:320|207:283,1,77.9999964294435,8|0,0:0|2:0,0:0:0:0:
146,199,85387,2,0,P|118:225|104:262,1,77.9999964294435,2|0,0:0|2:0,0:0:0:0:
173,360,85537,2,0,P|200:333|214:296,1,77.9999964294435,0|0,0:0|2:0,0:0:0:0:
139,186,85687,2,0,P|111:212|97:249,1,77.9999964294435,2|0,0:0|2:0,0:0:0:0:
180,373,85837,2,0,P|255:387|408:308,1,233.999989288331,8|0,0:0|0:0,0:0:0:0:
403,233,86137,6,0,L|289:212,2,103.999995239258,8|2|2,0:0|0:0|0:0,0:0:0:0:
206,140,86437,2,0,L|320:119,2,103.999995239258,8|2|2,0:0|0:0|0:0,0:0:0:0:
205,309,86737,6,0,L|226:195,1,77.9999964294435,8|0,0:0|2:0,0:0:0:0:
117,163,86887,2,0,L|131:239,1,77.9999964294435,2|0,0:0|2:0,0:0:0:0:
91,332,87037,2,0,L|28:234,1,77.9999964294435,2|0,1:3|2:0,0:0:0:0:
338,203,87187,2,8,L|297:269,1,77.9999964294435,8|0,0:0|2:0,0:0:0:0:
0,384,87337,5,4,0:1:0:0:
256,192,87412,12,0,89437,0:0:0:0:
