osu file format v14

[General]
AudioFilename: audio.mp3
AudioLeadIn: 0
PreviewTime: 65697
Countdown: 0
SampleSet: None
StackLeniency: 0.2
Mode: 0
LetterboxInBreaks: 0
WidescreenStoryboard: 0

[Editor]
Bookmarks: 10679,19866,29053,38239,56612,65799,84172,91062,109435,127809,136995,146182,155368,165703,184077,190967,200153,218526
DistanceSpacing: 0.8
BeatDivisor: 4
GridSize: 32
TimelineZoom: 2.4

[Metadata]
Title:RED
TitleUnicode:RED
Artist:GOUACHE
ArtistUnicode:GOUACHE
Creator:Midge
Version:midgET
Source:
Tags:
BeatmapID:1158972
BeatmapSetID:547170

[Difficulty]
HPDrainRate:6
CircleSize:4
OverallDifficulty:8
ApproachRate:9.4
SliderMultiplier:1.9
SliderTickRate:1

[Events]
//Background and Video events
0,0,"38fd938e8916acb9aee665626d0396b39b5e5ef6.png",0,0
//Break Periods
2,128009,135881
2,164468,165163
//Storyboard Layer 0 (Background)
//Storyboard Layer 1 (Fail)
//Storyboard Layer 2 (Pass)
//Storyboard Layer 3 (Foreground)
//Storyboard Sound Samples

[TimingPoints]
345,287.081339712919,4,1,0,70,1,0
1493,-133.333333333333,4,1,0,70,0,0
5943,-100,4,1,0,70,0,1
6014,-100,4,1,0,70,0,0
8239,-66.6666666666667,4,1,0,70,0,0
8813,-133.333333333333,4,1,0,70,0,0
9818,-100,4,1,0,70,0,0
9962,-66.6666666666667,4,1,0,70,0,0
10679,-66.6666666666667,4,1,0,70,0,1
10751,-80,4,1,0,70,0,0
11684,-66.6666666666667,4,1,0,70,0,0
13263,-80,4,1,0,70,0,0
13981,-80,4,1,0,70,0,0
15129,-66.6666666666667,4,1,0,70,0,0
15560,-80,4,1,0,70,0,0
16278,-100,4,1,0,70,0,0
16852,-80,4,1,0,70,0,0
17282,-100,4,1,0,70,0,0
18718,-80,4,1,0,70,0,0
19148,-66.6666666666667,4,1,0,70,0,0
19579,-100,4,1,0,70,0,0
19866,-66.6666666666667,4,1,0,70,0,0
20297,-100,4,1,0,70,0,0
25464,-80,4,1,0,70,0,0
26038,-100,4,1,0,70,0,0
27761,-66.6666666666667,4,1,0,70,0,0
28191,-100,4,1,0,70,0,0
28335,-66.6666666666667,4,1,0,70,0,0
29053,-66.6666666666667,4,1,0,70,0,0
29483,-66.6666666666667,4,1,0,70,0,0
29770,-80,4,1,0,70,0,0
30775,-100,4,1,0,70,0,0
32354,-66.6666666666667,4,1,0,70,0,0
32785,-100,4,1,0,70,0,0
33646,-66.6666666666667,4,1,0,70,0,0
34077,-80,4,1,0,70,0,0
34651,-66.6666666666667,4,1,0,70,0,0
35225,-100,4,1,0,70,0,0
36660,-80,4,1,0,70,0,0
36947,-66.6666666666667,4,1,0,70,0,0
37378,-80,4,1,0,70,0,0
38239,-66.6666666666667,4,1,0,70,0,0
38813,-100,4,1,0,70,0,0
42545,-80,4,1,0,70,0,0
42833,-66.6666666666667,4,1,0,70,0,0
43407,-100,4,1,0,70,0,0
43694,-80,4,1,0,70,0,0
43981,-66.6666666666667,4,1,0,70,0,0
44411,-100,4,1,0,70,0,0
45560,-66.6666666666667,4,1,0,70,0,0
46134,-100,4,1,0,70,0,0
47426,-66.6666666666667,4,1,0,70,0,0
48000,-100,4,1,0,70,0,0
48431,-66.6666666666667,4,1,0,70,0,0
49005,-80,4,1,0,70,0,0
52019,-66.6666666666667,4,1,0,70,0,0
52306,-100,4,1,0,70,0,0
54172,-80,4,1,0,70,0,0
55751,-100,4,1,0,70,0,0
56612,-66.6666666666667,4,1,0,70,0,0
57187,-80,4,1,0,70,0,0
58335,-100,4,1,0,70,0,0
58622,-133.333333333333,4,1,0,70,0,0
59627,-100,4,1,0,70,0,0
59914,-57.1428571428571,4,1,0,70,0,0
60345,-80,4,1,0,70,0,0
61062,-66.6666666666667,4,1,0,70,0,0
62354,-133.333333333333,4,1,0,70,0,0
62928,-100,4,1,0,70,0,0
63215,-80,4,1,0,70,0,0
65225,-200,4,1,0,70,0,0
65799,-66.6666666666667,4,1,0,70,0,1
66804,-100,4,1,0,70,0,1
67091,-80,4,1,0,70,0,1
67378,-66.6666666666667,4,1,0,70,0,1
69100,-100,4,1,0,70,0,1
69388,-80,4,1,0,70,0,1
69675,-66.6666666666667,4,1,0,70,0,1
70249,-57.1428571428571,4,1,0,70,0,1
70823,-66.6666666666667,4,1,0,70,0,1
71397,-80,4,1,0,70,0,1
74268,-100,4,1,0,70,0,1
74914,-100,4,1,0,70,0,0
74986,-66.6666666666667,4,1,0,70,0,1
75990,-100,4,1,0,70,0,1
76278,-80,4,1,0,70,0,1
76565,-66.6666666666667,4,1,0,70,0,1
78287,-133.333333333333,4,1,0,70,0,1
78574,-100,4,1,0,70,0,1
78861,-80,4,1,0,70,0,1
79148,-66.6666666666667,4,1,0,70,0,1
79435,-57.1428571428571,4,1,0,70,0,1
79866,-66.6666666666667,4,1,0,70,0,1
81876,-80,4,1,0,70,0,1
82450,-66.6666666666667,4,1,0,70,0,1
84172,-66.6666666666667,4,1,0,70,0,0
84172,-66.6666666666667,4,1,0,70,0,0
87043,-100,4,1,0,70,0,0
87474,-80,4,1,0,70,0,0
88048,-66.6666666666667,4,1,0,70,0,0
89483,-100,4,1,0,70,0,0
89770,-66.6666666666667,4,1,0,70,0,0
90345,-100,4,1,0,70,0,0
90775,-80,4,1,0,70,0,0
91062,-66.6666666666667,4,1,0,70,0,1
91134,-100,4,1,0,70,0,0
91493,-80,4,1,0,70,0,0
93359,-66.6666666666667,4,1,0,70,0,0
93789,-80,4,1,0,70,0,0
94220,-100,4,1,0,70,0,0
94651,-80,4,1,0,70,0,0
95081,-100,4,1,0,70,0,0
95368,-80,4,1,0,70,0,0
95656,-66.6666666666667,4,1,0,70,0,0
96086,-80,4,1,0,70,0,0
97665,-100,4,1,0,70,0,0
97952,-80,4,1,0,70,0,0
98383,-100,4,1,0,70,0,0
99100,-133.333333333333,4,1,0,70,0,0
99675,-100,4,1,0,70,0,0
100249,-66.6666666666667,4,1,0,70,0,0
100679,-80,4,1,0,70,0,0
101110,-100,4,1,0,70,0,0
101397,-80,4,1,0,70,0,0
102258,-100,4,1,0,70,0,0
102545,-80,4,1,0,70,0,0
102976,-100,4,1,0,70,0,0
103837,-80,4,1,0,70,0,0
104555,-66.6666666666667,4,1,0,70,0,0
105273,-100,4,1,0,70,0,0
105990,-80,4,1,0,70,0,0
106780,-100,4,1,0,70,0,0
108000,-80,4,1,0,70,0,0
109435,-100,4,1,0,70,0,0
112593,-133.333333333333,4,1,0,70,0,0
114890,-100,4,1,0,70,0,0
118622,-80,4,1,0,70,0,0
118909,-100,4,1,0,70,0,0
121636,-133.333333333333,4,1,0,70,0,0
124077,-100,4,1,0,70,0,0
136995,-200,4,1,0,70,0,0
146182,-133.333333333333,4,1,0,70,0,0
150201,-200,4,1,0,70,0,0
150416,-133.333333333333,4,1,0,70,0,0
150632,-50,4,1,0,70,0,0
151349,-133.333333333333,4,1,0,70,0,0
152928,-100,4,1,0,70,0,0
154220,-66.6666666666667,4,1,0,70,0,0
157091,-80,4,1,0,70,0,0
157378,-100,4,1,0,70,0,0
158383,-80,4,1,0,70,0,0
158670,-66.6666666666667,4,1,0,70,0,0
160967,-100,4,1,0,70,0,0
161684,-80,4,1,0,70,0,0
161971,-66.6666666666667,4,1,0,70,0,0
163981,-133.333333333333,4,1,0,70,0,0
165703,-200,4,1,0,70,0,0
166995,-66.6666666666667,4,1,0,70,0,1
167067,-100,4,1,0,70,0,0
167282,-66.6666666666667,4,1,0,70,0,1
167928,-100,4,1,0,70,0,0
168000,-66.6666666666667,4,1,0,70,0,1
169005,-80,4,1,0,70,0,1
170153,-66.6666666666667,4,1,0,70,0,1
170727,-80,4,1,0,70,0,1
173598,-66.6666666666667,4,1,0,70,0,1
174818,-100,4,1,0,70,0,0
174890,-66.6666666666667,4,1,0,70,0,1
175895,-80,4,1,0,70,0,1
177187,-66.6666666666667,4,1,0,70,0,1
178191,-100,4,1,0,70,0,1
178478,-80,4,1,0,70,0,1
178766,-66.6666666666667,4,1,0,70,0,1
179053,-57.1428571428571,4,1,0,70,0,1
179340,-50,4,1,0,70,0,1
179770,-66.6666666666667,4,1,0,70,0,1
180488,-80,4,1,0,70,0,1
182354,-66.6666666666667,4,1,0,70,0,1
183502,-100,4,1,0,70,0,1
183646,-66.6666666666667,4,1,0,70,0,1
184077,-100,4,1,0,70,0,0
184651,-66.6666666666667,4,1,0,70,0,0
188239,-100,4,1,0,70,0,0
188526,-66.6666666666667,4,1,0,70,0,0
190249,-80,4,1,0,70,0,0
190679,-100,4,1,0,70,0,0
190967,-66.6666666666667,4,1,0,70,0,0
191971,-80,4,1,0,70,0,0
195416,-66.6666666666667,4,1,0,70,0,0
195847,-80,4,1,0,70,0,0
197713,-66.6666666666667,4,1,0,70,0,0
199579,-100,4,1,0,70,0,0
199866,-80,4,1,0,70,0,0
200153,-66.6666666666667,4,1,0,70,0,1
200225,-100,4,1,0,70,0,0
200584,-80,4,1,0,70,0,0
201014,-100,4,1,0,70,0,0
201301,-80,4,1,0,70,0,0
202163,-100,4,1,0,70,0,0
202450,-80,4,1,0,70,0,0
202880,-100,4,1,0,70,0,0
204459,-80,4,1,0,70,0,0
204746,-66.6666666666667,4,1,0,70,0,0
205177,-80,4,1,0,70,0,0
205608,-66.6666666666667,4,1,0,70,0,0
205895,-80,4,1,0,70,0,0
206756,-100,4,1,0,70,0,0
207043,-80,4,1,0,70,0,0
207474,-100,4,1,0,70,0,0
207904,-80,4,1,0,70,0,0
208191,-100,4,1,0,70,0,0
208766,-80,4,1,0,70,0,0
209196,-100,4,1,0,70,0,0
209340,-66.6666666666667,4,1,0,70,0,0
209914,-80,4,1,0,70,0,0
210201,-100,4,1,0,70,0,0
210488,-80,4,1,0,70,0,0
211349,-100,4,1,0,70,0,0
211636,-80,4,1,0,70,0,0
212067,-100,4,1,0,70,0,0
213646,-80,4,1,0,70,0,0
213933,-66.6666666666667,4,1,0,70,0,0
214364,-80,4,1,0,70,0,0
214794,-100,4,1,0,70,0,0
215081,-80,4,1,0,70,0,0
215943,-100,4,1,0,70,0,0
216230,-66.6666666666667,4,1,0,70,0,0
217378,-100,4,1,0,70,0,0
217522,-80,4,1,0,70,0,0
217665,-66.6666666666667,4,1,0,70,0,0
217809,-57.1428571428571,4,1,0,70,0,0

[HitObjects]
186,218,1493,6,0,P|229:185|234:112,1,106.875004076958
93,192,1780,2,0,P|130:236|199:252,1,106.875004076958
272,246,2067,5,0,0:0:0:0:
147,136,2211,1,0,0:0:0:0:
150,321,2354,1,0,0:0:0:0:
349,256,2498,6,0,P|379:212|385:173,1,71.2500027179719
495,80,2785,2,0,P|468:108|461:144,1,71.2500027179719
379,284,3072,6,0,P|374:205|295:169,1,142.500005435944
213,224,3502,1,0,0:0:0:0:
339,288,3646,1,0,0:0:0:0:
242,127,3789,6,0,L|165:25,1,106.875004076958
248,72,4077,2,0,L|284:189,1,106.875004076958
219,246,4364,5,0,0:0:0:0:
308,130,4507,1,0,0:0:0:0:
129,166,4651,1,0,0:0:0:0:
258,297,4794,6,0,L|348:336,1,71.2500027179719
477,248,5081,2,0,L|390:234,1,71.2500027179719
212,278,5368,5,0,0:0:0:0:
386,250,5512,2,0,P|447:233|482:188,1,106.875004076958
488,161,5799,5,0,0:0:0:0:
263,259,5943,2,0,B|253:260|253:260|236:279|236:279|214:268|180:280|180:280|146:308|119:298,1,142.5
111,298,6230,1,0,0:0:0:0:
4,193,6373,1,0,0:0:0:0:
157,233,6517,1,0,0:0:0:0:
196,95,6660,2,0,P|219:50|281:19,1,95
393,56,6947,1,0,0:0:0:0:
236,125,7091,6,0,B|204:132|204:132|112:105,1,95
77,39,7378,1,0,0:0:0:0:
186,217,7522,2,0,L|208:315,1,95
136,360,7809,5,0,0:0:0:0:
271,266,7952,1,0,0:0:0:0:
56,170,8096,1,0,0:0:0:0:
278,62,8239,6,0,P|336:35|424:47,1,142.5
455,147,8526,5,0,0:0:0:0:
351,127,8670,1,0,0:0:0:0:
450,68,8813,2,0,L|461:121,1,35.625001358986
365,202,8957,5,0,0:0:0:0:
362,206,9029,1,0,0:0:0:0:
354,212,9100,1,0,0:0:0:0:
339,217,9172,1,0,0:0:0:0:
319,215,9244,5,0,0:0:0:0:
297,202,9316,1,0,0:0:0:0:
262,195,9388,1,0,0:0:0:0:
225,209,9459,1,0,0:0:0:0:
201,247,9531,5,0,0:0:0:0:
250,239,9603,1,0,0:0:0:0:
289,200,9675,1,0,0:0:0:0:
300,142,9746,1,0,0:0:0:0:
290,71,9818,6,0,L|281:130,1,47.5
179,279,9962,6,0,L|174:208,1,71.2500027179719
66,55,10105,5,0,0:0:0:0:
91,353,10249,1,0,0:0:0:0:
113,372,10536,6,0,P|110:316|122:290,1,71.2500027179719
283,104,10679,6,0,B|296:71|336:80|353:133|323:168|264:169|228:136|208:111|171:121|182:150,1,213.750008153916
137,212,10967,2,0,P|223:235|293:161,1,178.125
174,205,11254,5,0,0:0:0:0:
267,330,11397,1,0,0:0:0:0:
314,154,11541,1,0,0:0:0:0:
149,278,11684,6,0,B|145:291|145:291|131:292|131:292|119:306|119:306|94:313|66:324|66:324|53:351|53:351|37:354,1,142.500005435944
296,254,11971,1,0,0:0:0:0:
110,279,12115,1,0,0:0:0:0:
338,231,12258,2,0,P|415:208|486:141,1,142.500005435944
133,195,12545,5,0,0:0:0:0:
296,206,12689,1,0,0:0:0:0:
227,324,12833,1,0,0:0:0:0:
298,103,12976,6,0,B|313:62|343:38|377:25|417:31|452:40|457:80|430:112|398:77,1,213.750008153916
296,33,13263,2,0,B|272:20|272:20|142:26,1,118.75
209,213,13550,5,0,0:0:0:0:
152,51,13694,1,0,0:0:0:0:
105,255,13837,1,0,0:0:0:0:
354,190,13981,6,0,P|378:142|294:167,1,178.125
337,218,14268,1,0,0:0:0:0:
341,23,14411,1,0,0:0:0:0:
241,233,14555,6,0,B|231:236|231:236|239:249|239:249|202:257|182:292|182:292|191:301|191:301|156:324|148:385,1,178.125
137,383,14842,1,0,0:0:0:0:
259,317,14986,1,0,0:0:0:0:
60,352,15129,6,0,P|27:353|52:273,1,142.500005435944
302,330,15416,1,0,0:0:0:0:
319,163,15560,2,0,P|353:104|468:65,1,178.125
483,85,15847,5,0,0:0:0:0:
433,164,15990,1,0,0:0:0:0:
307,82,16134,1,0,0:0:0:0:
244,269,16278,6,0,B|227:297|227:297|162:284|106:313|106:313|56:297,1,190
0,153,16708,1,0,0:0:0:0:
133,336,16852,2,0,P|204:342|198:232,1,178.125
179,244,17139,1,0,0:0:0:0:
343,289,17282,2,0,L|454:268,1,95
300,157,17569,5,0,0:0:0:0:
276,259,17713,1,0,0:0:0:0:
436,210,17856,1,0,0:0:0:0:
209,176,18000,6,0,B|201:184|201:184|186:174|186:174|171:184|114:172|114:172|97:176|97:176|36:162,1,142.5
29,170,18287,1,0,0:0:0:0:
190,268,18431,1,0,0:0:0:0:
95,97,18574,6,0,L|76:58,1,23.75
111,119,18861,6,0,L|95:65,1,29.6875
127,145,19148,6,0,L|120:87,1,35.625001358986
206,194,19292,2,0,B|204:207|204:207|225:212|225:212|220:222|220:222|214:295|321:306,1,142.500005435944
308,159,19507,1,0,0:0:0:0:
281,144,19579,2,0,B|262:156|262:156|168:161,1,95
110,206,19866,6,0,P|186:168|266:188,1,142.500005435944
338,256,20153,1,0,0:0:0:0:
360,104,20297,6,0,B|373:71|373:71|424:45|489:45,1,142.5
452,62,20584,2,0,P|386:59|337:29,1,95
201,28,20871,6,0,P|255:58|205:131,1,142.5
213,136,21158,1,0,0:0:0:0:
335,79,21301,1,0,0:0:0:0:
253,226,21445,1,0,0:0:0:0:
129,113,21589,2,0,B|114:98|114:98|94:92|94:92|84:54|56:26,2,95
241,254,22019,1,0,0:0:0:0:
304,136,22163,6,0,P|332:107|401:91,1,95
480,161,22450,1,0,0:0:0:0:
318,232,22593,6,0,P|249:190|247:152,1,95
316,301,22880,2,0,P|272:265|250:217,1,95
290,373,23167,6,0,P|260:305|359:253,1,190
386,328,23598,1,0,0:0:0:0:
182,275,23742,2,0,B|174:282|174:282|161:275|161:275|144:288|86:288|86:288|75:274|51:272|51:272|37:282,1,142.5
11,329,24029,2,0,L|64:307,1,47.5
64,155,24172,2,0,P|80:102|170:80,1,142.5
203,99,24459,6,0,P|143:103|131:59,1,95
305,34,24746,1,0,0:0:0:0:
339,164,24890,2,0,B|347:177|347:177|339:204|339:204|351:224|334:300,2,95
272,25,25321,5,0,0:0:0:0:
288,296,25464,2,0,B|277:317|299:332|337:330|348:281|316:239|287:215|255:207|228:205|200:225,1,178.125
215,223,25751,1,0,0:0:0:0:
413,308,25895,1,0,0:0:0:0:
290,148,26038,2,0,B|276:136|276:136|228:130|181:169,1,95
340,210,26325,1,0,0:0:0:0:
205,51,26469,1,0,0:0:0:0:
378,93,26612,5,0,0:0:0:0:
221,210,26756,2,0,P|183:228|75:217,1,142.5
56,199,27043,1,0,0:0:0:0:
265,150,27187,2,0,L|387:171,1,95
399,275,27474,5,0,0:0:0:0:
258,116,27617,1,0,0:0:0:0:
484,226,27761,2,0,P|456:243|359:190,1,142.500005435944
482,115,28048,1,0,0:0:0:0:
278,155,28191,6,0,L|299:219,1,47.5
432,344,28335,6,0,L|421:257,1,71.2500027179719
383,74,28478,5,0,0:0:0:0:
340,337,28622,1,0,0:0:0:0:
333,360,28909,5,0,0:0:0:0:
335,137,29053,2,0,B|341:122|341:122|329:110|329:110|338:87|325:53|293:25|293:25|270:47,1,142.500005435944
263,210,29268,1,0,0:0:0:0:
258,240,29340,1,0,0:0:0:0:
434,106,29483,6,0,B|455:99|459:57|419:40|386:56|365:82|385:133|367:162|358:196|339:182,1,213.750008153916
259,129,29770,2,0,P|207:94|114:115,1,118.75
57,208,30057,6,0,P|133:205|74:172,1,178.125
27,210,30345,1,0,0:0:0:0:
238,221,30488,1,0,0:0:0:0:
125,308,30632,1,0,0:0:0:0:
106,98,30775,2,0,P|68:45|23:27,1,95
108,201,31062,5,0,0:0:0:0:
250,142,31206,1,0,0:0:0:0:
83,218,31349,6,0,B|73:248|73:248|130:207|188:218,1,142.5
212,235,31636,1,0,0:0:0:0:
110,104,31780,2,0,P|38:78|-9:91,1,95
298,69,32067,2,0,P|365:70|408:39,1,95
134,88,32354,6,0,P|78:86|15:160,1,142.500005435944
47,264,32641,1,0,0:0:0:0:
217,113,32785,1,0,0:0:0:0:
297,252,32928,6,0,P|333:262|291:218,1,142.5
252,256,33215,2,0,L|200:314,1,47.5
118,324,33359,1,0,0:0:0:0:
194,144,33502,5,0,0:0:0:0:
324,319,33646,2,0,B|327:354|371:351|397:310|393:259|359:204|294:191|243:205,1,213.750008153916
258,204,33933,1,0,0:0:0:0:
464,149,34077,6,0,B|482:131|482:131|377:139,1,118.75
234,240,34364,1,0,0:0:0:0:
420,271,34507,1,0,0:0:0:0:
202,146,34651,6,0,P|165:129|46:137,1,142.500005435944
27,241,34938,1,0,0:0:0:0:
228,123,35081,1,0,0:0:0:0:
257,272,35225,6,0,B|282:290|282:290|373:297,1,95
440,236,35512,1,0,0:0:0:0:
337,130,35656,2,0,P|271:99|221:126,1,95
275,183,35871,5,0,0:0:0:0:
306,180,35943,2,0,L|390:137,1,95
439,1,36230,1,0,0:0:0:0:
281,89,36373,6,0,P|223:97|162:73,1,95
345,80,36660,6,0,P|263:61|237:23,1,118.75
397,114,36947,6,0,P|353:80|419:75,1,142.500005435944
501,217,37234,1,0,0:0:0:0:
316,154,37378,6,0,P|242:135|177:154,1,118.75
120,239,37593,1,0,0:0:0:0:
128,208,37665,1,0,0:0:0:0:
220,316,37809,1,0,0:0:0:0:
205,97,37952,5,0,0:0:0:0:
172,265,38096,1,0,0:0:0:0:
102,23,38239,6,0,L|135:167,1,142.500005435944
264,233,38526,1,0,0:0:0:0:
218,63,38670,1,0,0:0:0:0:
190,255,38813,6,0,P|169:309|120:352,1,95
17,356,39100,1,0,0:0:0:0:
225,279,39244,6,0,P|270:253|409:277,2,190
164,367,39962,1,0,0:0:0:0:
277,215,40105,2,0,L|329:99,1,95
296,10,40392,5,0,0:0:0:0:
243,209,40536,2,0,P|250:275|295:329,1,95
456,316,40823,2,0,P|401:281|360:285,1,95
176,340,41110,5,0,0:0:0:0:
165,355,41254,1,0,0:0:0:0:
285,194,41397,1,0,0:0:0:0:
107,300,41541,6,0,P|79:305|51:184,1,190
217,226,41971,1,0,0:0:0:0:
88,346,42115,1,0,0:0:0:0:
116,138,42258,6,0,L|136:38,1,95
269,165,42545,6,0,L|227:289,1,118.75
117,160,42833,6,0,L|160:4,1,142.500005435944
288,136,43120,5,0,0:0:0:0:
257,318,43263,1,0,0:0:0:0:
387,108,43407,6,0,P|437:90|479:95,1,95
335,259,43694,6,0,P|273:250|221:203,1,118.75
380,90,43981,6,0,P|462:97|494:151,1,142.500005435944
381,258,44268,5,0,0:0:0:0:
205,182,44411,2,0,B|200:172|200:172|186:171|186:171|168:153|143:136|143:136|103:120,1,95
298,302,44699,2,0,B|310:304|331:328|331:328|357:336|362:348|362:348|393:368,1,95
103,265,44986,1,0,0:0:0:0:
354,212,45129,6,0,P|393:181|316:186,1,190
379,238,45560,6,0,P|434:179|342:227,1,285.000010871888
445,305,45990,5,0,0:0:0:0:
245,179,46134,2,0,P|210:165|136:169,1,95
59,221,46421,1,0,0:0:0:0:
166,79,46565,5,0,0:0:0:0:
175,298,46708,1,0,0:0:0:0:
269,143,46852,6,0,L|235:265,1,95
416,61,47139,5,0,0:0:0:0:
310,317,47282,1,0,0:0:0:0:
173,169,47426,6,0,B|158:166|158:166|142:126|142:126|131:124|131:124|123:103|93:69|93:69|64:63,1,142.500005435944
90,209,47713,1,0,0:0:0:0:
141,11,47856,1,0,0:0:0:0:
293,161,48000,2,0,P|351:178|421:172,1,95
478,66,48287,1,0,0:0:0:0:
243,206,48431,6,0,P|343:224|414:110,1,213.750008153916
381,125,48718,1,0,0:0:0:0:
307,311,48861,1,0,0:0:0:0:
213,176,49005,6,0,P|155:142|104:143,1,118.75
30,243,49292,1,0,0:0:0:0:
220,198,49435,1,0,0:0:0:0:
1,221,49579,1,0,0:0:0:0:
188,272,49722,6,0,B|216:286|216:286|227:282|227:282|258:311|310:317,1,118.75
398,258,50010,1,0,0:0:0:0:
259,381,50153,1,0,0:0:0:0:
245,164,50297,5,0,0:0:0:0:
241,142,50440,1,0,0:0:0:0:
384,285,50584,1,0,0:0:0:0:
203,122,50727,6,0,B|194:110|194:110|175:115|175:115|149:81|149:81|140:82|140:82|127:65|101:41|55:31,1,178.125
26,35,51014,1,0,0:0:0:0:
118,191,51158,1,0,0:0:0:0:
204,77,51301,5,0,0:0:0:0:
64,123,51445,1,0,0:0:0:0:
285,101,51589,1,0,0:0:0:0:
132,24,51732,1,0,0:0:0:0:
360,159,51876,1,0,0:0:0:0:
103,155,52019,6,0,P|82:182|151:183,1,142.500005435944
121,81,52306,1,0,0:0:0:0:
68,284,52450,1,0,0:0:0:0:
252,227,52593,5,0,0:0:0:0:
154,262,52737,1,0,0:0:0:0:
338,288,52880,1,0,0:0:0:0:
191,156,53024,1,0,0:0:0:0:
410,224,53167,6,0,P|470:211|486:125,1,142.5
454,152,53455,1,0,0:0:0:0:
264,266,53598,2,0,L|177:320,1,95
364,162,53885,2,0,L|451:106,1,95
276,291,54172,6,0,B|253:310|253:310|165:289|104:326,1,178.125
79,350,54459,1,0,0:0:0:0:
217,225,54603,2,0,P|246:171|221:121,1,118.75
65,101,54890,5,0,0:0:0:0:
116,224,55033,1,0,0:0:0:0:
152,42,55177,5,0,0:0:0:0:
40,271,55321,2,0,B|19:285|17:307|45:321|71:322|70:300|71:239|107:220|153:221|176:247,1,178.125
175,257,55608,1,0,0:0:0:0:
269,127,55751,2,0,B|286:105|286:105|377:89,1,95
445,235,56038,5,0,0:0:0:0:
289,167,56182,1,0,0:0:0:0:
473,113,56325,1,0,0:0:0:0:
401,306,56469,1,0,0:0:0:0:
213,109,56612,6,0,P|174:77|66:79,1,142.500005435944
122,212,56900,1,0,0:0:0:0:
235,26,57043,5,0,0:0:0:0:
89,203,57187,2,0,P|57:239|142:279,1,178.125
147,249,57474,1,0,0:0:0:0:
7,306,57617,6,0,P|63:336|171:224,1,237.5
144,69,58048,2,0,L|83:192,1,118.75
272,261,58335,6,0,L|267:154,1,95
70,123,58622,6,0,L|62:224,1,71.2500027179719
311,285,58909,5,0,0:0:0:0:
182,112,59053,1,0,0:0:0:0:
158,239,59196,1,0,0:0:0:0:
411,200,59340,6,0,L|520:187,1,106.875004076958
337,175,59627,6,0,L|488:185,1,142.5
273,127,59914,6,0,L|448:168,1,166.250001585484
469,297,60201,1,0,0:0:0:0:
377,101,60345,6,0,P|314:48|251:56,1,118.75
153,136,60632,5,0,0:0:0:0:
254,135,60775,1,0,0:0:0:0:
101,76,60919,1,0,0:0:0:0:
229,273,61062,6,0,B|234:302|269:289|285:246|244:202|199:186|166:195|146:218,1,142.500005435944
52,252,61349,1,0,0:0:0:0:
198,304,61493,5,0,0:0:0:0:
116,203,61636,1,0,0:0:0:0:
220,335,61780,5,0,0:0:0:0:
142,139,61923,1,0,0:0:0:0:
236,377,62067,5,0,0:0:0:0:
212,72,62211,2,0,L|218:154,1,71.2500027179719
162,299,62354,5,0,0:0:0:0:
337,218,62498,1,0,0:0:0:0:
111,246,62641,2,0,P|65:234|20:180,1,106.875004076958
48,191,62928,6,0,P|110:250|186:244,1,142.5
216,247,63215,6,0,P|153:261|92:175,1,178.125
127,161,63502,5,0,0:0:0:0:
232,325,63646,1,0,0:0:0:0:
241,335,63789,1,0,0:0:0:0:
107,148,63933,5,0,0:0:0:0:
260,333,64077,1,0,0:0:0:0:
280,348,64220,1,0,0:0:0:0:
65,138,64364,5,0,0:0:0:0:
307,335,64507,1,0,0:0:0:0:
345,355,64651,2,0,B|357:367|371:365|389:344|385:303|316:259|252:279,1,178.125
227,282,64938,5,0,0:0:0:0:
56,355,65081,1,0,0:0:0:0:
388,280,65225,6,0,B|427:261|456:197|434:159|373:158|372:195|392:204,1,166.25
354,322,65799,6,0,P|424:269|425:189,1,142.500005435944
396,86,66086,2,0,P|408:182|450:235,1,142.500005435944
456,8,66373,5,0,0:0:0:0:
245,97,66517,1,0,0:0:0:0:
441,156,66660,1,0,0:0:0:0:
188,273,66804,6,0,L|49:263,1,95
288,276,67091,6,0,P|220:304|133:271,1,118.75
362,347,67378,6,0,P|296:265|188:329,1,213.750008153916
246,315,67665,1,0,0:0:0:0:
414,230,67809,1,0,0:0:0:0:
131,213,67952,1,0,0:0:0:0:
301,218,68096,6,0,P|345:140|329:76,1,142.500005435944
206,79,68383,2,0,B|221:101|270:109|270:109|299:86|366:91,1,142.500005435944
441,144,68670,5,0,0:0:0:0:
265,147,68813,1,0,0:0:0:0:
456,19,68957,1,0,0:0:0:0:
235,161,69100,6,0,P|183:164|115:137,1,95
240,46,69388,6,0,P|370:50|381:66,1,118.75
260,173,69675,6,0,P|170:160|251:82,1,213.750008153916
251,87,69962,1,0,0:0:0:0:
417,194,70105,1,0,0:0:0:0:
144,153,70249,6,0,B|131:162|131:162|109:142|109:142|95:150|40:103|40:103|25:109|-3:90,1,166.250001585484
17,6,70536,1,0,0:0:0:0:
125,240,70679,1,0,0:0:0:0:
187,47,70823,6,0,P|205:21|333:22,1,142.500005435944
329,191,71110,1,0,0:0:0:0:
204,88,71254,1,0,0:0:0:0:
429,64,71397,2,0,B|440:88|440:88|403:200,1,118.75
226,248,71684,1,0,0:0:0:0:
404,209,71828,6,0,L|466:93,1,118.75
226,118,72115,1,0,0:0:0:0:
353,146,72258,1,0,0:0:0:0:
363,4,72402,1,0,0:0:0:0:
222,254,72545,6,0,B|214:273|241:294|276:272|283:219|266:184|231:147|190:143|166:161,1,178.125
173,174,72833,1,0,0:0:0:0:
327,295,72976,2,0,P|362:313|455:273,1,118.75
398,108,73263,5,0,0:0:0:0:
320,215,73407,1,0,0:0:0:0:
489,149,73550,1,0,0:0:0:0:
229,206,73694,6,0,B|200:216|200:216|156:190|101:186,1,118.75
1,268,73981,1,0,0:0:0:0:
258,127,74124,1,0,0:0:0:0:
37,280,74268,6,0,L|106:266,1,47.5
298,111,74411,1,0,0:0:0:0:
372,205,74555,1,0,0:0:0:0:
201,190,74699,1,0,0:0:0:0:
386,9,74842,1,0,0:0:0:0:
250,295,74986,6,0,B|234:317|234:317|216:255|254:204,1,142.500005435944
376,167,75273,2,0,B|364:192|364:192|295:218|241:205,1,142.500005435944
149,98,75560,5,0,0:0:0:0:
273,139,75703,1,0,0:0:0:0:
39,155,75847,1,0,0:0:0:0:
368,65,75990,6,0,L|424:153,1,95
243,251,76278,6,0,L|255:115,1,118.75
390,40,76565,6,0,P|409:119|315:200,1,213.750008153916
297,174,76852,1,0,0:0:0:0:
178,68,76995,1,0,0:0:0:0:
461,47,77139,1,0,0:0:0:0:
480,270,77282,6,0,B|481:288|501:287|521:274|516:229|486:212|413:201,1,142.500005435944
312,192,77569,2,0,B|363:232|363:232|400:228|437:202,1,142.500005435944
284,88,77856,5,0,0:0:0:0:
341,306,78000,1,0,0:0:0:0:
383,141,78144,1,0,0:0:0:0:
191,259,78287,6,0,P|156:282|106:291,1,71.2500027179719
0,183,78574,6,0,P|54:171|119:189,1,95
250,262,78861,6,0,P|167:290|126:260,1,118.75
352,265,79148,6,0,P|255:247|238:189,1,142.500005435944
421,286,79435,6,0,P|353:214|406:119,1,166.250001585484
510,103,79722,5,0,0:0:0:0:
318,180,79866,2,0,B|301:190|285:193|285:193|284:186|284:186|205:197|151:170,1,142.500005435944
48,148,80153,5,0,0:0:0:0:
150,216,80297,1,0,0:0:0:0:
96,73,80440,1,0,0:0:0:0:
121,286,80584,2,0,B|160:311|160:311|196:243|285:239|285:239|304:171,1,213.750008153916
261,205,80871,2,0,P|176:205|121:231,1,142.500005435944
256,332,81158,2,0,L|399:305,1,142.500005435944
296,109,81445,5,0,0:0:0:0:
266,255,81589,1,0,0:0:0:0:
340,172,81732,1,0,0:0:0:0:
150,145,81876,2,0,B|126:152|126:152|80:187|70:238,1,118.75
225,328,82163,1,0,0:0:0:0:
366,155,82306,5,0,0:0:0:0:
168,126,82450,2,0,B|135:129|135:129|83:162|51:235,1,142.500005435944
251,346,82737,1,0,0:0:0:0:
384,124,82880,5,0,0:0:0:0:
192,97,83024,2,0,P|104:143|141:260,1,213.750008153916
154,246,83311,1,0,0:0:0:0:
91,45,83455,1,0,0:0:0:0:
80,296,83598,5,0,0:0:0:0:
95,312,83670,1,0,0:0:0:0:
128,323,83742,1,0,0:0:0:0:
179,325,83813,1,0,0:0:0:0:
229,296,83885,5,0,0:0:0:0:
136,96,84029,1,0,0:0:0:0:
282,312,84172,6,0,P|340:317|411:267,1,142.500005435944
147,192,84459,2,0,P|89:187|18:237,1,142.500005435944
177,292,84746,5,0,0:0:0:0:
254,122,84890,1,0,0:0:0:0:
222,265,85033,5,0,0:0:0:0:
186,29,85177,2,0,B|175:46|175:46|169:73|171:107,1,71.2500027179719
301,297,85321,6,0,P|305:196|259:153,1,142.500005435944
40,46,85608,2,0,P|36:147|82:190,1,142.500005435944
381,195,85895,5,0,0:0:0:0:
184,239,86038,1,0,0:0:0:0:
125,100,86182,5,0,0:0:0:0:
358,265,86325,2,0,L|276:283,1,71.2500027179719
35,248,86469,6,0,B|98:215|98:215|223:221,1,142.500005435944
462,119,86756,2,0,B|398:151|398:151|273:145,1,142.500005435944
167,46,87043,6,0,L|223:34,1,47.5
403,31,87187,1,0,0:0:0:0:
423,35,87258,1,0,0:0:0:0:
455,50,87330,1,0,0:0:0:0:
482,82,87402,1,0,0:0:0:0:
492,130,87474,6,0,B|482:149|482:149|487:158|487:158|473:168|496:212|496:212|502:290|435:305,1,178.125
438,312,87761,1,0,0:0:0:0:
264,198,87904,1,0,0:0:0:0:
430,338,88048,6,0,P|489:282|415:177,1,213.750008153916
413,197,88335,1,0,0:0:0:0:
305,307,88478,1,0,0:0:0:0:
185,55,88622,6,0,B|177:22|113:29|111:112|155:121|221:82|275:93|270:165|270:179,1,213.750008153916
248,178,88909,1,0,0:0:0:0:
51,144,89053,2,0,B|28:105|28:105|111:154,1,142.500005435944
161,224,89268,1,0,0:0:0:0:
172,242,89340,1,0,0:0:0:0:
286,192,89483,6,0,L|328:291,1,95
307,164,89770,6,0,P|321:214|285:341,1,142.500005435944
239,366,90057,5,0,0:0:0:0:
224,245,90201,1,0,0:0:0:0:
125,285,90345,1,0,0:0:0:0:
332,338,90488,6,0,P|376:348|469:294,1,142.5
487,301,90775,6,0,P|465:327|345:266,1,178.125
276,264,91062,6,0,B|311:278|311:278|431:248,1,142.500005435944
439,120,91349,1,0,0:0:0:0:
282,170,91493,6,0,B|269:185|269:185|242:188|242:188|217:220|162:221,1,118.75
49,215,91780,1,0,0:0:0:0:
216,105,91923,2,0,P|291:86|340:133,1,118.75
383,185,92211,2,0,P|359:196|371:112,1,178.125
421,184,92498,2,0,B|436:206|436:206|415:313,1,118.75
232,305,92785,5,0,0:0:0:0:
296,188,92928,1,0,0:0:0:0:
309,358,93072,5,0,0:0:0:0:
149,257,93215,1,0,0:0:0:0:
384,326,93359,6,0,P|438:334|490:200,1,213.750008153916
476,260,93646,1,0,0:0:0:0:
441,116,93789,6,0,P|400:54|301:75,1,178.125
297,101,94077,1,0,0:0:0:0:
183,248,94220,6,0,B|166:260|166:260|201:158,1,95
389,167,94507,1,0,0:0:0:0:
240,254,94651,6,0,P|170:227|231:157,1,178.125
251,154,94938,1,0,0:0:0:0:
118,327,95081,6,0,P|83:265|96:216,1,95
314,212,95368,6,0,P|343:138|336:78,1,118.75
74,37,95656,6,0,P|61:60|120:43,1,142.500005435944
3,140,95943,1,0,0:0:0:0:
248,58,96086,2,0,P|280:46|420:70,1,178.125
450,94,96373,1,0,0:0:0:0:
249,26,96517,2,0,P|175:-3|97:19,1,118.75
253,179,96804,6,0,B|257:197|257:197|275:197|275:197|277:242|312:257|312:257|340:282|347:307|347:307|333:334,1,178.125
316,308,97091,1,0,0:0:0:0:
369,95,97234,1,0,0:0:0:0:
415,345,97378,2,0,B|427:361|427:361|439:312|409:247,1,118.75
189,154,97665,6,0,P|181:211|214:260,1,95
430,124,97952,6,0,P|369:11|334:13,1,178.125
315,29,98239,1,0,0:0:0:0:
391,162,98383,6,0,P|401:86|357:85,1,142.5
346,111,98670,1,0,0:0:0:0:
426,193,98813,5,0,0:0:0:0:
226,58,98957,1,0,0:0:0:0:
243,206,99100,6,0,L|253:283,1,71.2500027179719
462,209,99388,5,0,0:0:0:0:
178,68,99531,1,0,0:0:0:0:
229,228,99675,6,0,L|266:342,1,95
477,231,99962,5,0,0:0:0:0:
143,84,100105,2,0,L|90:52,1,47.5
154,175,100249,6,0,B|159:190|189:189|187:156|177:131|140:121|97:122|64:145,1,142.500005435944
17,271,100536,1,0,0:0:0:0:
228,207,100679,6,0,P|173:142|87:169,1,178.125
81,196,100967,1,0,0:0:0:0:
302,70,101110,6,0,L|198:59,1,95
106,66,101397,2,0,B|113:76|113:76|140:69|140:69|176:95|265:75|265:75|284:98,1,178.125
317,103,101684,1,0,0:0:0:0:
43,132,101828,1,0,0:0:0:0:
226,201,101971,6,0,P|279:222|355:195,1,118.75
492,304,102258,6,0,P|414:273|375:283,1,95
181,222,102545,6,0,P|284:205|302:116,1,178.125
285,117,102833,1,0,0:0:0:0:
256,305,102976,6,0,P|316:374|400:368,1,142.5
391,357,103263,1,0,0:0:0:0:
159,300,103407,6,0,P|91:304|63:327,1,95
279,350,103694,1,0,0:0:0:0:
165,329,103837,6,0,B|146:325|146:325|150:311|150:311|121:312|121:312|87:285|81:234|125:196,1,178.125
141,187,104124,1,0,0:0:0:0:
328,212,104268,6,0,P|367:166|346:72,1,118.75
96,57,104555,6,0,P|128:134|191:166,1,142.500005435944
366,217,104842,6,0,P|379:112|280:67,1,213.750008153916
274,104,105129,1,0,0:0:0:0:
139,275,105273,6,0,B|131:285|112:289|112:289|134:223|232:210,1,142.5
234,219,105560,1,0,0:0:0:0:
31,204,105703,2,0,L|137:201,1,95
246,299,105990,6,0,B|255:306|255:306|268:299|268:299|290:311|320:297|320:297|317:305|317:305|354:293|393:306|393:306|423:298,1,178.125
444,291,106278,1,0,0:0:0:0:
167,278,106421,1,0,0:0:0:0:
334,243,106565,6,0,L|469:215,1,118.75
212,314,106852,6,0,L|100:358,1,95
349,223,107139,6,0,L|501:139,1,142.5
487,123,107426,1,0,0:0:0:0:
271,235,107569,2,0,P|231:249|165:245,1,95
92,127,107856,1,0,0:0:0:0:
141,308,108000,2,0,P|231:279|252:224,1,118.75
118,22,108287,5,0,0:0:0:0:
104,6,108574,5,0,0:0:0:0:
124,91,108717,1,0,0:0:0:0:
230,64,108861,1,0,0:0:0:0:
36,55,109005,1,0,0:0:0:0:
247,186,109148,5,0,0:0:0:0:
171,0,109292,1,0,0:0:0:0:
32,217,109435,2,0,P|18:278|85:389,2,190
165,105,110153,1,0,0:0:0:0:
49,247,110297,2,0,P|63:295|114:317,1,95
264,234,110584,6,0,P|271:183|221:88,1,142.5
226,197,110871,2,0,P|245:249|349:253,1,142.5
359,247,111158,5,0,0:0:0:0:
155,232,111301,1,0,0:0:0:0:
282,297,111445,1,0,0:0:0:0:
194,105,111589,1,0,0:0:0:0:
209,330,111732,6,0,P|229:358|380:345,2,190
367,240,112450,5,0,0:0:0:0:
210,146,112593,2,0,P|160:133|123:134,1,71.2500027179719
40,255,112880,2,0,L|152:234,1,106.875004076958
209,248,113167,2,0,L|96:199,1,106.875004076958
71,214,113455,5,0,0:0:0:0:
141,115,113598,1,0,0:0:0:0:
110,301,113742,1,0,0:0:0:0:
23,209,113885,1,0,0:0:0:0:
206,272,114029,6,0,B|225:291|225:291|266:291|298:273,1,71.2500027179719
379,213,114316,1,0,0:0:0:0:
164,95,114459,1,0,0:0:0:0:
174,266,114603,6,0,P|236:303|293:296,1,106.875004076958
365,253,114890,6,0,P|277:286|202:255,1,142.5
181,200,115177,2,0,L|87:149,1,95
344,148,115464,2,0,L|250:141,1,95
369,288,115751,5,0,0:0:0:0:
276,204,115895,1,0,0:0:0:0:
506,266,116038,5,0,0:0:0:0:
392,243,116182,1,0,0:0:0:0:
511,358,116325,6,0,P|463:296|385:270,1,142.5
307,296,116612,2,0,B|285:300|285:300|247:272|241:222,1,95
283,68,116900,5,0,0:0:0:0:
343,185,117043,1,0,0:0:0:0:
184,121,117187,1,0,0:0:0:0:
393,134,117330,1,0,0:0:0:0:
172,259,117474,2,0,L|115:341,1,95
313,360,117761,6,0,P|278:318|192:362,1,142.5
74,286,118048,2,0,P|131:247|133:212,1,95
39,105,118335,5,0,0:0:0:0:
33,117,118407,1,0,0:0:0:0:
24,144,118478,1,0,0:0:0:0:
36,190,118550,1,0,0:0:0:0:
93,219,118622,6,0,P|159:227|210:258,1,118.75
291,359,118909,6,0,B|269:344|269:344|238:219,1,142.5
295,177,119196,2,0,L|288:283,1,95
195,39,119483,2,0,L|215:159,1,95
381,0,119770,5,0,0:0:0:0:
332,202,119914,1,0,0:0:0:0:
280,59,120057,2,0,P|239:13|148:34,1,142.5
109,102,120345,2,0,B|125:113|125:113|210:104,1,95
429,192,120632,2,0,P|371:164|327:170,1,95
208,251,120919,6,0,P|169:284|34:255,2,190
12,174,121636,5,0,0:0:0:0:
141,248,121780,2,0,P|202:236|227:207,1,71.2500027179719
253,91,122067,2,0,L|209:169,1,71.2500027179719
280,271,122354,2,0,L|280:353,1,71.2500027179719
165,307,122641,6,0,P|203:232|244:218,1,106.875004076958
293,197,122928,2,0,P|330:149|319:93,1,106.875004076958
296,71,123215,5,0,0:0:0:0:
345,255,123359,1,0,0:0:0:0:
237,152,123502,1,0,0:0:0:0:
437,185,123646,1,0,0:0:0:0:
270,276,123789,6,0,P|226:288|156:255,1,106.875004076958
147,213,124077,6,0,P|191:254|196:336,1,142.5
78,321,124364,6,0,L|109:220,1,95
242,72,124651,2,0,L|212:180,1,95
41,140,124938,5,0,0:0:0:0:
160,66,125081,1,0,0:0:0:0:
243,197,125225,1,0,0:0:0:0:
88,24,125368,1,0,0:0:0:0:
33,259,125512,6,0,B|41:289|41:289|60:205,1,95
127,72,125799,2,0,P|118:151|132:228,1,142.5
228,263,126086,2,0,P|236:309|223:367,1,95
312,102,126373,2,0,P|273:165|281:213,1,95
237,0,126660,6,0,P|226:48|207:82,2,63.3333333333333
103,172,126947,2,0,P|105:140|118:112,2,63.3333333333333
191,268,127234,5,0,0:0:0:0:
221,212,127330,1,0,0:0:0:0:
219,148,127426,1,0,0:0:0:0:
75,27,127522,5,0,0:0:0:0:
37,92,127617,1,0,0:0:0:0:
36,168,127713,1,0,0:0:0:0:
136,123,127809,5,0,0:0:0:0:
364,218,136421,6,0,B|367:224|375:239|411:213|412:182|377:149|332:155|297:174|281:214|298:283|358:290,1,237.5
377,294,136852,1,0,0:0:0:0:
265,211,136995,6,0,P|211:195|164:203,1,95
93,286,137426,2,0,L|143:269,1,47.5
205,97,137713,2,0,L|155:120,1,47.5
33,245,138000,6,0,P|88:265|142:257,1,95
186,203,138431,1,0,0:0:0:0:
261,302,138574,1,0,0:0:0:0:
348,260,138718,2,0,P|385:246|448:251,1,95
499,364,139148,5,0,0:0:0:0:
418,282,139292,2,0,P|357:258|317:274,1,95
235,298,139722,6,0,L|209:366,1,71.25
187,253,140010,2,0,L|190:342,1,71.25
232,268,140297,6,0,L|246:218,1,47.5
167,158,140584,2,0,L|158:100,1,47.5
73,43,140871,6,0,B|76:53|76:53|71:67|71:67|86:108|76:137,1,95
42,3,141301,2,0,P|36:30|24:59,1,47.5
138,190,141589,6,0,P|148:150|199:120,1,95
314,117,142019,1,0,0:0:0:0:
334,113,142306,1,0,0:0:0:0:
246,194,142449,1,0,0:0:0:0:
414,107,142593,6,0,P|417:129|373:188,1,95
271,176,143024,1,0,0:0:0:0:
408,197,143167,2,0,L|517:219,1,95
366,259,143598,2,0,L|317:248,1,47.5
356,342,143885,6,0,P|397:329|451:342,1,95
268,362,144316,2,0,P|254:334|191:313,1,95
116,356,144746,1,0,0:0:0:0:
296,245,144890,2,0,P|324:226|389:221,1,95
481,255,145321,5,0,0:0:0:0:
322,185,145464,2,0,B|315:189|315:189|303:178|303:178|291:182|249:151|249:151|233:157,1,95
119,211,145895,2,0,L|169:208,1,47.5
80,188,146110,5,0,0:0:0:0:
119,211,146182,2,0,P|176:224|217:223,1,71.2500027179719
287,171,146469,1,0,0:0:0:0:
181,302,146612,1,0,0:0:0:0:
286,136,146756,2,0,P|326:94|368:76,1,71.2500027179719
482,69,147043,2,0,P|426:98|407:99,1,71.2500027179719
210,52,147330,5,0,0:0:0:0:
172,131,147474,1,0,0:0:0:0:
251,186,147617,1,0,0:0:0:0:
187,64,147761,1,0,0:0:0:0:
149,233,147904,2,0,B|150:247|150:247|143:256|143:256|139:296|139:296|112:321,1,71.2500027179719
61,372,148191,1,0,0:0:0:0:
48,150,148335,6,0,L|58:200,1,35.625001358986
93,286,148478,2,0,P|126:328|153:338,1,71.2500027179719
294,274,148766,2,0,P|248:300|217:298,1,71.2500027179719
111,141,149053,6,0,P|134:209|223:219,1,142.500005435944
313,171,149483,1,0,0:0:0:0:
156,60,149627,5,0,0:0:0:0:
171,142,149770,1,0,0:0:0:0:
89,79,149914,1,0,0:0:0:0:
210,5,150057,1,0,0:0:0:0:
174,185,150201,6,0,L|171:246,1,47.5
207,138,150416,6,0,L|199:210,1,71.2500027179719
248,106,150632,6,0,L|221:228,1,95
135,304,150775,5,0,0:0:0:0:
65,352,150919,1,0,0:0:0:0:
76,235,151062,1,0,0:0:0:0:
202,348,151206,1,0,0:0:0:0:
262,217,151349,6,0,P|263:168|256:140,1,71.2500027179719
142,262,151636,2,0,L|167:332,1,71.2500027179719
339,190,151923,5,0,0:0:0:0:
309,292,152067,1,0,0:0:0:0:
392,239,152211,1,0,0:0:0:0:
240,267,152354,1,0,0:0:0:0:
353,110,152498,2,0,P|362:80|297:-6,1,142.500005435944
343,152,152928,6,0,P|360:75|263:58,1,190
210,156,153359,1,0,0:0:0:0:
374,189,153502,1,0,0:0:0:0:
143,231,153646,2,0,L|41:241,1,95
5,337,153933,6,0,L|61:329,1,47.5
166,226,154077,1,0,0:0:0:0:
181,215,154148,1,0,0:0:0:0:
207,177,154220,1,0,0:0:0:0:
202,116,154292,1,0,0:0:0:0:
149,53,154364,6,0,P|186:124|261:147,1,142.500005435944
109,8,154651,6,0,P|148:117|323:96,1,285.000010871888
382,88,155010,1,0,0:0:0:0:
387,65,155082,1,0,0:0:0:0:
288,249,155225,1,0,0:0:0:0:
191,36,155368,6,0,B|170:15|188:-12|228:-8|243:32|219:54|215:76|228:97|257:107|281:109,1,142.500005435944
406,169,155656,1,0,0:0:0:0:
165,141,155799,1,0,0:0:0:0:
323,286,155943,2,0,B|331:297|331:297|360:295|408:332|408:332|433:331|433:331|469:352|485:345,1,142.500005435944
251,183,156230,1,0,0:0:0:0:
345,316,156373,6,0,P|438:339|437:226,1,213.750008153916
432,235,156660,1,0,0:0:0:0:
257,325,156804,2,0,P|185:362|114:356,1,142.500005435944
60,176,157091,6,0,P|144:165|193:188,1,118.75
177,343,157378,6,0,P|79:326|57:308,1,95
159,127,157665,5,0,0:0:0:0:
211,85,157737,1,0,0:0:0:0:
271,86,157809,1,0,0:0:0:0:
300,121,157880,1,0,0:0:0:0:
285,166,157952,5,0,0:0:0:0:
258,169,158024,1,0,0:0:0:0:
248,150,158096,6,0,P|272:119|370:90,1,142.5
182,192,158383,6,0,P|251:143|353:170,1,178.125
97,232,158670,6,0,P|205:236|241:336,1,213.750008153916
234,357,159388,5,0,0:0:0:0:
181,220,159531,1,0,0:0:0:0:
127,337,159675,1,0,0:0:0:0:
250,129,159818,6,0,B|267:113|267:113|273:120|273:120|268:104|270:90|270:90|283:35|349:31,1,142.500005435944
451,46,160105,1,0,0:0:0:0:
291,193,160249,2,0,P|262:222|144:187,1,142.500005435944
84,166,160464,1,0,0:0:0:0:
81,142,160536,1,0,0:0:0:0:
127,284,160679,1,0,0:0:0:0:
157,89,160823,5,0,0:0:0:0:
160,323,160967,2,0,L|158:255,1,47.5
245,52,161110,5,0,0:0:0:0:
278,353,161254,1,0,0:0:0:0:
370,26,161397,6,0,P|395:90|386:136,1,95
339,178,161612,1,0,0:0:0:0:
301,259,161684,6,0,P|319:335|376:378,1,118.75
435,162,161971,6,0,P|412:52|357:18,1,142.500005435944
206,14,162258,5,0,0:0:0:0:
96,132,162402,1,0,0:0:0:0:
90,151,162545,1,0,0:0:0:0:
300,53,162689,5,0,0:0:0:0:
388,245,162833,1,0,0:0:0:0:
405,271,162976,1,0,0:0:0:0:
173,77,163120,5,0,0:0:0:0:
86,324,163263,1,0,0:0:0:0:
65,351,163407,2,0,B|53:382|53:382|97:325|181:318|242:354,1,213.750008153916
249,361,163694,1,0,0:0:0:0:
76,212,163837,5,0,0:0:0:0:
335,274,163981,2,0,P|364:249|296:245,1,142.500005435944
300,224,165703,6,0,L|264:177,1,47.5
227,169,165990,2,0,P|257:184|286:185,1,47.5
348,147,166278,5,0,0:0:0:0:
396,219,166421,1,0,0:0:0:0:
425,126,166565,1,0,0:0:0:0:
328,258,166708,2,0,P|306:279|256:295,1,71.25
330,220,166995,6,0,P|301:303|216:322,1,142.500005435944
78,174,167282,2,0,P|152:128|215:222,1,213.750008153916
27,207,167569,6,0,L|54:137,1,71.2500027179719
182,47,167713,5,0,0:0:0:0:
197,38,167785,1,0,0:0:0:0:
231,27,167856,1,0,0:0:0:0:
289,25,167928,1,0,0:0:0:0:
365,51,168000,6,0,B|377:81|377:81|330:53|255:61,1,142.500005435944
181,154,168287,2,0,B|221:147|221:147|255:115|271:56,1,142.500005435944
104,43,168574,5,0,0:0:0:0:
156,229,168718,1,0,0:0:0:0:
324,122,168861,1,0,0:0:0:0:
71,170,169005,2,0,P|32:187|-3:268,1,118.75
196,167,169292,2,0,P|114:148|147:46,1,178.125
142,93,169579,6,0,P|139:139|86:202,1,118.75
327,65,169866,2,0,P|247:96|196:151,1,118.75
187,315,170153,6,0,B|179:329|206:357|228:328|233:295|216:264|194:244|162:234,1,142.500005435944
76,223,170440,1,0,0:0:0:0:
132,378,170584,1,0,0:0:0:0:
291,211,170727,2,0,P|221:175|148:263,1,178.125
174,259,171014,2,0,L|164:382,1,118.75
318,242,171301,2,0,P|327:159|302:114,1,118.75
166,82,171589,1,0,0:0:0:0:
369,306,171732,6,0,L|341:184,1,118.75
211,107,172019,1,0,0:0:0:0:
265,245,172163,1,0,0:0:0:0:
361,93,172306,1,0,0:0:0:0:
200,219,172450,6,0,B|198:226|198:226|185:231|185:231|192:239|192:239|131:246|117:273|117:273|94:280|94:280|65:303|73:342,1,178.125
69,349,172737,1,0,0:0:0:0:
98,166,172880,2,0,P|116:117|196:82,1,118.75
327,142,173167,5,0,0:0:0:0:
199,156,173311,1,0,0:0:0:0:
298,44,173455,1,0,0:0:0:0:
302,264,173598,6,0,P|291:279|272:220,1,142.500005435944
397,305,173885,1,0,0:0:0:0:
210,304,174029,5,0,0:0:0:0:
188,299,174100,1,0,0:0:0:0:
167,294,174172,1,0,0:0:0:0:
145,290,174244,1,0,0:0:0:0:
88,277,174316,5,0,0:0:0:0:
305,325,174459,1,0,0:0:0:0:
88,277,174603,5,0,0:0:0:0:
134,284,174674,1,0,0:0:0:0:
180,298,174746,1,0,0:0:0:0:
229,307,174818,1,0,0:0:0:0:
305,325,174890,6,0,P|331:328|402:232,1,142.500005435944
365,135,175177,2,0,B|347:177|347:177|361:240|426:261,1,142.500005435944
484,146,175464,5,0,0:0:0:0:
313,192,175608,1,0,0:0:0:0:
488,296,175751,1,0,0:0:0:0:
386,131,175895,2,0,L|323:19,1,118.75
321,356,176182,2,0,P|311:256|325:217,1,118.75
399,106,176469,2,0,P|379:27|254:12,1,178.125
267,29,176756,5,0,0:0:0:0:
449,57,176900,1,0,0:0:0:0:
197,108,177043,1,0,0:0:0:0:
379,147,177187,6,0,P|411:177|379:275,1,142.500005435944
268,294,177474,2,0,P|339:252|415:282,1,142.500005435944
308,373,177761,5,0,0:0:0:0:
170,280,177904,1,0,0:0:0:0:
281,172,178048,1,0,0:0:0:0:
204,334,178191,2,0,P|178:364|103:381,1,95
12,239,178478,6,0,P|77:281|128:280,1,118.75
272,153,178766,6,0,L|120:206,1,142.500005435944
352,190,179053,6,0,L|164:199,1,166.250001585484
436,70,179340,6,0,L|197:135,1,190
79,218,179627,1,0,0:0:0:0:
282,64,179770,6,0,P|366:66|418:132,1,142.500005435944
315,299,180057,5,0,0:0:0:0:
433,198,180201,1,0,0:0:0:0:
183,296,180345,1,0,0:0:0:0:
288,126,180488,6,0,L|410:77,1,118.75
126,68,180775,1,0,0:0:0:0:
317,141,180919,2,0,P|381:99|332:27,1,178.125
298,28,181206,1,0,0:0:0:0:
142,143,181349,6,0,L|99:286,1,118.75
13,93,181636,1,0,0:0:0:0:
138,304,181780,2,0,P|138:200|95:166,1,118.75
230,142,182067,5,0,0:0:0:0:
255,271,182211,1,0,0:0:0:0:
90,330,182354,6,0,P|125:239|111:189,1,142.500005435944
247,99,182641,5,0,0:0:0:0:
272,309,182785,1,0,0:0:0:0:
63,369,182928,6,0,P|107:246|45:172,1,213.750008153916
55,215,183215,1,0,0:0:0:0:
187,344,183359,1,0,0:0:0:0:
138,82,183502,6,0,L|155:136,1,47.5
229,266,183646,6,0,L|232:192,1,71.2500027179719
300,34,183789,6,0,B|289:25|312:-20|362:-23|402:18|396:81|345:144|290:122,1,213.750008153916
295,139,184077,5,0,0:0:0:0:
97,224,184220,1,0,0:0:0:0:
49,124,184364,5,0,0:0:0:0:
300,268,184507,1,0,0:0:0:0:
326,81,184651,6,0,P|428:36|481:58,1,142.500005435944
339,286,184938,2,0,P|237:331|184:309,1,142.500005435944
125,274,185153,5,0,0:0:0:0:
117,255,185225,1,0,0:0:0:0:
374,368,185368,1,0,0:0:0:0:
338,164,185512,5,0,0:0:0:0:
40,259,185656,1,0,0:0:0:0:
313,277,185799,6,0,B|330:286|330:286|343:272|343:272|439:252|431:178,1,142.500005435944
140,109,186086,2,0,B|123:100|123:100|110:114|110:114|14:134|22:208,1,142.500005435944
70,304,186301,5,0,0:0:0:0:
75,332,186373,1,0,0:0:0:0:
200,39,186517,1,0,0:0:0:0:
317,339,186660,5,0,0:0:0:0:
266,61,186804,1,0,0:0:0:0:
168,260,186947,6,0,L|125:321,1,71.2500027179719
269,266,187091,5,0,0:0:0:0:
282,249,187163,1,0,0:0:0:0:
305,222,187234,1,0,0:0:0:0:
337,184,187306,1,0,0:0:0:0:
389,125,187378,6,0,B|400:93|466:108|452:187|419:217|350:212|300:158|322:97,1,213.750008153916
302,122,187665,1,0,0:0:0:0:
465,271,187809,5,0,0:0:0:0:
270,104,187952,2,0,B|261:85|261:85|249:94|249:94|219:62|219:62|176:47|94:52|91:127,1,213.750008153916
150,182,188239,6,0,P|126:260|137:296,1,95
120,168,188526,6,0,P|119:256|189:311,1,142.500005435944
345,296,188813,1,0,0:0:0:0:
189,159,188957,1,0,0:0:0:0:
246,287,189100,2,0,L|261:368,1,71.2500027179719
314,180,189244,5,0,0:0:0:0:
187,340,189388,1,0,0:0:0:0:
431,273,189531,1,0,0:0:0:0:
210,235,189675,6,0,B|197:222|197:222|191:225|191:225|180:217|131:222|131:222|108:211|38:208,1,142.500005435944
39,319,189962,2,0,B|0:353|0:353|115:327,1,142.500005435944
189,159,190249,6,0,P|135:147|27:228,1,178.125
124,318,190536,2,0,L|194:287,1,59.375
196,74,190679,6,0,P|131:88|81:146,1,142.5
85,169,190967,6,0,P|105:109|49:38,1,142.500005435944
11,248,191254,2,0,P|58:318|121:323,1,142.500005435944
222,187,191541,5,0,0:0:0:0:
106,241,191684,1,0,0:0:0:0:
302,279,191828,1,0,0:0:0:0:
174,160,191971,6,0,B|162:165|162:165|155:136|155:136|126:135|90:91|90:91|82:48|82:48|68:45|52:62,1,178.125
33,46,192258,1,0,0:0:0:0:
246,124,192402,1,0,0:0:0:0:
38,79,192545,6,0,P|127:127|220:118,1,178.125
230,97,192833,1,0,0:0:0:0:
64,246,192976,2,0,P|48:284|79:363,1,118.75
223,261,193263,6,0,P|240:180|163:115,1,178.125
266,196,193550,2,0,P|323:227|394:174,1,118.75
433,110,193837,5,0,0:0:0:0:
314,307,193981,1,0,0:0:0:0:
470,185,194124,1,0,0:0:0:0:
240,223,194268,2,0,B|228:236|228:236|211:231|211:231|171:257|113:252|113:252|91:258|91:258|77:243|50:231,1,178.125
31,269,194555,2,0,P|102:250|109:211,1,118.75
15,64,194842,6,0,B|2:95|2:95|6:134|64:161,1,118.75
214,179,195129,1,0,0:0:0:0:
312,12,195273,1,0,0:0:0:0:
70,17,195416,6,0,B|45:46|45:46|35:117|100:172,1,142.500005435944
251,194,195703,1,0,0:0:0:0:
332,88,195847,2,0,P|389:48|451:53,1,118.75
468,178,196134,5,0,0:0:0:0:
318,177,196278,1,0,0:0:0:0:
500,92,196421,1,0,0:0:0:0:
308,251,196565,6,0,B|297:261|297:261|269:245|241:249|241:249|238:268|213:264|213:264|209:269|209:269|190:267|166:271|119:304,1,178.125
117,311,196852,1,0,0:0:0:0:
353,232,196995,2,0,P|254:232|215:246,1,118.75
91,338,197282,5,0,0:0:0:0:
251,311,197426,1,0,0:0:0:0:
27,274,197569,1,0,0:0:0:0:
296,194,197713,6,0,B|313:195|313:195|313:182|327:161|327:161|350:159|350:159|369:136|425:144|425:144|455:121|455:121|467:111|479:114|479:114|485:102,1,213.750008153916
497,79,198000,1,0,0:0:0:0:
355,204,198144,2,0,P|301:247|225:237,1,142.500005435944
141,74,198431,5,0,0:0:0:0:
241,150,198574,1,0,0:0:0:0:
51,157,198718,1,0,0:0:0:0:
292,49,198861,6,0,P|328:31|447:44,1,142.500005435944
426,215,199148,5,0,0:0:0:0:
190,195,199292,1,0,0:0:0:0:
326,273,199435,1,0,0:0:0:0:
135,75,199579,6,0,P|81:25|-8:18,1,142.5
81,70,199866,6,0,P|174:92|236:45,1,178.125
105,172,200153,6,0,B|79:178|88:218|129:229|153:196|171:159|211:149|234:175,1,142.500005435944
399,225,200440,1,0,0:0:0:0:
237,120,200584,6,0,P|165:106|81:167,1,178.125
72,194,200871,1,0,0:0:0:0:
252,246,201014,6,0,P|317:224|332:196,1,95
420,87,201301,6,0,B|417:103|417:103|440:114|440:114|436:138|424:160|424:160|436:218|405:282,1,178.125
390,263,201589,2,0,B|406:290|406:290|397:384,1,118.75
192,206,201876,6,0,P|234:183|315:191,1,118.75
159,359,202163,6,0,P|109:388|37:358,1,95
161,191,202450,6,0,P|246:170|302:238,1,178.125
292,264,202737,1,0,0:0:0:0:
63,124,202880,6,0,P|159:131|238:154,1,142.5
181,161,203167,1,0,0:0:0:0:
10,16,203311,6,0,L|108:43,1,95
231,184,203598,5,0,0:0:0:0:
328,73,203742,2,0,B|333:66|333:66|346:70|346:70|372:47|405:41|405:41|422:50|465:52,1,142.5
492,40,204029,1,0,0:0:0:0:
278,136,204172,6,0,L|381:101,1,95
495,209,204459,6,0,P|426:213|381:191,1,118.75
152,321,204746,6,0,P|236:241|330:288,1,213.750008153916
300,226,205033,1,0,0:0:0:0:
177,332,205177,6,0,P|156:353|40:277,1,178.125
34,266,205464,1,0,0:0:0:0:
226,333,205608,6,0,B|241:345|241:345|260:341|260:341|302:378|371:352,1,142.500005435944
442,221,205895,6,0,B|430:227|430:227|411:218|411:218|384:229|321:212|321:212|292:190|263:194,1,178.125
249,215,206182,2,0,B|226:234|226:234|169:237|114:205,1,118.75
294,33,206469,6,0,P|351:82|341:134,1,118.75
81,135,206756,2,0,B|121:111|121:111|175:102,1,95
364,39,207043,6,0,B|377:40|385:47|385:47|381:71|381:71|391:81|391:81|399:135|362:188|310:188,1,178.125
309,193,207330,1,0,0:0:0:0:
201,116,207474,6,0,P|143:102|86:111,1,95
23,234,207761,1,0,0:0:0:0:
261,91,207904,6,0,L|106:82,1,118.75
165,203,208191,6,0,L|277:177,1,95
244,59,208478,5,0,0:0:0:0:
19,202,208622,1,0,0:0:0:0:
139,233,208766,6,0,L|280:212,1,118.75
278,36,209053,5,0,0:0:0:0:
25,240,209196,2,0,L|-9:274,1,47.5
175,184,209340,6,0,P|240:142|328:148,1,142.500005435944
464,245,209627,6,0,B|450:283|450:283|427:162,1,142.500005435944
428,60,209914,6,0,P|427:135|343:212,1,178.125
251,102,210201,6,0,B|272:88|272:88|371:98,1,95
297,278,210488,6,0,P|240:245|317:234,1,178.125
317,307,210775,1,0,0:0:0:0:
135,206,210919,1,0,0:0:0:0:
341,281,211062,2,0,P|403:309|471:301,1,118.75
207,179,211349,6,0,P|151:175|85:197,1,95
311,297,211636,6,0,P|403:278|351:202,1,178.125
362,219,211923,1,0,0:0:0:0:
222,304,212067,6,0,P|178:322|91:286,1,142.5
78,248,212354,1,0,0:0:0:0:
258,256,212498,6,0,L|285:354,1,95
126,162,212785,5,0,0:0:0:0:
233,243,212928,2,0,P|283:300|366:292,1,142.5
380,281,213215,1,0,0:0:0:0:
236,125,213359,6,0,L|206:224,1,95
409,123,213646,6,0,L|451:7,1,118.75
191,123,213933,6,0,B|179:133|179:133|191:143|191:143|158:165|150:185|150:185|161:190|161:190|133:232|143:288|143:288|166:317,1,213.750008153916
181,322,214220,1,0,0:0:0:0:
57,197,214364,6,0,P|63:247|113:308,1,118.75
267,310,214651,1,0,0:0:0:0:
311,155,214794,6,0,L|296:49,1,95
149,93,215081,6,0,P|208:168|299:173,1,178.125
332,140,215368,2,0,P|266:199|199:190,1,118.75
68,171,215656,6,0,P|137:239|168:244,1,118.75
325,346,215943,6,0,P|263:308|216:305,1,95
4,217,216230,6,0,P|78:257|146:245,1,142.500005435944
247,162,216517,5,0,0:0:0:0:
251,156,216589,1,0,0:0:0:0:
255,150,216660,1,0,0:0:0:0:
259,144,216732,1,0,0:0:0:0:
301,142,216804,5,0,0:0:0:0:
312,133,216876,1,0,0:0:0:0:
323,124,216947,1,0,0:0:0:0:
334,115,217019,1,0,0:0:0:0:
381,126,217091,5,0,0:0:0:0:
407,114,217163,1,0,0:0:0:0:
432,102,217234,1,0,0:0:0:0:
458,90,217306,1,0,0:0:0:0:
507,108,217378,6,0,L|449:120,1,47.5
276,36,217522,6,0,L|352:32,1,59.375
227,204,217665,6,0,L|118:210,1,71.2500027179719
0,19,217809,6,0,L|95:11,1,83.1250007927418
328,250,217952,5,0,0:0:0:0:
323,256,218024,1,0,0:0:0:0:
309,263,218096,1,0,0:0:0:0:
285,266,218167,1,0,0:0:0:0:
253,258,218239,5,0,0:0:0:0:
214,244,218311,1,0,0:0:0:0:
164,243,218383,1,0,0:0:0:0:
110,264,218455,1,0,0:0:0:0:
64,310,218526,5,0,0:0:0:0:
