osu file format v14

[General]
AudioFilename: audio.mp3
AudioLeadIn: 0
PreviewTime: 23826
Countdown: 0
SampleSet: Normal
StackLeniency: 0.7
Mode: 3
LetterboxInBreaks: 0
SpecialStyle: 0
WidescreenStoryboard: 0

[Editor]
Bookmarks: 450,40774,50320,59573,87527,115677
DistanceSpacing: 1
BeatDivisor: 4
GridSize: 16
TimelineZoom: 2.1

[Metadata]
Title:Dance of The Dead
TitleUnicode:Dance of The Dead
Artist:GOTH
ArtistUnicode:GOTH
Creator:DJBurbz
Version:4K HD
Source:Tapsonic Champions, Neowiz MUCA
Tags:Tapsonic, Champions, GOTH, EDM, Dubstep, Electronic, Hardstyle
BeatmapID:1690826
BeatmapSetID:805504

[Difficulty]
HPDrainRate:7
CircleSize:4
OverallDifficulty:7
ApproachRate:5
SliderMultiplier:1.4
SliderTickRate:1

[Events]
//Background and Video events
0,0,"image.png",0,0
Video,0,"video.mp4"
//Break Periods
//Storyboard Layer 0 (Background)
//Storyboard Layer 1 (Fail)
//Storyboard Layer 2 (Pass)
//Storyboard Layer 3 (Foreground)
//Storyboard Sound Samples

[TimingPoints]
450,389.61038961039,4,1,0,0,1,0
40774,-50,4,1,0,0,0,0
40969,-1000,4,1,0,0,0,0
41553,-50,4,1,0,0,0,0
41748,-100,4,1,0,0,0,0
50320,-50,4,1,0,0,0,0
50417,-133.333333333333,4,1,0,0,0,0
50514,-200,4,1,0,0,0,0
50612,-10000,4,1,0,0,0,0
50709,-50,4,1,0,0,0,0
50807,-133.333333333333,4,1,0,0,0,0
50904,-200,4,1,0,0,0,0
51001,-200,4,1,0,0,0,0
51099,-100,4,1,0,0,0,0
59573,-50,4,1,0,0,0,0
59670,-100,4,1,0,0,0,0
59768,-133.333333333333,4,1,0,0,0,0
59865,-200,4,1,0,0,0,0
59962,-50,4,1,0,0,0,0
60450,-100,4,1,0,0,0,0
87625,-50,4,1,0,0,0,0
87722,-200,4,1,0,0,0,1
87917,-100,4,1,0,0,0,1
89183,-50,4,1,0,0,0,1
89281,-200,4,1,0,0,0,1
89475,-100,4,1,0,0,0,1
90742,-50,4,1,0,0,0,1
90839,-200,4,1,0,0,0,1
91034,-100,4,1,0,0,0,1
93859,-50,4,1,0,0,0,1
93956,-200,4,1,0,0,0,1
94151,-100,4,1,0,0,0,1
95417,-50,4,1,0,0,0,1
95514,-200,4,1,0,0,0,1
95709,-100,4,1,0,0,0,1
96975,-50,4,1,0,0,0,1
97073,-200,4,1,0,0,0,1
97268,-100,4,1,0,0,0,1
100092,-50,4,1,0,0,0,1
100190,-200,4,1,0,0,0,1
100385,-333.333333333333,4,1,0,0,0,0
100482,-10000,4,1,0,0,0,0
100531,-50,4,1,0,0,0,0
100579,-100,4,1,0,0,0,0
100872,-50,4,1,0,0,0,0
100969,-200,4,1,0,0,0,0
101164,-333.333333333333,4,1,0,0,0,0
101261,-10000,4,1,0,0,0,0
101310,-50,4,1,0,0,0,0
101359,-100,4,1,0,0,0,0
101651,-50,4,1,0,0,0,0
101748,-200,4,1,0,0,0,0
101943,-333.333333333333,4,1,0,0,0,0
102040,-10000,4,1,0,0,0,0
102089,-50,4,1,0,0,0,0
102138,-100,4,1,0,0,0,0
102430,-50,4,1,0,0,0,0
102527,-200,4,1,0,0,0,0
102722,-333.333333333333,4,1,0,0,0,0
102820,-10000,4,1,0,0,0,0
102868,-50,4,1,0,0,0,0
102917,-100,4,1,0,0,0,0
103696,-10000,4,1,0,0,0,0
103988,-50,4,1,0,0,0,0
104086,-100,4,1,0,0,0,0
106326,-50,4,1,0,0,0,0
106424,-200,4,1,0,0,0,0
106618,-333.333333333333,4,1,0,0,0,0
106716,-10000,4,1,0,0,0,0
106764,-50,4,1,0,0,0,0
106813,-100,4,1,0,0,0,0
107105,-50,4,1,0,0,0,0
107203,-200,4,1,0,0,0,0
107398,-333.333333333333,4,1,0,0,0,0
107495,-10000,4,1,0,0,0,0
107544,-50,4,1,0,0,0,0
107592,-100,4,1,0,0,0,0
107885,-50,4,1,0,0,0,0
107982,-200,4,1,0,0,0,0
108177,-333.333333333333,4,1,0,0,0,0
108274,-10000,4,1,0,0,0,0
108323,-50,4,1,0,0,0,0
108372,-100,4,1,0,0,0,0
108664,-50,4,1,0,0,0,0
108761,-200,4,1,0,0,0,0
108956,-333.333333333333,4,1,0,0,0,0
109053,-10000,4,1,0,0,0,0
109102,-50,4,1,0,0,0,0
109151,-100,4,1,0,0,0,0
115677,-50,4,1,0,0,0,0
115774,-1000,4,1,0,0,0,0
116359,-50,4,1,0,0,0,0
116553,-100,4,1,0,0,0,0

[HitObjects]
320,192,450,5,0,0:0:0:0:
64,192,839,1,0,0:0:0:0:
192,192,1229,1,0,0:0:0:0:
448,192,1618,1,0,0:0:0:0:
192,192,2008,1,0,0:0:0:0:
64,192,2398,1,0,0:0:0:0:
192,192,2787,1,0,0:0:0:0:
64,192,3177,1,0,0:0:0:0:
320,192,3566,1,0,0:0:0:0:
192,192,3956,1,0,0:0:0:0:
320,192,4346,1,0,0:0:0:0:
448,192,4735,1,0,0:0:0:0:
320,192,5125,1,0,0:0:0:0:
64,192,5514,1,0,0:0:0:0:
320,192,5904,1,0,0:0:0:0:
64,192,6294,1,0,0:0:0:0:
192,192,6683,1,0,0:0:0:0:
448,192,6683,1,0,0:0:0:0:
64,192,7073,1,0,0:0:0:0:
192,192,7462,1,0,0:0:0:0:
448,192,7852,1,0,0:0:0:0:
320,192,8242,1,0,0:0:0:0:
64,192,8242,1,0,0:0:0:0:
192,192,8631,1,0,0:0:0:0:
320,192,9021,1,0,0:0:0:0:
192,192,9411,1,0,0:0:0:0:
320,192,9800,1,0,0:0:0:0:
448,192,9800,1,0,0:0:0:0:
64,192,10190,1,0,0:0:0:0:
192,192,10579,1,0,0:0:0:0:
448,192,10969,1,0,0:0:0:0:
320,192,11359,1,0,0:0:0:0:
192,192,11359,1,0,0:0:0:0:
64,192,11748,1,0,0:0:0:0:
192,192,12138,1,0,0:0:0:0:
64,192,12527,1,0,0:0:0:0:
448,192,12917,1,0,0:0:0:0:
192,192,12917,1,0,0:0:0:0:
448,192,13307,1,0,0:0:0:0:
64,192,13307,1,0,0:0:0:0:
448,192,13696,1,0,0:0:0:0:
192,192,13696,1,0,0:0:0:0:
448,192,14086,1,0,0:0:0:0:
320,192,14086,1,0,0:0:0:0:
448,192,14475,1,0,0:0:0:0:
192,192,14475,1,0,0:0:0:0:
448,192,14865,1,0,0:0:0:0:
64,192,14865,1,0,0:0:0:0:
448,192,15255,1,0,0:0:0:0:
192,192,15255,1,0,0:0:0:0:
448,192,15644,1,0,0:0:0:0:
64,192,15644,1,0,0:0:0:0:
64,192,16034,1,0,0:0:0:0:
320,192,16034,1,0,0:0:0:0:
64,192,16424,1,0,0:0:0:0:
192,192,16424,1,0,0:0:0:0:
64,192,16813,1,0,0:0:0:0:
320,192,16813,1,0,0:0:0:0:
64,192,17203,1,0,0:0:0:0:
448,192,17203,1,0,0:0:0:0:
64,192,17592,1,0,0:0:0:0:
320,192,17592,1,0,0:0:0:0:
64,192,17982,1,0,0:0:0:0:
192,192,17982,1,0,0:0:0:0:
64,192,18372,1,0,0:0:0:0:
320,192,18372,1,0,0:0:0:0:
64,192,18761,1,0,0:0:0:0:
192,192,18761,1,0,0:0:0:0:
448,192,19151,1,0,0:0:0:0:
192,192,19151,1,0,0:0:0:0:
448,192,19346,1,0,0:0:0:0:
192,192,19346,1,0,0:0:0:0:
64,192,19540,1,0,0:0:0:0:
320,192,19735,1,0,0:0:0:0:
64,192,19735,1,0,0:0:0:0:
192,192,19930,1,0,0:0:0:0:
448,192,20125,1,0,0:0:0:0:
192,192,20125,1,0,0:0:0:0:
64,192,20320,1,0,0:0:0:0:
64,192,20514,1,0,0:0:0:0:
320,192,20514,1,0,0:0:0:0:
448,192,20709,1,0,0:0:0:0:
448,192,20904,1,0,0:0:0:0:
192,192,20904,1,0,0:0:0:0:
320,192,21099,1,0,0:0:0:0:
320,192,21294,1,0,0:0:0:0:
64,192,21294,1,0,0:0:0:0:
448,192,21488,1,0,0:0:0:0:
448,192,21683,1,0,0:0:0:0:
192,192,21683,1,0,0:0:0:0:
320,192,21878,1,0,0:0:0:0:
320,192,22073,1,0,0:0:0:0:
64,192,22073,1,0,0:0:0:0:
448,192,22268,1,0,0:0:0:0:
64,192,22365,1,0,0:0:0:0:
448,192,22462,1,0,0:0:0:0:
64,192,22560,1,0,0:0:0:0:
320,192,22657,1,0,0:0:0:0:
192,192,22755,1,0,0:0:0:0:
320,192,22852,1,0,0:0:0:0:
192,192,22950,1,0,0:0:0:0:
448,192,23047,1,0,0:0:0:0:
64,192,23144,1,0,0:0:0:0:
448,192,23242,1,0,0:0:0:0:
64,192,23339,1,0,0:0:0:0:
320,192,23437,1,0,0:0:0:0:
192,192,23534,1,0,0:0:0:0:
320,192,23631,1,0,0:0:0:0:
192,192,23729,1,0,0:0:0:0:
320,192,23826,128,0,24021:0:0:0:0:
448,192,24021,128,0,24216:0:0:0:0:
320,192,24216,128,0,24411:0:0:0:0:
192,192,24411,128,0,24605:0:0:0:0:
320,192,24605,128,0,24800:0:0:0:0:
64,192,24800,128,0,24995:0:0:0:0:
320,192,24995,128,0,25190:0:0:0:0:
192,192,25190,128,0,25385:0:0:0:0:
64,192,25385,1,0,0:0:0:0:
448,192,25385,128,0,25579:0:0:0:0:
320,192,25774,128,0,26164:0:0:0:0:
192,192,26164,128,0,26456:0:0:0:0:
448,192,26164,1,0,0:0:0:0:
192,192,26553,128,0,26943:0:0:0:0:
64,192,26943,1,0,0:0:0:0:
320,192,26943,128,0,27333:0:0:0:0:
192,192,27333,1,0,0:0:0:0:
192,192,27430,1,0,0:0:0:0:
320,192,27527,1,0,0:0:0:0:
320,192,27625,1,0,0:0:0:0:
448,192,27722,1,0,0:0:0:0:
192,192,27722,128,0,27820:0:0:0:0:
192,192,27917,1,0,0:0:0:0:
192,192,28112,128,0,28501:0:0:0:0:
64,192,28501,128,0,28794:0:0:0:0:
448,192,28501,1,0,0:0:0:0:
320,192,28891,1,0,0:0:0:0:
192,192,28988,1,0,0:0:0:0:
320,192,29086,1,0,0:0:0:0:
192,192,29183,1,0,0:0:0:0:
320,192,29281,1,0,0:0:0:0:
64,192,29281,1,0,0:0:0:0:
192,192,29378,1,0,0:0:0:0:
320,192,29475,1,0,0:0:0:0:
192,192,29573,1,0,0:0:0:0:
448,192,29670,1,0,0:0:0:0:
64,192,29768,1,0,0:0:0:0:
448,192,29865,1,0,0:0:0:0:
64,192,30060,1,0,0:0:0:0:
192,192,30109,1,0,0:0:0:0:
320,192,30157,1,0,0:0:0:0:
192,192,30206,1,0,0:0:0:0:
320,192,30255,1,0,0:0:0:0:
192,192,30352,1,0,0:0:0:0:
320,192,30450,1,0,0:0:0:0:
192,192,30547,1,0,0:0:0:0:
320,192,30644,1,0,0:0:0:0:
64,192,30644,1,0,0:0:0:0:
448,192,30839,1,0,0:0:0:0:
320,192,30839,128,0,31034:0:0:0:0:
320,192,31131,1,0,0:0:0:0:
64,192,31229,128,0,31618:0:0:0:0:
192,192,31229,1,0,0:0:0:0:
448,192,31229,128,0,31618:0:0:0:0:
192,192,31618,1,0,0:0:0:0:
320,192,31618,128,0,31813:0:0:0:0:
64,192,32008,128,0,32105:0:0:0:0:
64,192,32203,128,0,32300:0:0:0:0:
320,192,32398,1,0,0:0:0:0:
448,192,32398,128,0,32787:0:0:0:0:
64,192,32787,1,0,0:0:0:0:
64,192,32982,128,0,33177:0:0:0:0:
192,192,33177,1,0,0:0:0:0:
448,192,33177,128,0,33372:0:0:0:0:
64,192,33566,1,0,0:0:0:0:
448,192,33615,1,0,0:0:0:0:
64,192,33664,1,0,0:0:0:0:
448,192,33712,1,0,0:0:0:0:
64,192,33761,1,0,0:0:0:0:
64,192,33859,1,0,0:0:0:0:
320,192,33956,1,0,0:0:0:0:
64,192,33956,128,0,34053:0:0:0:0:
64,192,34151,1,0,0:0:0:0:
64,192,34346,128,0,34735:0:0:0:0:
192,192,34735,1,0,0:0:0:0:
448,192,34735,128,0,34930:0:0:0:0:
64,192,35125,1,0,0:0:0:0:
64,192,35320,1,0,0:0:0:0:
64,192,35417,1,0,0:0:0:0:
320,192,35514,1,0,0:0:0:0:
64,192,35514,1,0,0:0:0:0:
448,192,35612,1,0,0:0:0:0:
64,192,35709,1,0,0:0:0:0:
448,192,35807,1,0,0:0:0:0:
64,192,35904,128,0,36001:0:0:0:0:
64,192,36099,1,0,0:0:0:0:
192,192,36391,1,0,0:0:0:0:
320,192,36440,1,0,0:0:0:0:
192,192,36488,1,0,0:0:0:0:
320,192,36537,1,0,0:0:0:0:
192,192,36586,1,0,0:0:0:0:
320,192,36683,1,0,0:0:0:0:
64,192,36781,1,0,0:0:0:0:
448,192,36878,1,0,0:0:0:0:
64,192,36975,1,0,0:0:0:0:
192,192,36975,1,0,0:0:0:0:
320,192,37024,1,0,0:0:0:0:
448,192,37073,1,0,0:0:0:0:
192,192,37073,1,0,0:0:0:0:
320,192,37268,1,0,0:0:0:0:
192,192,37462,1,0,0:0:0:0:
320,192,37657,1,0,0:0:0:0:
448,192,37852,128,0,38047:0:0:0:0:
64,192,37852,1,0,0:0:0:0:
448,192,38242,128,0,38437:0:0:0:0:
320,192,38437,1,0,0:0:0:0:
320,192,38534,1,0,0:0:0:0:
192,192,38631,1,0,0:0:0:0:
448,192,38631,128,0,38924:0:0:0:0:
448,192,39021,128,0,39411:0:0:0:0:
64,192,39411,1,0,0:0:0:0:
320,192,39411,128,0,39800:0:0:0:0:
64,192,39800,5,0,0:0:0:0:
448,192,39898,1,0,0:0:0:0:
192,192,39995,1,0,0:0:0:0:
320,192,40092,1,0,0:0:0:0:
192,192,40190,1,0,0:0:0:0:
448,192,40190,1,0,0:0:0:0:
320,192,40385,1,0,0:0:0:0:
320,192,40579,128,0,40969:0:0:0:0:
64,192,40969,128,0,41748:0:0:0:0:
448,192,40969,1,0,0:0:0:0:
320,192,41748,1,0,0:0:0:0:
192,192,41846,1,0,0:0:0:0:
448,192,41943,1,0,0:0:0:0:
64,192,42040,1,0,0:0:0:0:
320,192,42138,1,0,0:0:0:0:
192,192,42235,1,0,0:0:0:0:
448,192,42333,1,0,0:0:0:0:
64,192,42430,1,0,0:0:0:0:
320,192,42527,1,0,0:0:0:0:
192,192,42576,1,0,0:0:0:0:
320,192,42625,1,0,0:0:0:0:
192,192,42674,1,0,0:0:0:0:
320,192,42722,1,0,0:0:0:0:
192,192,42820,1,0,0:0:0:0:
320,192,42917,1,0,0:0:0:0:
64,192,43014,1,0,0:0:0:0:
448,192,43112,1,0,0:0:0:0:
64,192,43209,1,0,0:0:0:0:
448,192,43307,128,0,43404:0:0:0:0:
448,192,43501,1,0,0:0:0:0:
448,192,43696,128,0,44086:0:0:0:0:
64,192,44086,1,0,0:0:0:0:
320,192,44086,128,0,44281:0:0:0:0:
192,192,44475,128,0,44573:0:0:0:0:
192,192,44670,1,0,0:0:0:0:
192,192,44865,128,0,45255:0:0:0:0:
448,192,44865,1,0,0:0:0:0:
320,192,45255,1,0,0:0:0:0:
320,192,45450,128,0,45644:0:0:0:0:
64,192,45644,1,0,0:0:0:0:
192,192,45644,128,0,45839:0:0:0:0:
192,192,45937,1,0,0:0:0:0:
448,192,45985,1,0,0:0:0:0:
192,192,46034,1,0,0:0:0:0:
448,192,46083,1,0,0:0:0:0:
192,192,46131,1,0,0:0:0:0:
448,192,46229,1,0,0:0:0:0:
448,192,46424,128,0,46521:0:0:0:0:
192,192,46424,1,0,0:0:0:0:
448,192,46618,1,0,0:0:0:0:
448,192,46813,1,0,0:0:0:0:
320,192,47008,128,0,47203:0:0:0:0:
448,192,47203,1,0,0:0:0:0:
64,192,47203,128,0,47398:0:0:0:0:
192,192,47592,1,0,0:0:0:0:
64,192,47787,1,0,0:0:0:0:
192,192,47885,1,0,0:0:0:0:
320,192,47982,1,0,0:0:0:0:
64,192,47982,1,0,0:0:0:0:
448,192,48079,1,0,0:0:0:0:
64,192,48177,1,0,0:0:0:0:
448,192,48274,1,0,0:0:0:0:
192,192,48372,128,0,48469:0:0:0:0:
192,192,48566,1,0,0:0:0:0:
64,192,48761,1,0,0:0:0:0:
320,192,48761,128,0,48956:0:0:0:0:
448,192,49151,128,0,49346:0:0:0:0:
320,192,49540,128,0,49735:0:0:0:0:
192,192,49540,1,0,0:0:0:0:
320,192,49930,128,0,50125:0:0:0:0:
192,192,49930,1,0,0:0:0:0:
448,192,50320,128,0,50709:0:0:0:0:
64,192,50320,1,0,0:0:0:0:
64,192,50709,128,0,51099:0:0:0:0:
192,192,51099,1,0,0:0:0:0:
448,192,51099,1,0,0:0:0:0:
448,192,51294,1,0,0:0:0:0:
64,192,51294,1,0,0:0:0:0:
320,192,51488,1,0,0:0:0:0:
64,192,51488,1,0,0:0:0:0:
320,192,51683,1,0,0:0:0:0:
448,192,51878,1,0,0:0:0:0:
448,192,52073,1,0,0:0:0:0:
64,192,52073,1,0,0:0:0:0:
320,192,52268,1,0,0:0:0:0:
64,192,52268,1,0,0:0:0:0:
448,192,52462,1,0,0:0:0:0:
320,192,52657,1,0,0:0:0:0:
192,192,52657,1,0,0:0:0:0:
448,192,52852,1,0,0:0:0:0:
320,192,53047,1,0,0:0:0:0:
64,192,53047,1,0,0:0:0:0:
448,192,53242,1,0,0:0:0:0:
64,192,53437,1,0,0:0:0:0:
320,192,53437,128,0,54021:0:0:0:0:
64,192,54021,1,0,0:0:0:0:
448,192,54216,1,0,0:0:0:0:
192,192,54216,1,0,0:0:0:0:
448,192,54411,1,0,0:0:0:0:
64,192,54411,1,0,0:0:0:0:
448,192,54605,1,0,0:0:0:0:
64,192,54605,1,0,0:0:0:0:
192,192,54703,1,0,0:0:0:0:
320,192,54800,1,0,0:0:0:0:
192,192,54898,1,0,0:0:0:0:
320,192,54995,1,0,0:0:0:0:
448,192,55190,1,0,0:0:0:0:
64,192,55190,1,0,0:0:0:0:
448,192,55385,1,0,0:0:0:0:
64,192,55385,1,0,0:0:0:0:
320,192,55482,1,0,0:0:0:0:
320,192,55579,1,0,0:0:0:0:
320,192,55677,1,0,0:0:0:0:
192,192,55774,1,0,0:0:0:0:
448,192,55774,1,0,0:0:0:0:
448,192,55872,1,0,0:0:0:0:
448,192,55969,1,0,0:0:0:0:
320,192,56066,1,0,0:0:0:0:
64,192,56164,1,0,0:0:0:0:
320,192,56164,1,0,0:0:0:0:
320,192,56261,1,0,0:0:0:0:
448,192,56359,1,0,0:0:0:0:
448,192,56456,1,0,0:0:0:0:
192,192,56553,128,0,56943:0:0:0:0:
64,192,56553,1,0,0:0:0:0:
320,192,56943,128,0,57333:0:0:0:0:
448,192,57333,1,0,0:0:0:0:
192,192,57333,128,0,57527:0:0:0:0:
64,192,57527,1,0,0:0:0:0:
320,192,57527,128,0,57722:0:0:0:0:
64,192,57722,1,0,0:0:0:0:
192,192,57722,1,0,0:0:0:0:
320,192,57771,1,0,0:0:0:0:
192,192,57820,1,0,0:0:0:0:
320,192,57868,1,0,0:0:0:0:
192,192,57917,1,0,0:0:0:0:
320,192,57966,1,0,0:0:0:0:
192,192,58014,1,0,0:0:0:0:
320,192,58063,1,0,0:0:0:0:
192,192,58112,1,0,0:0:0:0:
192,192,58209,1,0,0:0:0:0:
64,192,58307,1,0,0:0:0:0:
320,192,58307,1,0,0:0:0:0:
192,192,58404,1,0,0:0:0:0:
64,192,58501,1,0,0:0:0:0:
320,192,58501,128,0,58599:0:0:0:0:
320,192,58696,1,0,0:0:0:0:
448,192,58891,1,0,0:0:0:0:
192,192,58891,128,0,59086:0:0:0:0:
320,192,59086,128,0,59281:0:0:0:0:
64,192,59281,1,0,0:0:0:0:
64,192,59670,128,0,60060:0:0:0:0:
448,192,59670,1,0,0:0:0:0:
192,192,60060,128,0,60450:0:0:0:0:
320,192,60450,1,0,0:0:0:0:
64,192,60450,1,0,0:0:0:0:
448,192,60644,1,0,0:0:0:0:
64,192,60644,1,0,0:0:0:0:
448,192,60839,1,0,0:0:0:0:
192,192,60839,128,0,60937:0:0:0:0:
64,192,61034,1,0,0:0:0:0:
64,192,61131,1,0,0:0:0:0:
192,192,61229,1,0,0:0:0:0:
192,192,61326,1,0,0:0:0:0:
64,192,61424,1,0,0:0:0:0:
64,192,61618,1,0,0:0:0:0:
192,192,61813,1,0,0:0:0:0:
320,192,61911,1,0,0:0:0:0:
64,192,62008,1,0,0:0:0:0:
448,192,62105,1,0,0:0:0:0:
192,192,62203,1,0,0:0:0:0:
320,192,62300,1,0,0:0:0:0:
64,192,62398,1,0,0:0:0:0:
448,192,62495,1,0,0:0:0:0:
192,192,62592,1,0,0:0:0:0:
320,192,62690,1,0,0:0:0:0:
448,192,63469,5,0,0:0:0:0:
448,192,63566,1,0,0:0:0:0:
64,192,65125,1,0,0:0:0:0:
192,192,65368,1,0,0:0:0:0:
320,192,65661,1,0,0:0:0:0:
448,192,65904,1,0,0:0:0:0:
192,192,66683,1,0,0:0:0:0:
64,192,66878,1,0,0:0:0:0:
192,192,67073,1,0,0:0:0:0:
320,192,67268,1,0,0:0:0:0:
448,192,67462,1,0,0:0:0:0:
320,192,68047,1,0,0:0:0:0:
64,192,68631,1,0,0:0:0:0:
192,192,69021,1,0,0:0:0:0:
448,192,69703,1,0,0:0:0:0:
448,192,69800,1,0,0:0:0:0:
64,192,71359,1,0,0:0:0:0:
192,192,71602,1,0,0:0:0:0:
320,192,71894,1,0,0:0:0:0:
448,192,72138,1,0,0:0:0:0:
320,192,73307,1,0,0:0:0:0:
448,192,73501,1,0,0:0:0:0:
448,192,73696,1,0,0:0:0:0:
320,192,73842,1,0,0:0:0:0:
192,192,73940,1,0,0:0:0:0:
320,192,74086,1,0,0:0:0:0:
192,192,74232,1,0,0:0:0:0:
64,192,74329,1,0,0:0:0:0:
192,192,74475,1,0,0:0:0:0:
320,192,74622,1,0,0:0:0:0:
448,192,74719,1,0,0:0:0:0:
320,192,74865,1,0,0:0:0:0:
192,192,75011,1,0,0:0:0:0:
64,192,75109,1,0,0:0:0:0:
64,192,75255,1,0,0:0:0:0:
192,192,75352,1,0,0:0:0:0:
320,192,75450,1,0,0:0:0:0:
448,192,75547,1,0,0:0:0:0:
320,192,75644,1,0,0:0:0:0:
192,192,75742,1,0,0:0:0:0:
320,192,75839,1,0,0:0:0:0:
448,192,75937,1,0,0:0:0:0:
320,192,76034,1,0,0:0:0:0:
192,192,76131,1,0,0:0:0:0:
320,192,76229,1,0,0:0:0:0:
448,192,76326,1,0,0:0:0:0:
320,192,76424,1,0,0:0:0:0:
192,192,76521,1,0,0:0:0:0:
64,192,76618,1,0,0:0:0:0:
192,192,76813,1,0,0:0:0:0:
448,192,76911,1,0,0:0:0:0:
320,192,77008,1,0,0:0:0:0:
64,192,77105,1,0,0:0:0:0:
448,192,77203,1,0,0:0:0:0:
192,192,77300,1,0,0:0:0:0:
320,192,77398,1,0,0:0:0:0:
192,192,77495,1,0,0:0:0:0:
448,192,77592,1,0,0:0:0:0:
192,192,77690,1,0,0:0:0:0:
320,192,77787,1,0,0:0:0:0:
64,192,77885,1,0,0:0:0:0:
192,192,77982,1,0,0:0:0:0:
320,192,78079,1,0,0:0:0:0:
192,192,78177,1,0,0:0:0:0:
64,192,78274,1,0,0:0:0:0:
192,192,78372,1,0,0:0:0:0:
320,192,78469,1,0,0:0:0:0:
448,192,78566,1,0,0:0:0:0:
320,192,78664,1,0,0:0:0:0:
192,192,78761,1,0,0:0:0:0:
64,192,78859,1,0,0:0:0:0:
448,192,78956,1,0,0:0:0:0:
320,192,79053,1,0,0:0:0:0:
192,192,79151,1,0,0:0:0:0:
320,192,79248,1,0,0:0:0:0:
448,192,79346,1,0,0:0:0:0:
320,192,79443,1,0,0:0:0:0:
192,192,79540,1,0,0:0:0:0:
64,192,79638,1,0,0:0:0:0:
192,192,79735,1,0,0:0:0:0:
64,192,79833,1,0,0:0:0:0:
192,192,79930,1,0,0:0:0:0:
64,192,80027,1,0,0:0:0:0:
192,192,80125,1,0,0:0:0:0:
320,192,80222,1,0,0:0:0:0:
192,192,80320,1,0,0:0:0:0:
320,192,80417,1,0,0:0:0:0:
448,192,80514,1,0,0:0:0:0:
320,192,80612,1,0,0:0:0:0:
448,192,80709,1,0,0:0:0:0:
448,192,80807,1,0,0:0:0:0:
320,192,80904,1,0,0:0:0:0:
448,192,81001,1,0,0:0:0:0:
64,192,81294,1,0,0:0:0:0:
192,192,81391,1,0,0:0:0:0:
320,192,81488,1,0,0:0:0:0:
448,192,81586,1,0,0:0:0:0:
320,192,81683,1,0,0:0:0:0:
192,192,81781,1,0,0:0:0:0:
320,192,81878,1,0,0:0:0:0:
192,192,81975,1,0,0:0:0:0:
64,192,82073,1,0,0:0:0:0:
192,192,82170,1,0,0:0:0:0:
64,192,82268,1,0,0:0:0:0:
192,192,82365,1,0,0:0:0:0:
64,192,82462,1,0,0:0:0:0:
192,192,82560,1,0,0:0:0:0:
320,192,82657,1,0,0:0:0:0:
192,192,82755,1,0,0:0:0:0:
320,192,82852,1,0,0:0:0:0:
64,192,82950,1,0,0:0:0:0:
448,192,83047,1,0,0:0:0:0:
192,192,83144,1,0,0:0:0:0:
320,192,83242,1,0,0:0:0:0:
192,192,83339,1,0,0:0:0:0:
64,192,83437,1,0,0:0:0:0:
448,192,83534,1,0,0:0:0:0:
64,192,83631,1,0,0:0:0:0:
320,192,83729,1,0,0:0:0:0:
192,192,83826,1,0,0:0:0:0:
448,192,83924,1,0,0:0:0:0:
320,192,84021,1,0,0:0:0:0:
64,192,84118,1,0,0:0:0:0:
448,192,84216,1,0,0:0:0:0:
192,192,84313,1,0,0:0:0:0:
320,192,84411,1,0,0:0:0:0:
192,192,84508,1,0,0:0:0:0:
64,192,84605,1,0,0:0:0:0:
192,192,84703,1,0,0:0:0:0:
320,192,84800,1,0,0:0:0:0:
192,192,84898,1,0,0:0:0:0:
320,192,84995,1,0,0:0:0:0:
192,192,85092,1,0,0:0:0:0:
64,192,85190,1,0,0:0:0:0:
320,192,85287,1,0,0:0:0:0:
192,192,85385,1,0,0:0:0:0:
64,192,85482,1,0,0:0:0:0:
320,192,85579,1,0,0:0:0:0:
192,192,85677,1,0,0:0:0:0:
320,192,85774,1,0,0:0:0:0:
192,192,85872,1,0,0:0:0:0:
320,192,85969,1,0,0:0:0:0:
64,192,86066,1,0,0:0:0:0:
192,192,86164,1,0,0:0:0:0:
320,192,86261,1,0,0:0:0:0:
448,192,86359,1,0,0:0:0:0:
320,192,86456,1,0,0:0:0:0:
192,192,86553,1,0,0:0:0:0:
448,192,86651,1,0,0:0:0:0:
320,192,86748,1,0,0:0:0:0:
192,192,86846,1,0,0:0:0:0:
64,192,86943,1,0,0:0:0:0:
192,192,87040,1,0,0:0:0:0:
320,192,87138,1,0,0:0:0:0:
448,192,87235,1,0,0:0:0:0:
192,192,87333,1,0,0:0:0:0:
448,192,87430,1,0,0:0:0:0:
320,192,87527,1,0,0:0:0:0:
64,192,87625,1,0,0:0:0:0:
448,192,87722,128,0,87917:0:0:0:0:
64,192,87722,1,0,0:0:0:0:
64,192,88112,1,0,0:0:0:0:
448,192,88209,1,0,0:0:0:0:
192,192,88307,1,0,0:0:0:0:
320,192,88404,1,0,0:0:0:0:
64,192,88501,1,0,0:0:0:0:
448,192,88599,1,0,0:0:0:0:
192,192,88696,1,0,0:0:0:0:
320,192,88794,1,0,0:0:0:0:
64,192,88891,1,0,0:0:0:0:
448,192,88988,1,0,0:0:0:0:
192,192,89086,1,0,0:0:0:0:
320,192,89183,1,0,0:0:0:0:
448,192,89281,128,0,89475:0:0:0:0:
64,192,89281,1,0,0:0:0:0:
64,192,89670,1,0,0:0:0:0:
448,192,89768,128,0,89962:0:0:0:0:
192,192,89865,1,0,0:0:0:0:
320,192,89962,1,0,0:0:0:0:
64,192,90060,1,0,0:0:0:0:
448,192,90157,1,0,0:0:0:0:
192,192,90255,128,0,90547:0:0:0:0:
320,192,90352,1,0,0:0:0:0:
64,192,90450,1,0,0:0:0:0:
448,192,90547,128,0,90644:0:0:0:0:
320,192,90644,1,0,0:0:0:0:
64,192,90839,1,0,0:0:0:0:
448,192,90839,128,0,91034:0:0:0:0:
64,192,91229,1,0,0:0:0:0:
448,192,91326,1,0,0:0:0:0:
192,192,91424,128,0,91618:0:0:0:0:
320,192,91521,1,0,0:0:0:0:
64,192,91618,1,0,0:0:0:0:
448,192,91716,1,0,0:0:0:0:
192,192,91813,1,0,0:0:0:0:
320,192,91911,1,0,0:0:0:0:
64,192,92008,1,0,0:0:0:0:
448,192,92105,1,0,0:0:0:0:
192,192,92203,1,0,0:0:0:0:
320,192,92300,1,0,0:0:0:0:
64,192,92398,1,0,0:0:0:0:
448,192,92495,1,0,0:0:0:0:
192,192,92592,1,0,0:0:0:0:
320,192,92690,1,0,0:0:0:0:
64,192,92787,1,0,0:0:0:0:
448,192,92885,1,0,0:0:0:0:
192,192,92982,1,0,0:0:0:0:
320,192,93079,1,0,0:0:0:0:
448,192,93177,128,0,93372:0:0:0:0:
64,192,93372,128,0,93566:0:0:0:0:
320,192,93566,1,0,0:0:0:0:
192,192,93761,1,0,0:0:0:0:
448,192,93956,128,0,94151:0:0:0:0:
64,192,93956,1,0,0:0:0:0:
64,192,94346,1,0,0:0:0:0:
448,192,94443,1,0,0:0:0:0:
192,192,94540,1,0,0:0:0:0:
320,192,94638,1,0,0:0:0:0:
64,192,94735,1,0,0:0:0:0:
448,192,94833,1,0,0:0:0:0:
192,192,94930,1,0,0:0:0:0:
320,192,95027,1,0,0:0:0:0:
64,192,95125,1,0,0:0:0:0:
448,192,95222,1,0,0:0:0:0:
192,192,95320,1,0,0:0:0:0:
320,192,95417,1,0,0:0:0:0:
448,192,95514,128,0,95709:0:0:0:0:
64,192,95514,1,0,0:0:0:0:
64,192,95904,1,0,0:0:0:0:
448,192,96001,128,0,96196:0:0:0:0:
192,192,96099,1,0,0:0:0:0:
320,192,96196,1,0,0:0:0:0:
64,192,96294,1,0,0:0:0:0:
448,192,96391,1,0,0:0:0:0:
192,192,96488,128,0,96781:0:0:0:0:
320,192,96586,1,0,0:0:0:0:
64,192,96683,1,0,0:0:0:0:
448,192,96781,128,0,96878:0:0:0:0:
320,192,96878,1,0,0:0:0:0:
64,192,97073,1,0,0:0:0:0:
448,192,97073,128,0,97268:0:0:0:0:
64,192,97462,1,0,0:0:0:0:
448,192,97560,1,0,0:0:0:0:
192,192,97657,128,0,97852:0:0:0:0:
320,192,97755,1,0,0:0:0:0:
64,192,97852,1,0,0:0:0:0:
448,192,97950,1,0,0:0:0:0:
192,192,98047,1,0,0:0:0:0:
320,192,98144,1,0,0:0:0:0:
64,192,98242,1,0,0:0:0:0:
448,192,98339,1,0,0:0:0:0:
192,192,98437,1,0,0:0:0:0:
320,192,98534,1,0,0:0:0:0:
448,192,98631,1,0,0:0:0:0:
64,192,98729,1,0,0:0:0:0:
448,192,98826,1,0,0:0:0:0:
64,192,99021,1,0,0:0:0:0:
64,192,99118,1,0,0:0:0:0:
192,192,99216,1,0,0:0:0:0:
320,192,99264,1,0,0:0:0:0:
192,192,99313,1,0,0:0:0:0:
320,192,99362,1,0,0:0:0:0:
192,192,99411,1,0,0:0:0:0:
448,192,99508,1,0,0:0:0:0:
64,192,99605,1,0,0:0:0:0:
448,192,99703,1,0,0:0:0:0:
64,192,99800,1,0,0:0:0:0:
320,192,99800,128,0,100190:0:0:0:0:
192,192,100190,128,0,100579:0:0:0:0:
448,192,100190,128,0,100579:0:0:0:0:
320,192,100579,1,0,0:0:0:0:
64,192,100579,1,0,0:0:0:0:
192,192,100969,128,0,101359:0:0:0:0:
448,192,100969,128,0,101359:0:0:0:0:
64,192,101359,1,0,0:0:0:0:
320,192,101359,1,0,0:0:0:0:
64,192,101748,128,0,102138:0:0:0:0:
320,192,101748,128,0,102138:0:0:0:0:
192,192,102138,1,0,0:0:0:0:
448,192,102138,1,0,0:0:0:0:
192,192,102333,1,0,0:0:0:0:
448,192,102333,1,0,0:0:0:0:
320,192,102527,128,0,102917:0:0:0:0:
64,192,102527,128,0,102917:0:0:0:0:
448,192,102917,1,0,0:0:0:0:
192,192,102917,1,0,0:0:0:0:
64,192,103307,128,0,103696:0:0:0:0:
448,192,103307,1,0,0:0:0:0:
320,192,103696,1,0,0:0:0:0:
192,192,104086,1,0,0:0:0:0:
448,192,104086,1,0,0:0:0:0:
448,192,104281,1,0,0:0:0:0:
320,192,104475,1,0,0:0:0:0:
320,192,104670,1,0,0:0:0:0:
192,192,104865,128,0,105157:0:0:0:0:
448,192,105157,1,0,0:0:0:0:
64,192,105255,1,0,0:0:0:0:
320,192,105352,1,0,0:0:0:0:
192,192,105450,1,0,0:0:0:0:
320,192,105547,1,0,0:0:0:0:
64,192,105644,128,0,105742:0:0:0:0:
320,192,105742,1,0,0:0:0:0:
64,192,105839,1,0,0:0:0:0:
64,192,106034,128,0,106424:0:0:0:0:
448,192,106034,128,0,106424:0:0:0:0:
320,192,106424,128,0,106813:0:0:0:0:
192,192,106424,128,0,106813:0:0:0:0:
64,192,106813,1,0,0:0:0:0:
448,192,106813,1,0,0:0:0:0:
320,192,107203,128,0,107592:0:0:0:0:
192,192,107203,128,0,107592:0:0:0:0:
64,192,107592,1,0,0:0:0:0:
448,192,107592,1,0,0:0:0:0:
448,192,107982,128,0,108372:0:0:0:0:
64,192,107982,128,0,108372:0:0:0:0:
192,192,108372,1,0,0:0:0:0:
320,192,108372,1,0,0:0:0:0:
320,192,108566,1,0,0:0:0:0:
192,192,108566,1,0,0:0:0:0:
64,192,108761,128,0,109151:0:0:0:0:
448,192,108761,128,0,109151:0:0:0:0:
192,192,109151,1,0,0:0:0:0:
320,192,109151,1,0,0:0:0:0:
448,192,109540,1,0,0:0:0:0:
64,192,109540,128,0,109735:0:0:0:0:
192,192,109930,1,0,0:0:0:0:
64,192,110125,1,0,0:0:0:0:
192,192,110222,1,0,0:0:0:0:
320,192,110320,1,0,0:0:0:0:
64,192,110320,1,0,0:0:0:0:
448,192,110417,1,0,0:0:0:0:
64,192,110514,1,0,0:0:0:0:
448,192,110612,1,0,0:0:0:0:
192,192,110709,128,0,110807:0:0:0:0:
192,192,110904,1,0,0:0:0:0:
64,192,111099,1,0,0:0:0:0:
320,192,111099,128,0,111294:0:0:0:0:
448,192,111488,128,0,111683:0:0:0:0:
192,192,111488,1,0,0:0:0:0:
320,192,111878,128,0,112073:0:0:0:0:
192,192,111878,1,0,0:0:0:0:
192,192,112268,128,0,112462:0:0:0:0:
320,192,112268,1,0,0:0:0:0:
448,192,112657,128,0,112852:0:0:0:0:
64,192,112657,1,0,0:0:0:0:
448,192,113047,128,0,113242:0:0:0:0:
320,192,113242,1,0,0:0:0:0:
320,192,113339,1,0,0:0:0:0:
192,192,113437,1,0,0:0:0:0:
448,192,113437,128,0,113729:0:0:0:0:
448,192,113826,128,0,114216:0:0:0:0:
64,192,114216,1,0,0:0:0:0:
320,192,114216,128,0,114605:0:0:0:0:
64,192,114605,5,0,0:0:0:0:
448,192,114703,1,0,0:0:0:0:
192,192,114800,1,0,0:0:0:0:
320,192,114898,1,0,0:0:0:0:
192,192,114995,1,0,0:0:0:0:
448,192,114995,1,0,0:0:0:0:
320,192,115190,1,0,0:0:0:0:
320,192,115385,128,0,115774:0:0:0:0:
64,192,115774,128,0,116553:0:0:0:0:
448,192,115774,1,0,0:0:0:0:
320,192,116553,1,0,0:0:0:0:
192,192,116651,1,0,0:0:0:0:
448,192,116748,1,0,0:0:0:0:
64,192,116846,1,0,0:0:0:0:
320,192,116943,1,0,0:0:0:0:
192,192,117040,1,0,0:0:0:0:
448,192,117138,1,0,0:0:0:0:
64,192,117235,1,0,0:0:0:0:
320,192,117333,1,0,0:0:0:0:
192,192,117381,1,0,0:0:0:0:
320,192,117430,1,0,0:0:0:0:
192,192,117479,1,0,0:0:0:0:
320,192,117527,1,0,0:0:0:0:
192,192,117625,1,0,0:0:0:0:
320,192,117722,1,0,0:0:0:0:
64,192,117820,1,0,0:0:0:0:
448,192,117917,1,0,0:0:0:0:
64,192,118014,1,0,0:0:0:0:
448,192,118112,128,0,118209:0:0:0:0:
448,192,118307,1,0,0:0:0:0:
448,192,118501,128,0,118891:0:0:0:0:
64,192,118891,1,0,0:0:0:0:
320,192,118891,128,0,119086:0:0:0:0:
192,192,119281,128,0,119378:0:0:0:0:
192,192,119475,1,0,0:0:0:0:
192,192,119670,128,0,120060:0:0:0:0:
448,192,119670,1,0,0:0:0:0:
320,192,120060,1,0,0:0:0:0:
320,192,120255,128,0,120450:0:0:0:0:
64,192,120450,1,0,0:0:0:0:
192,192,120450,128,0,120644:0:0:0:0:
192,192,120742,1,0,0:0:0:0:
448,192,120790,1,0,0:0:0:0:
192,192,120839,1,0,0:0:0:0:
448,192,120888,1,0,0:0:0:0:
192,192,120937,1,0,0:0:0:0:
448,192,121034,1,0,0:0:0:0:
448,192,121229,128,0,121326:0:0:0:0:
192,192,121229,1,0,0:0:0:0:
448,192,121424,1,0,0:0:0:0:
448,192,121618,1,0,0:0:0:0:
320,192,121813,128,0,122008:0:0:0:0:
448,192,122008,1,0,0:0:0:0:
64,192,122008,128,0,122203:0:0:0:0:
448,192,122203,1,0,0:0:0:0:
192,192,122398,1,0,0:0:0:0:
448,192,122398,1,0,0:0:0:0:
64,192,122592,1,0,0:0:0:0:
448,192,122592,1,0,0:0:0:0:
192,192,122690,1,0,0:0:0:0:
320,192,122787,1,0,0:0:0:0:
64,192,122787,1,0,0:0:0:0:
192,192,122787,1,0,0:0:0:0:
448,192,122885,1,0,0:0:0:0:
64,192,122982,1,0,0:0:0:0:
192,192,122982,1,0,0:0:0:0:
448,192,123079,1,0,0:0:0:0:
192,192,123177,128,0,123274:0:0:0:0:
64,192,123177,1,0,0:0:0:0:
192,192,123372,1,0,0:0:0:0:
64,192,123372,1,0,0:0:0:0:
192,192,123566,128,0,123761:0:0:0:0:
448,192,123566,1,0,0:0:0:0:
64,192,123664,1,0,0:0:0:0:
448,192,123761,1,0,0:0:0:0:
64,192,123859,1,0,0:0:0:0:
448,192,123956,128,0,124151:0:0:0:0:
320,192,123956,1,0,0:0:0:0:
192,192,124053,1,0,0:0:0:0:
320,192,124151,1,0,0:0:0:0:
192,192,124248,1,0,0:0:0:0:
192,192,124346,128,0,124540:0:0:0:0:
320,192,124346,1,0,0:0:0:0:
448,192,124443,1,0,0:0:0:0:
320,192,124540,1,0,0:0:0:0:
448,192,124638,1,0,0:0:0:0:
64,192,124735,128,0,124930:0:0:0:0:
192,192,124735,1,0,0:0:0:0:
320,192,124833,1,0,0:0:0:0:
192,192,124930,1,0,0:0:0:0:
320,192,125027,1,0,0:0:0:0:
64,192,125125,1,0,0:0:0:0:
448,192,125125,1,0,0:0:0:0:
