osu file format v14

[General]
AudioFilename: audio.mp3
AudioLeadIn: 0
PreviewTime: 47645
Countdown: 0
SampleSet: Soft
StackLeniency: 0.5
Mode: 0
LetterboxInBreaks: 0
WidescreenStoryboard: 1

[Editor]
Bookmarks: 8604,8627,8650,8674,8697,8721,8744,8768,8791,8814,8838,8861,8885,8908,8932,8955,8979,9002,9025,9049,9072,9096,9119,9143,9166,9189,9213,9236,9260,9283,9307,9330,9354,11979,23979,35979,47979,59979,71979,83979,95979,103479,111729,111752,111775,111799,111822,111846,111869,111893,111916,111963,111986,112010,112033,112057,112080,112104,112127,112150,112197,112221,112244,112268,112291,112314,112338,112361,112385,112408,112432,112455,112479
DistanceSpacing: 0.8
BeatDivisor: 8
GridSize: 32
TimelineZoom: 2

[Metadata]
Title:TRAXXXMANIA
TitleUnicode:TRAXXXMANIA
Artist:GONE.Fludd
ArtistUnicode:GONE.Fludd
Creator:jamesjan3
Version:HXXXRD
Source:
Tags:русский рэп хип-хоп хип хоп хипхоп hip hop hip-hop russian trap rap flake m2p mapping to pander DIGITAL FANTAZY Трахать сук пить сок juice duck -doodle dooe
BeatmapID:3758839
BeatmapSetID:1659645

[Difficulty]
HPDrainRate:4
CircleSize:3
OverallDifficulty:6
ApproachRate:8
SliderMultiplier:2
SliderTickRate:1

[Events]
//Background and Video events
0,0,"6de2d3559a07f854677a890358c3104b.jpg",0,0
//Break Periods
2,84219,95270
//Storyboard Layer 0 (Background)
Sprite,Background,Centre,"6de2d3559a07f854677a890358c3104b.jpg",320,240 M,0,-2385,,320,240
//Storyboard Layer 1 (Fail)
//Storyboard Layer 2 (Pass)
//Storyboard Layer 3 (Foreground)
Sprite,Foreground,Centre,"6de2d3559a07f854677a890358c3104b.jpg",320,240 F,0,-651,116911,1 R,0,35979,,0 R,0,35979,41979,0,-6.284435 V,0,41979,,0.5494401,0.54944 R,0,41979,47082,-6.284435,0 R,0,47082,,0
//Storyboard Layer 4 (Overlay)
//Storyboard Sound Samples

[TimingPoints]
20,375,4,2,1,50,1,0
9020,-117.647058823529,4,2,1,100,0,0
11645,-117.647058823529,4,2,1,50,0,0
18395,-200,4,2,1,50,0,0
19145,-117.647058823529,4,2,1,50,0,0
19895,-200,4,2,1,50,0,0
20645,-117.647058823529,4,2,1,50,0,0
21395,-200,4,2,1,50,0,0
24020,-117.647058823529,4,2,1,70,0,0
35785,-117.647058823529,4,2,1,5,0,0
35832,-117.647058823529,4,2,1,70,0,0
36020,-117.647058823529,4,2,2,70,0,0
48020,-100,4,2,1,80,0,1
60020,-117.647058823529,4,2,1,70,0,0
72020,-111.111111111111,4,2,1,70,0,0
72770,-117.647058823529,4,2,1,70,0,0
84020,-117.647058823529,4,2,2,70,0,0
96020,-117.647058823529,4,2,2,30,0,0
96207,-117.647058823529,4,2,2,40,0,0
96395,-117.647058823529,4,2,2,50,0,0
96582,-117.647058823529,4,2,2,60,0,0
96770,-117.647058823529,4,2,2,70,0,0
97520,-117.647058823529,4,2,1,50,0,0
103520,-100,4,2,1,80,0,1
109426,-117.647058823529,4,2,1,80,0,0
109941,-117.647058823529,4,2,2,10,0,0

[Colours]
Combo1 : 255,128,0
Combo2 : 134,141,208
Combo3 : 154,114,214
Combo4 : 232,226,159
Combo5 : 247,183,183
Combo6 : 112,98,41
Combo7 : 97,97,97
Combo8 : 243,12,17

[HitObjects]
256,192,9020,101,4,0:1:0:0:
121,60,11645,22,0,L|104:171,1,85.0000016212464,8|8,0:0|0:0,0:0:0:0:
12,175,12020,2,0,B|78:142|122:194|95:198|133:257|216:211,1,212.500004053116,2|0,0:2|0:0,0:0:0:0:
222,191,12582,2,0,P|223:156|209:183,1,85.0000016212464,2|2,0:0|0:0,0:0:0:0:
399,163,13145,6,0,L|416:274,1,85.0000016212464,8|0,0:0|0:0,0:0:0:0:
508,278,13520,2,0,B|442:245|398:297|425:301|387:360|304:314,1,212.500004053116,2|0,0:0|0:0,0:0:0:0:
309,304,14082,2,0,P|308:269|322:296,1,85.0000016212464,2|2,0:0|0:0,0:0:0:0:
210,343,14457,101,2,0:0:0:0:
207,346,14645,6,0,L|190:235,1,85.0000016212464,8|0,0:0|0:0,0:0:0:0:
97,243,15020,2,0,B|133:178|198:197|178:215|243:243|286:158,1,212.500004053116,2|0,0:0|0:0,0:0:0:0:
295,172,15582,2,0,P|325:185|310:155,2,85.0000016212464,2|2|0,0:0|0:0|0:0,0:0:0:0:
45,57,16332,102,0,P|44:22|58:49,1,85.0000016212464,2|2,0:0|0:0,0:0:0:0:
12,293,16895,5,10,0:0:0:0:
80,237,17082,102,0,P|81:202|67:229,1,85.0000016212464,2|2,0:0|0:0,0:0:0:0:
190,358,17645,6,0,L|285:325,1,85.0000016212464,8|8,0:0|0:0,0:0:0:0:
333,274,18020,2,0,B|315:228|274:235|296:258|231:257|231:213,1,127.50000243187,2|0,0:0|0:0,0:0:0:0:
218,210,18395,2,0,P|227:176|255:171,1,50,10|0,0:0|0:0,0:0:0:0:
201,99,18770,2,0,P|233:85|259:105,1,50,2|0,0:0|0:0,0:0:0:0:
358,2,19145,102,0,L|374:95,1,85.0000016212464,8|0,0:0|0:0,0:0:0:0:
461,111,19520,1,2,0:0:0:0:
395,174,19707,1,2,0:0:0:0:
395,174,19895,2,0,P|404:208|432:213,1,50,10|0,0:0|0:0,0:0:0:0:
379,295,20270,2,0,P|411:308|437:288,1,50,2|0,0:0|0:0,0:0:0:0:
494,245,20645,6,0,L|512:133,1,85.0000016212464,8|0,0:0|0:0,0:0:0:0:
512,118,20926,1,8,0:0:0:0:
512,118,21020,2,0,B|494:72|453:79|475:102|410:101|410:57,1,127.50000243187,2|0,0:0|0:0,0:0:0:0:
396,49,21395,102,0,P|378:32|353:31,1,50,10|0,0:0|0:0,0:0:0:0:
339,119,21770,2,0,P|314:121|300:140,1,50,2|0,0:0|0:0,0:0:0:0:
185,212,22145,6,0,P|160:209|146:190,1,50,10|0,0:0|0:0,0:0:0:0:
215,133,22520,1,2,0:0:0:0:
145,46,22707,101,2,0:0:0:0:
145,46,22895,6,0,P|120:46|102:63,1,50,10|0,0:0|0:0,0:0:0:0:
18,66,23270,2,0,P|9:88|18:111,1,50,2|0,0:0|0:0,0:0:0:0:
31,202,23645,5,8,0:0:0:0:
148,250,23832,1,8,0:0:0:0:
178,124,24020,2,0,L|136:26,2,85.0000016212464,0|2|8,3:0|0:0|0:0,0:0:0:0:
285,195,24582,1,2,0:0:0:0:
334,90,24770,2,0,P|399:95|432:140,1,85.0000016212464,0|2,3:0|0:0,0:0:0:0:
450,99,25051,1,4,0:0:0:0:
450,99,25145,2,0,L|439:205,1,85.0000016212464,8|2,0:0|0:0,0:0:0:0:
481,318,25520,5,0,3:0:0:0:
368,247,25707,1,2,0:0:0:0:
390,341,25895,2,0,P|339:363|276:342,1,85.0000016212464,8|2,0:0|0:0,0:0:0:0:
254,281,26270,1,0,3:0:0:0:
190,366,26457,1,2,0:0:0:0:
145,274,26645,2,0,P|124:254|92:250,1,42.5000008106232,8|2,0:0|0:0,0:0:0:0:
93,264,26832,1,2,0:0:0:0:
52,158,27020,102,0,L|82:54,2,85.0000016212464,0|2|8,3:0|0:0|0:0,0:0:0:0:
156,141,27582,1,2,0:0:0:0:
217,211,27770,2,0,P|273:193|276:136,1,85.0000016212464,0|2,3:0|0:0,0:0:0:0:
314,147,28051,1,4,0:0:0:0:
314,147,28145,1,8,0:0:0:0:
248,68,28332,1,2,0:0:0:0:
329,2,28520,6,0,L|434:31,1,85.0000016212464,0|2,3:0|0:0,0:0:0:0:
512,97,28895,2,0,L|407:126,1,85.0000016212464,8|2,0:0|0:0,0:0:0:0:
314,147,29270,1,0,3:0:0:0:
391,225,29457,1,2,0:0:0:0:
483,290,29645,102,0,L|491:339,1,42.5000008106232,8|2,0:0|0:0,0:0:0:0:
476,351,29832,1,10,0:0:0:0:
385,364,30020,2,0,L|378:322,2,42.5000008106232,0|2|2,3:0|0:0|0:0,0:0:0:0:
288,330,30395,2,0,P|249:282|217:271,2,85.0000016212464,8|2|0,0:0|0:0|3:0,0:0:0:0:
205,366,30957,1,2,0:0:0:0:
205,366,31051,1,4,0:0:0:0:
205,366,31145,2,0,P|124:346|84:354,1,85.0000016212464,8|2,0:0|0:0,0:0:0:0:
42,302,31520,6,0,P|7:255|6:211,1,85.0000016212464,0|2,3:0|0:0,0:0:0:0:
6,146,31895,2,0,B|57:153|57:153|100:224|100:224|167:242,1,170.000003242493,8|0,0:0|3:0,0:0:0:0:
247,245,32457,2,0,L|270:191,1,42.5000008106232,2|2,0:0|0:0,0:0:0:0:
278,183,32645,2,0,P|247:124|220:104,1,85.0000016212464,8|2,0:0|0:0,0:0:0:0:
148,7,33020,101,0,3:0:0:0:
108,96,33207,1,2,0:0:0:0:
42,18,33395,1,8,0:0:0:0:
6,118,33582,1,2,0:0:0:0:
75,197,33770,2,0,P|117:210|175:265,1,85.0000016212464,0|2,3:0|0:0,0:0:0:0:
159,263,34051,1,4,0:0:0:0:
159,263,34145,2,0,P|217:258|253:249,1,85.0000016212464,8|2,0:0|0:0,0:0:0:0:
331,184,34520,5,0,3:0:0:0:
402,271,34707,2,0,L|391:322,2,42.5000008106232,2|2|10,0:0|0:0|0:0,0:0:0:0:
495,219,35082,1,2,0:0:0:0:
223,102,36020,70,0,P|170:138|162:173,1,85.0000016212464,2|2,3:2|0:3,0:0:0:0:
194,265,36395,2,0,P|252:292|286:282,1,85.0000016212464,8|0,0:1|0:0,0:0:0:0:
350,208,36770,2,0,P|344:144|319:120,1,85.0000016212464,2|0,3:2|0:0,0:0:0:0:
321,93,37051,1,0,0:0:0:0:
321,93,37145,1,8,0:1:0:0:
231,42,37332,1,2,0:3:0:0:
182,130,37520,6,0,B|158:146|158:146|165:217,1,85.0000016212464,2|2,3:2|0:3,0:0:0:0:
238,286,37895,2,0,B|265:297|265:297|323:256,1,85.0000016212464,8|0,0:1|0:0,0:0:0:0:
347,220,38176,1,4,0:0:0:0:
345,158,38270,2,0,B|342:130|342:130|277:101,1,85.0000016212464,2|0,3:2|0:0,0:0:0:0:
256,192,38645,101,8,0:1:0:0:
192,87,38832,1,2,0:2:0:0:
153,176,39020,6,0,P|173:232|177:263,1,85.0000016212464,0|2,3:0|0:3,0:0:0:0:
292,288,39395,2,0,P|331:243|355:223,1,85.0000016212464,8|0,0:1|0:0,0:0:0:0:
319,111,39770,2,0,P|260:100|232:89,1,85.0000016212464,2|0,3:2|0:0,0:0:0:0:
192,87,40051,1,0,0:0:0:0:
192,87,40145,1,8,0:1:0:0:
256,192,40332,1,2,0:3:0:0:
154,183,40520,102,0,L|187:281,1,85.0000016212464,0|2,3:0|0:3,0:0:0:0:
299,284,40895,2,0,L|367:207,1,85.0000016212464,8|0,0:1|0:0,0:0:0:0:
352,160,41176,1,4,0:0:0:0:
314,108,41270,2,0,L|213:87,1,85.0000016212464,0|2,3:0|0:2,0:0:0:0:
132,88,41645,5,8,0:1:0:0:
256,191,41832,1,8,0:1:0:0:
180,236,42020,102,0,P|125:235|103:206,1,85.0000016212464,0|2,3:0|0:3,0:0:0:0:
255,104,42395,2,0,P|283:56|319:52,1,85.0000016212464,8|0,0:1|0:0,0:0:0:0:
332,235,42770,2,0,P|359:283|345:316,1,85.0000016212464,0|0,3:0|0:0,0:0:0:0:
316,332,43051,1,0,0:0:0:0:
316,332,43145,1,8,0:1:0:0:
256,191,43332,1,2,0:3:0:0:
189,258,43520,6,0,P|132:246|97:231,2,85.0000016212464,0|2|8,3:0|0:3|0:1,0:0:0:0:
323,126,44082,2,0,P|380:138|415:153,1,85.0000016212464,2|0,0:2|3:0,0:0:0:0:
338,221,44457,101,2,0:2:0:0:
189,258,44645,1,8,0:1:0:0:
227,104,44832,1,2,0:2:0:0:
241,147,44926,1,8,0:1:0:0:
256,191,45020,5,0,3:0:0:0:
310,81,45395,102,0,P|358:116|366:147,1,85.0000016212464,8|2,0:1|0:2,0:0:0:0:
367,246,45770,2,0,P|331:294|300:302,1,85.0000016212464,0|0,3:0|0:2,0:0:0:0:
258,321,46051,1,4,0:0:0:0:
202,303,46145,2,0,P|153:267|145:236,1,85.0000016212464,8|2,0:1|0:3,0:0:0:0:
55,177,46520,1,0,3:0:0:0:
145,138,46707,2,0,P|180:89|211:81,1,85.0000016212464,2|8,0:3|0:1,0:0:0:0:
256,0,47082,1,2,0:2:0:0:
499,98,47645,86,0,L|476:211,1,85.0000016212464,8|8,0:2|0:2,0:0:0:0:
481,292,48020,2,0,B|406:313|404:259|382:282|375:227|293:268,1,200,2|8,3:2|0:2,0:0:0:0:
233,352,48582,1,6,3:2:0:0:
123,343,48770,2,0,P|100:285|107:242,1,100,2|4,3:2|0:2,0:0:0:0:
25,161,49145,6,0,L|129:135,1,100,8|0,0:2|0:0,0:0:0:0:
171,47,49520,2,0,B|246:26|248:79|269:57|277:111|358:70,1,200,2|8,3:2|0:2,0:0:0:0:
504,87,50082,1,6,0:2:0:0:
436,20,50270,2,0,P|407:66|397:123,1,100,2|14,3:2|0:2,0:0:0:0:
368,155,50551,1,2,0:2:0:0:
383,204,50645,102,0,L|509:226,1,100,8|4,0:0|3:2,0:0:0:0:
498,329,51020,2,0,B|435:303|392:347|419:366|352:391|311:368,1,200,2|8,3:2|0:2,0:0:0:0:
246,279,51582,5,6,3:2:0:0:
160,352,51770,2,0,P|111:331|116:280,1,100,2|4,3:2|0:2,0:0:0:0:
88,244,52051,1,4,3:2:0:0:
88,244,52145,1,8,0:2:0:0:
181,169,52332,101,6,3:2:0:0:
118,83,52520,2,0,P|73:100|70:147,1,100,2|4,3:2|0:2,0:0:0:0:
88,244,52895,1,10,0:2:0:0:
209,272,53082,5,6,0:2:0:0:
160,352,53270,2,0,P|111:331|116:280,1,100,2|4,3:2|0:2,0:0:0:0:
181,169,53645,2,0,L|289:184,1,100,8|8,0:2|0:0,0:0:0:0:
395,159,54020,102,0,B|381:102|346:96|345:110|298:85|302:51,1,150,2|0,3:2|3:2,0:0:0:0:
309,40,54395,2,0,P|337:28|419:10,1,100,10|4,0:2|3:2,0:0:0:0:
219,79,54770,2,0,P|191:67|117:46,1,100,2|4,3:2|0:2,0:0:0:0:
101,60,55051,1,4,3:2:0:0:
101,60,55145,1,8,0:2:0:0:
140,176,55520,6,0,B|125:233|89:240|88:225|39:250|43:287,1,150,2|0,3:2|0:0,0:0:0:0:
53,295,55895,2,0,P|89:323|125:382,1,100,10|4,0:2|0:2,0:0:0:0:
228,373,56270,2,0,P|276:354|325:306,1,100,2|4,3:2|0:2,0:0:0:0:
416,285,56645,1,8,0:2:0:0:
491,356,56832,1,4,0:2:0:0:
491,356,56926,1,8,0:2:0:0:
491,356,57020,102,0,B|432:284|514:256|451:166,1,200,2|10,3:2|0:2,0:0:0:0:
512,67,57582,1,4,3:2:0:0:
416,18,57770,2,0,P|366:33|333:70,1,100,2|4,3:2|0:2,0:0:0:0:
231,86,58145,5,10,0:2:0:0:
308,173,58332,1,4,3:2:0:0:
237,245,58520,2,0,P|181:221|160:191,1,100,2|6,3:2|0:2,0:0:0:0:
60,121,58895,2,0,P|67:90|94:73,2,50,10|0|4,0:2|3:2|0:2,0:0:0:0:
0,219,59270,1,2,3:2:0:0:
121,344,59645,5,8,0:2:0:0:
219,324,59832,1,12,0:2:0:0:
321,305,60020,2,0,L|279:128,2,170.000003242493,0|8|0,3:2|0:0|3:0,0:0:0:0:
151,305,61145,5,8,0:0:0:0:
64,241,61332,1,0,0:0:0:0:
151,305,61520,2,0,L|193:128,2,170.000003242493,2|8|0,3:2|0:0|3:0,0:0:0:0:
346,351,62645,38,0,L|369:256,1,85.0000016212464,10|0,0:1|0:0,0:0:0:0:
458,240,63020,53,0,3:0:0:0:
401,171,63207,1,0,0:0:0:0:
471,107,63395,2,0,P|495:82|488:31,1,85.0000016212464,8|0,0:0|0:0,0:0:0:0:
404,9,63770,2,0,P|380:34|387:85,1,85.0000016212464,0|0,3:0|0:0,0:0:0:0:
355,117,64051,1,4,0:0:0:0:
355,117,64145,1,8,0:0:0:0:
259,78,64332,1,0,0:0:0:0:
182,133,64520,6,0,P|144:97|144:64,1,85.0000016212464,0|0,3:0|0:0,0:0:0:0:
63,11,64895,2,0,P|30:36|25:77,1,85.0000016212464,8|0,0:0|0:0,0:0:0:0:
0,178,65270,1,0,3:0:0:0:
61,363,65645,101,8,0:0:0:0:
118,285,65832,1,8,0:0:0:0:
61,363,66020,2,0,P|128:330|224:329,2,170.000003242493,0|8|0,3:0|0:0|3:0,0:0:0:0:
9,215,67145,5,8,0:0:0:0:
47,130,67332,1,2,0:0:0:0:
141,126,67520,2,0,P|178:190|257:245,1,170.000003242493,0|8,3:0|0:0,0:0:0:0:
378,178,68082,1,2,0:0:0:0:
343,268,68270,2,0,P|327:199|310:175,1,85.0000016212464,0|0,3:0|0:0,0:0:0:0:
260,106,68645,1,8,0:0:0:0:
320,31,68832,1,2,0:0:0:0:
320,31,68926,1,8,0:0:0:0:
320,31,69020,102,0,L|411:52,1,85.0000016212464,0|2,3:0|0:0,0:0:0:0:
507,41,69395,2,0,L|486:132,1,85.0000016212464,8|2,0:0|0:0,0:0:0:0:
409,179,69770,2,0,L|430:270,1,85.0000016212464,0|2,3:0|0:0,0:0:0:0:
460,358,70145,1,8,0:0:0:0:
361,339,70332,1,2,0:0:0:0:
264,314,70520,2,0,B|256:271|256:271|301:243,2,85.0000016212464,0|2|8,3:0|0:0|0:0,0:0:0:0:
185,357,71082,1,6,0:3:0:0:
106,290,71270,54,0,B|74:280|38:205|92:137|152:109|204:123|211:243|154:224,1,297.500005674362,6|0,0:3|0:0,0:0:0:0:
166,225,72020,2,0,B|58:221|109:141|1:141,1,179.999994506836,4|0,3:0|1:2,0:0:0:0:
15,19,72582,1,2,0:3:0:0:
106,72,72770,2,0,P|150:75|167:29,1,85.0000016212464,4|0,3:0|0:0,0:0:0:0:
213,18,73051,1,4,0:0:0:0:
213,18,73145,1,0,1:2:0:0:
294,85,73332,1,8,0:3:0:0:
376,24,73520,6,0,P|409:24|438:109,1,127.50000243187,4|0,3:0|0:0,0:0:0:0:
457,120,73895,1,0,1:2:0:0:
329,242,74270,2,0,B|353:237|368:175|335:177,1,85.0000016212464,4|0,3:0|0:0,0:0:0:0:
240,246,74645,2,0,B|254:225|221:171|198:195,1,85.0000016212464,8|0,1:3|0:0,0:0:0:0:
170,310,75020,2,0,B|189:284|130:261|112:279,1,85.0000016212464,12|0,3:3|0:0,0:0:0:0:
101,364,75395,1,0,1:2:0:0:
2,224,75770,102,0,B|-9:172|67:165|56:179|110:168|111:112,1,170.000003242493,4|0,3:0|1:2,0:0:0:0:
50,46,76332,1,10,0:3:0:0:
134,0,76520,2,0,P|172:14|177:68,1,85.0000016212464,4|2,3:0|0:3,0:0:0:0:
216,147,76895,2,0,B|269:165|248:117|304:145,1,85.0000016212464,4|0,1:3|0:0,0:0:0:0:
350,56,77270,2,0,B|360:110|391:68|395:131,1,85.0000016212464,8|0,3:0|0:0,0:0:0:0:
493,76,77645,2,0,B|465:124|516:113|478:162,1,85.0000016212464,12|0,1:3|1:0,0:0:0:0:
405,216,78020,6,0,P|375:241|308:355,1,170.000003242493,4|0,3:0|1:2,0:0:0:0:
162,355,78770,1,4,3:0:0:0:
162,355,78863,1,4,0:2:0:0:
162,355,78957,2,0,P|120:334|107:290,2,85.0000016212464,2|0|10,0:3|1:2|0:3,0:0:0:0:
247,313,79520,101,4,3:0:0:0:
47,165,79895,1,8,1:3:0:0:
292,70,80270,1,12,3:0:0:0:
230,187,80645,2,0,P|184:163|184:131,1,85.0000016212464,0|0,1:2|0:0,0:0:0:0:
199,44,81020,2,0,B|251:71|300:38|281:34|338:1|366:20,1,170.000003242493,4|4,3:0|1:3,0:0:0:0:
478,116,81582,1,0,0:0:0:0:
453,20,81770,2,0,P|415:43|382:92,1,85.0000016212464,4|0,3:0|0:0,0:0:0:0:
358,107,82051,1,4,0:2:0:0:
358,107,82145,2,0,P|346:150|384:182,1,85.0000016212464,0|0,1:2|0:0,0:0:0:0:
446,246,82520,5,4,3:0:0:0:
400,329,82707,1,2,0:3:0:0:
301,296,82895,2,0,P|269:312|277:360,1,85.0000016212464,0|0,1:2|0:0,0:0:0:0:
277,360,83270,102,0,B|296:328|276:250|158:309|147:191|163:114|306:104|303:206|274:211,1,340.000006484985,4|2,3:0|0:0,0:0:0:0:
131,196,96020,53,2,0:0:0:0:
44,179,96207,1,2,0:0:0:0:
103,111,96395,1,2,0:0:0:0:
16,98,96582,1,2,0:0:0:0:
72,32,96770,2,0,P|98:42|249:68,1,170.000003242493,2|2,0:3|0:3,0:0:0:0:
342,13,97520,6,0,B|375:79|323:123|319:96|260:133|306:217,1,212.500004053116,2|0,0:0|0:0,0:0:0:0:
319,219,98082,2,0,P|354:220|327:206,1,85.0000016212464,2|2,0:0|0:0,0:0:0:0:
143,187,98645,102,0,L|126:298,1,85.0000016212464,8|0,0:0|0:0,0:0:0:0:
36,300,99020,2,0,B|102:267|146:319|119:323|157:382|240:336,1,212.500004053116,2|0,0:0|0:0,0:0:0:0:
241,336,99582,2,0,P|242:301|228:328,1,85.0000016212464,2|2,0:0|0:0,0:0:0:0:
132,287,99957,5,2,0:0:0:0:
132,287,100145,102,0,L|115:176,1,85.0000016212464,8|0,0:0|0:0,0:0:0:0:
20,144,100520,2,0,B|56:79|121:98|101:116|166:144|209:59,1,212.500004053116,2|0,0:0|0:0,0:0:0:0:
227,68,101082,2,0,P|228:33|214:60,2,85.0000016212464,2|2|0,0:0|0:0|0:0,0:0:0:0:
354,125,101832,6,0,P|369:93|345:112,1,85.0000016212464,2|2,0:0|0:0,0:0:0:0:
431,270,102395,101,10,0:0:0:0:
431,270,102582,6,0,P|456:245|427:255,1,85.0000016212464,2|2,0:0|3:0,0:0:0:0:
244,266,103145,1,8,0:1:0:0:
184,355,103332,1,8,0:1:0:0:
74,327,103520,70,0,B|62:269|91:249|98:261|130:218|112:189,1,150,2|0,3:2|3:2,0:0:0:0:
104,173,103895,2,0,P|76:161|16:114,1,100,10|4,0:2|3:2,0:0:0:0:
80,39,104270,2,0,P|128:51|174:70,1,100,2|4,3:2|0:2,0:0:0:0:
187,99,104551,1,4,3:2:0:0:
187,99,104645,1,8,0:2:0:0:
303,22,105020,6,0,B|360:37|367:73|352:74|377:123|414:119,1,150,2|0,3:2|0:0,0:0:0:0:
427,115,105395,2,0,P|451:71|490:41,1,100,10|4,0:2|0:2,0:0:0:0:
509,169,105770,2,0,P|470:201|424:219,1,100,2|4,3:2|0:2,0:0:0:0:
369,310,106145,1,8,0:2:0:0:
467,372,106332,1,4,3:2:0:0:
467,372,106426,1,8,0:2:0:0:
467,372,106520,102,0,B|395:313|367:395|277:332,1,200,2|10,3:2|0:2,0:0:0:0:
191,268,107082,1,4,3:2:0:0:
120,357,107270,2,0,P|70:342|37:305,1,100,2|4,3:2|0:2,0:0:0:0:
24,214,107645,2,0,P|71:215|72:171,1,100,6|4,0:3|3:2,0:0:0:0:
32,90,108020,1,2,3:2:0:0:
129,78,108207,1,10,0:3:0:0:
129,78,108395,2,0,P|122:47|95:30,2,50,10|0|4,0:3|3:2|0:2,0:0:0:0:
213,177,108770,1,14,3:3:0:0:
350,77,109145,5,8,0:1:0:0:
350,77,109238,1,8,0:1:0:0:
350,77,109332,2,0,L|364:23,1,50,8|8,0:1|0:1,0:0:0:0:
