osu file format v14

[General]
AudioFilename: audio.mp3
AudioLeadIn: 0
PreviewTime: 47645
Countdown: 0
SampleSet: Soft
StackLeniency: 0
Mode: 0
LetterboxInBreaks: 0
WidescreenStoryboard: 1

[Editor]
Bookmarks: 8979,11229,11979,23979,35979,47979,59979,71979,83979,95979,103479,111729,111752,111775,111799,111822,111846,111869,111893,111916,111963,111986,112010,112033,112057,112080,112104,112127,112150,112197,112221,112244,112268,112291,112314,112338,112361,112385,112408,112432,112455,112479
DistanceSpacing: 0.8
BeatDivisor: 4
GridSize: 32
TimelineZoom: 0.8999997

[Metadata]
Title:TRAXXXMANIA
TitleUnicode:TRAXXXMANIA
Artist:GONE.Fludd
ArtistUnicode:GONE.Fludd
Creator:jamesjan3
Version:FLAKES.Insanee
Source:
Tags:русский рэп хип-хоп хип хоп хипхоп hip hop hip-hop russian trap rap flake m2p mapping to pander DIGITAL FANTAZY Трахать сук пить сок juice duck -doodle dooe
BeatmapID:3506373
BeatmapSetID:1659645

[Difficulty]
HPDrainRate:4.5
CircleSize:3.5
OverallDifficulty:7
ApproachRate:8.4
SliderMultiplier:2
SliderTickRate:1

[Events]
//Background and Video events
0,0,"6de2d3559a07f854677a890358c3104b.jpg",0,0
//Break Periods
//Storyboard Layer 0 (Background)
//Storyboard Layer 1 (Fail)
//Storyboard Layer 2 (Pass)
//Storyboard Layer 3 (Foreground)
//Storyboard Layer 4 (Overlay)
//Storyboard Sound Samples

[TimingPoints]
20,375,4,2,1,50,1,0
9020,-200,4,2,1,100,0,0
11645,-133.333333333333,4,2,1,50,0,0
17645,-100,4,2,1,50,0,0
24020,-100,4,2,1,70,0,0
35785,-100,4,2,1,5,0,0
35832,-100,4,2,1,70,0,0
36020,-80,4,2,2,70,0,0
48020,-80,4,2,1,80,0,0
60020,-100,4,2,1,70,0,0
72020,-80,4,2,1,70,0,0
84020,-80,4,2,2,70,0,0
96020,-133.333333333333,4,2,2,30,0,0
96207,-133.333333333333,4,2,2,40,0,0
96395,-133.333333333333,4,2,2,50,0,0
96582,-133.333333333333,4,2,2,60,0,0
96770,-133.333333333333,4,2,2,70,0,0
97520,-133.333333333333,4,2,1,50,0,0
103520,-80,4,2,1,80,0,0
107645,-83.3333333333333,4,2,1,80,0,0
108395,-86.9565217391304,4,2,1,80,0,0
109895,-142.857142857143,4,2,1,80,0,0
109941,-142.857142857143,4,2,2,10,0,0

[Colours]
Combo1 : 255,128,0
Combo2 : 134,141,208
Combo3 : 154,114,214
Combo4 : 232,226,159
Combo5 : 247,183,183
Combo6 : 112,98,41
Combo7 : 97,97,97
Combo8 : 243,12,17

[HitObjects]
497,52,9020,102,0,P|403:26|-4:286,1,600,4|0,0:1|0:1,0:0:0:0:
14,263,11645,22,0,P|32:273|44:296,1,37.5000014305115,8|0,0:0|0:0,0:0:0:0:
124,284,11832,2,0,P|124:304|110:326,1,37.5000014305115,8|0,0:0|0:0,0:0:0:0:
59,373,12020,6,0,P|109:344|222:341,1,150.000005722046,2|8,0:2|0:0,0:0:0:0:
199,335,12582,1,2,0:0:0:0:
216,255,12770,2,0,P|251:252|264:290,1,75.0000028610231,2|0,0:0|0:0,0:0:0:0:
469,325,13145,2,0,P|429:344|384:341,1,75.0000028610231,8|0,0:0|0:0,0:0:0:0:
408,258,13520,102,4,P|433:223|446:97,1,150.000005722046,6|12,0:0|0:0,0:0:0:0:
450,119,14082,1,2,0:0:0:0:
379,62,14270,2,0,B|387:50|406:52|406:52|384:65|374:93,1,75.0000028610231,2|2,0:0|0:0,0:0:0:0:
249,141,14645,6,0,P|214:132|168:128,1,75.0000028610231,8|0,0:0|0:0,0:0:0:0:
104,65,14926,1,8,0:0:0:0:
112,73,15020,102,0,P|140:117|147:221,1,150.000005722046,2|8,0:0|0:0,0:0:0:0:
149,212,15582,1,2,0:0:0:0:
89,270,15770,2,0,P|55:256|73:227,1,75.0000028610231,2|0,0:0|0:0,0:0:0:0:
175,128,16332,5,2,0:0:0:0:
240,191,16520,2,0,B|250:179|250:156|250:156|240:179|221:189,1,75.0000028610231,2|0,0:0|0:0,0:0:0:0:
328,320,17082,101,2,0:0:0:0:
415,300,17270,2,0,L|400:395,1,75.0000028610231,2|0,0:0|0:0,0:0:0:0:
328,320,17645,6,0,B|318:306|318:306|339:264,1,50,8|0,0:0|0:0,0:0:0:0:
388,150,17832,2,0,B|404:130|404:130|394:161,1,50,8|0,0:0|0:0,0:0:0:0:
328,320,18020,102,0,B|229:302|229:302|217:277|180:262,1,150,2|0,0:0|0:0,0:0:0:0:
153,344,18395,6,0,B|165:365|165:365|154:386|130:379|132:355|132:355|153:343,1,100,10|0,0:0|0:0,0:0:0:0:
193,268,18770,102,0,P|166:259|136:263,1,50,2|0,0:0|0:0,0:0:0:0:
100,192,18957,2,0,P|78:210|67:238,1,50
33,325,19145,6,0,P|47:275|-4:133,1,200,8|2,0:0|0:0,0:0:0:0:
28,54,19707,1,2,0:0:0:0:
147,65,19895,102,0,B|186:60|202:24|178:-2|178:-2|168:31|133:45,1,150,10|0,0:0|0:0,0:0:0:0:
28,54,20270,2,0,B|96:82|46:99|104:133,1,100,2|0,0:0|0:0,0:0:0:0:
342,162,20645,6,0,P|327:107|360:76,1,100,8|0,0:0|0:0,0:0:0:0:
411,16,20926,1,8,0:0:0:0:
420,25,21020,2,0,L|238:49,1,150,2|0,0:0|0:0,0:0:0:0:
194,8,21395,102,0,B|170:56|170:56|202:96,1,100,10|0,0:0|0:0,0:0:0:0:
342,162,21770,2,0,P|354:187|351:210,1,50,2|4,0:0|0:0,0:0:0:0:
420,256,21957,2,0,P|404:278|382:287,1,50,0|4,0:0|0:0,0:0:0:0:
317,335,22145,6,0,P|362:345|432:365,1,100,10|0,0:0|0:0,0:0:0:0:
269,200,22520,1,2,0:0:0:0:
169,309,22707,1,2,0:0:0:0:
169,309,22895,2,0,B|216:316|231:347|231:347|227:310|259:273,1,150,10|0,0:0|0:0,0:0:0:0:
269,200,23270,2,0,B|278:172|313:174|313:174|293:185|282:213,1,100,2|0,0:0|0:0,0:0:0:0:
349,288,23645,6,0,P|360:266|358:241,1,50,8|0,0:0|0:0,0:0:0:0:
380,129,23832,2,0,P|366:108|344:97,1,50,8|0,0:0|0:0,0:0:0:0:
298,21,24020,5,0,3:0:0:0:
447,50,24207,1,2,0:0:0:0:
273,169,24395,1,8,0:0:0:0:
422,198,24582,1,2,0:0:0:0:
422,198,24770,2,0,B|442:198|463:175|463:175|458:206|475:241,1,100,0|2,3:0|0:0,0:0:0:0:
506,302,25051,1,4,0:0:0:0:
496,295,25145,2,0,P|443:283|388:370,1,150,8|0,0:0|0:0,0:0:0:0:
465,372,25520,102,0,B|415:364|415:364|401:374|401:374|245:349,1,200,0|8,3:0|0:0,0:0:0:0:
130,262,26082,1,2,0:0:0:0:
118,270,26176,1,4,0:0:0:0:
106,280,26270,2,0,B|96:328|96:328|148:363,1,100,0|2,3:0|0:0,0:0:0:0:
201,301,26645,6,0,P|210:280|209:249,1,50,8|2,0:0|0:0,0:0:0:0:
53,213,26832,2,0,P|37:229|27:259,1,50,2|8,0:0|0:0,0:0:0:0:
140,175,27020,102,0,B|124:124|165:126|132:64,1,100,0|2,3:0|0:0,0:0:0:0:
59,105,27395,1,8,0:0:0:0:
190,15,27582,1,2,0:0:0:0:
331,60,27770,1,0,3:0:0:0:
342,63,27863,2,0,P|389:66|429:30,1,100,4|4,0:0|0:0,0:0:0:0:
432,24,28145,1,8,0:0:0:0:
497,97,28332,1,2,0:0:0:0:
403,121,28520,5,0,3:0:0:0:
432,24,28707,1,2,0:0:0:0:
497,97,28895,2,0,L|487:152,1,50,8|0,0:0|0:0,0:0:0:0:
465,229,29082,1,2,0:0:0:0:
474,237,29176,1,4,0:0:0:0:
478,244,29270,2,0,B|427:253|427:253|382:227,1,100,0|2,3:0|0:0,0:0:0:0:
334,168,29645,102,0,P|320:183|306:215,1,50,8|2,0:0|0:0,0:0:0:0:
229,256,29832,2,0,P|243:271|257:303,1,50,10|0,0:0|0:0,0:0:0:0:
317,357,30020,1,0,3:0:0:0:
330,347,30113,1,2,0:0:0:0:
344,342,30207,1,2,0:0:0:0:
344,342,30395,6,0,L|225:333,1,100,8|2,0:0|0:0,0:0:0:0:
52,354,30770,2,0,P|34:335|19:295,1,50,0|4,3:0|0:0,0:0:0:0:
102,282,30957,2,0,P|100:255|114:215,1,50,2|4,0:0|0:0,0:0:0:0:
42,184,31145,2,0,P|89:180|137:155,1,100,8|2,0:0|0:0,0:0:0:0:
208,28,31520,101,0,3:0:0:0:
256,95,31707,1,2,0:0:0:0:
337,114,31895,1,8,0:0:0:0:
421,100,32082,1,2,0:0:0:0:
484,48,32270,2,0,L|445:194,1,150,0|2,3:0|0:0,0:0:0:0:
440,204,32645,1,8,0:0:0:0:
487,266,32832,1,2,0:0:0:0:
481,271,32926,1,8,0:1:0:0:
474,277,33020,6,0,P|424:255|377:257,1,100,0|2,3:0|0:0,0:0:0:0:
337,114,33395,2,0,P|287:136|240:134,1,100,8|2,0:0|0:0,0:0:0:0:
146,270,33770,101,0,3:0:0:0:
144,258,33863,2,0,B|137:219|137:219|140:203|140:203|133:155,1,100,4|4,0:0|0:0,0:0:0:0:
131,145,34145,6,0,P|110:161|86:168,1,50,8|0,0:0|0:0,0:0:0:0:
51,90,34332,2,0,P|72:74|96:67,1,50,2|0,0:0|0:0,0:0:0:0:
163,15,34520,102,0,P|202:21|250:71,1,100,0|2,3:0|0:0,0:0:0:0:
251,146,34895,1,10,0:0:0:0:
393,76,35082,1,2,0:0:0:0:
417,88,35176,1,0,0:0:0:0:
430,109,35270,1,2,0:1:0:0:
430,109,36020,86,0,B|494:46|400:23|322:91|417:112,1,187.5,2|0,3:2|0:0,0:0:0:0:
437,190,36395,2,0,P|454:231|452:186,1,125,8|0,0:1|0:0,0:0:0:0:
340,178,36770,5,2,3:2:0:0:
332,171,36863,2,0,B|307:149|295:121|295:121|269:139|234:147,1,125
227,150,37145,1,8,0:1:0:0:
240,56,37332,1,2,0:3:0:0:
108,74,37520,102,0,B|122:34|122:34|112:26|112:26|40:46|40:46|38:56|38:56|78:86,1,187.5,2|0,3:2|0:0,0:0:0:0:
101,163,37895,2,0,B|100:200|100:200|149:183|149:183|126:151,1,125,8|0,0:1|0:0,0:0:0:0:
39,257,38270,6,0,B|92:264|92:264|99:258|99:258|176:267,1,125,2|0,3:2|0:0,0:0:0:0:
318,346,38645,2,0,B|300:320|300:320|305:282,1,62.5,8|0,0:1|0:0,0:0:0:0:
298,205,38832,2,0,B|329:202|329:202|359:225,1,62.5,2|0,0:2|0:1,0:0:0:0:
483,210,39020,102,0,B|505:230|505:230|488:283|488:283|360:306,1,187.5,0|0,3:0|0:0,0:0:0:0:
298,205,39395,2,0,B|305:179|305:179|339:168|339:168|361:195|361:195|353:225,1,125,8|0,0:1|0:0,0:0:0:0:
318,346,39770,5,2,3:2:0:0:
310,340,39863,2,0,B|290:323|290:323|194:346,1,125
183,348,40145,1,8,0:1:0:0:
200,256,40332,1,2,0:3:0:0:
44,289,40520,102,0,B|39:315|19:334|19:334|65:358|89:315|89:315|60:308|44:288,1,187.5,0|0,3:0|0:0,0:0:0:0:
18,213,40895,2,0,B|-42:193|7:139|62:170|14:219,1,125,8|0,0:1|0:0,0:0:0:0:
108,236,41270,1,0,3:0:0:0:
168,74,41457,6,0,B|197:78|197:78|212:116,1,62.5,2|0,0:2|0:0,0:0:0:0:
129,150,41645,2,0,B|118:122|118:122|143:90,1,62.5,8|0,0:1|0:0,0:0:0:0:
214,145,41832,2,0,B|195:168|195:168|155:161,1,62.5,8|0,0:1|0:0,0:0:0:0:
337,25,42020,102,0,B|422:37|422:37|443:90,1,125,0|2,3:0|0:3,0:0:0:0:
450,90,42395,2,0,B|365:102|365:102|350:138,1,125,8|0,0:1|0:0,0:0:0:0:
332,149,42770,2,0,B|417:161|417:161|438:214,1,125,0|0,3:0|0:0,0:0:0:0:
358,328,43145,6,0,P|344:301|338:254,1,62.5,8|0,0:1|0:0,0:0:0:0:
267,216,43332,2,0,P|260:246|246:274,1,62.5,2|0,0:3|0:0,0:0:0:0:
139,298,43520,102,0,L|68:291,1,62.5,0|0,3:0|0:0,0:0:0:0:
55,204,43707,2,0,L|198:217,1,125,2|8,0:3|0:1,0:0:0:0:
313,11,44082,5,2,0:2:0:0:
273,43,44176,1,4,0:0:0:0:
281,102,44270,1,0,3:0:0:0:
422,29,44457,2,0,P|437:74|385:145,1,125,2|8,0:2|0:1,0:0:0:0:
304,250,44832,1,2,0:2:0:0:
289,236,44926,1,8,0:1:0:0:
296,264,45020,102,0,P|358:250|397:297,1,125,0|2,3:0|0:3,0:0:0:0:
398,301,45395,2,0,P|379:361|318:371,1,125,8|2,0:1|0:2,0:0:0:0:
314,370,45770,2,0,P|270:323|292:266,1,125,0|0,3:0|0:2,0:0:0:0:
189,182,46145,6,0,L|126:199,1,62.5,8|0,0:1|0:0,0:0:0:0:
24,222,46332,2,0,B|-3:238|-3:238|29:234,1,62.5,2|0,0:3|0:0,0:0:0:0:
118,190,46520,101,0,3:0:0:0:
49,143,46707,2,0,B|41:88|41:88|115:42,1,125,2|8,0:3|0:1,0:0:0:0:
119,54,47082,5,2,0:2:0:0:
194,17,47269,2,0,B|245:37|245:37|248:124,1,125,0|0,0:0|3:2,0:0:0:0:
200,215,47645,70,0,B|232:211|232:211|252:234,1,62.5,8|0,0:2|0:0,0:0:0:0:
300,360,47832,2,0,B|280:333|280:333|290:305,1,62.5,8|0,0:2|0:0,0:0:0:0:
334,233,48020,6,0,B|354:248|354:248|537:209,1,187.5,2|0,3:2|3:2,0:0:0:0:
432,265,48395,2,0,L|444:193,1,62.5,8|0,0:2|0:0,0:0:0:0:
368,23,48582,2,0,B|358:53|358:53|390:81,1,62.5,6|0,3:2|0:0,0:0:0:0:
460,113,48770,2,0,P|432:102|366:167,1,125,2|4,3:2|0:2,0:0:0:0:
283,102,49051,1,4,3:2:0:0:
289,112,49145,2,0,B|235:102|218:54|218:54|229:105|183:137,1,187.5,8|0,0:2|0:0,0:0:0:0:
40,204,49520,102,0,B|67:189|67:189|94:28,1,187.5,2|0,3:2|3:2,0:0:0:0:
110,118,49895,2,0,L|128:189,1,62.5,8|0,0:2|3:2,0:0:0:0:
95,370,50082,2,0,B|98:338|98:338|73:311,1,62.5,6|0,0:2|0:0,0:0:0:0:
0,284,50270,2,0,P|60:300|112:252,1,125,2|14,3:2|0:2,0:0:0:0:
196,229,50551,1,2,0:2:0:0:
188,238,50645,2,0,B|229:266|218:317|218:317|235:269|289:259,1,187.5,8|8,0:0|0:2,0:0:0:0:
474,320,51020,6,0,B|455:302|455:302|273:352,1,187.5,2|0,3:2|3:2,0:0:0:0:
376,357,51395,2,0,L|390:282,1,62.5,8|0,0:2|0:0,0:0:0:0:
417,82,51582,2,0,B|439:105|439:105|435:142,1,62.5,6|0,3:2|0:0,0:0:0:0:
448,222,51770,2,0,P|422:170|354:216,1,125,2|4,3:2|0:2,0:0:0:0:
361,195,52051,1,4,3:2:0:0:
359,203,52145,1,8,0:2:0:0:
240,39,52332,101,6,3:2:0:0:
298,97,52520,2,0,P|272:149|204:103,1,125,2|4,3:2|0:2,0:0:0:0:
211,124,52801,1,0,3:2:0:0:
209,116,52895,1,10,0:2:0:0:
94,280,53082,1,6,0:2:0:0:
152,222,53270,2,0,P|126:170|58:216,1,125,2|4,3:2|0:2,0:0:0:0:
65,195,53551,1,0,3:2:0:0:
60,204,53645,6,0,L|1:230,1,62.5,8|0,0:2|0:0,0:0:0:0:
36,305,53832,2,0,L|92:279,1,62.5,8|0,0:0|0:0,0:0:0:0:
253,178,54020,102,0,B|218:191|218:191|176:369,1,187.5,2|0,3:2|3:2,0:0:0:0:
99,284,54395,2,0,L|314:322,1,187.5,10|0,0:2|0:0,0:0:0:0:
353,360,54770,2,0,B|403:321|403:321|371:246,1,125,2|4,3:2|0:2,0:0:0:0:
368,186,55051,1,4,3:2:0:0:
367,174,55145,2,0,P|423:156|435:217,1,125,8|0,0:2|0:0,0:0:0:0:
327,74,55520,6,0,B|322:96|322:96|272:117,1,62.5,2|0,3:2|0:0,0:0:0:0:
164,46,55707,2,0,B|200:61|200:61|205:83,1,62.5,6|0,0:2|0:0,0:0:0:0:
226,192,55895,2,0,L|267:-3,1,187.5,10|0,0:2|0:0,0:0:0:0:
80,80,56270,2,0,B|46:140|46:140|109:198,1,125,2|4,3:2|0:2,0:0:0:0:
162,251,56551,1,0,3:2:0:0:
170,257,56645,2,0,P|102:271|107:331,1,125,8|4,0:2|0:2,0:0:0:0:
259,365,57020,102,0,B|280:338|280:338|231:169,1,187.5,2|0,3:2|0:0,0:0:0:0:
170,257,57395,2,0,L|373:289,1,187.5,10|0,0:2|0:0,0:0:0:0:
421,340,57770,2,0,B|474:305|474:305|450:244,1,125,2|4,3:2|0:2,0:0:0:0:
336,129,58051,1,4,3:2:0:0:
340,121,58145,2,0,P|327:169|399:174,1,125,10|4,0:2|3:2,0:0:0:0:
484,99,58520,6,0,B|471:91|471:91|406:111,1,62.5,2|0,3:2|0:0,0:0:0:0:
309,36,58707,2,0,B|322:28|322:28|387:48,1,62.5,6|0,0:2|0:0,0:0:0:0:
387,186,58895,2,0,L|201:156,1,187.5,10|0,0:2|0:0,0:0:0:0:
62,47,59270,2,0,B|122:32|122:32|166:83,1,125,2|4,3:2|0:2,0:0:0:0:
120,161,59551,1,0,3:2:0:0:
115,149,59645,2,0,L|103:219,1,62.5,8|0,0:2|0:0,0:0:0:0:
91,293,59832,2,0,L|79:363,1,62.5,12|0,0:2|0:0,0:0:0:0:
72,365,60020,6,0,B|128:349|100:314|170:302,1,100,0|0,3:2|0:0,0:0:0:0:
213,249,60395,2,0,B|269:233|241:198|311:186,1,100,8|0,0:0|0:0,0:0:0:0:
373,147,60770,5,0,3:0:0:0:
391,225,60957,2,0,P|411:196|413:164,1,50,0|4,0:0|0:0,0:0:0:0:
243,28,61145,2,0,P|258:71|321:108,1,100,8|0,0:0|0:0,0:0:0:0:
458,66,61520,102,0,B|417:37|417:37|368:62,1,100,2|0,3:2|0:0,0:0:0:0:
298,114,61895,2,0,B|257:85|257:85|208:110,1,100,8|0,0:0|0:0,0:0:0:0:
204,112,62176,1,0,0:0:0:0:
193,120,62270,2,0,L|171:220,1,100,0|2,3:0|0:0,0:0:0:0:
123,291,62645,54,0,B|63:275|78:321|10:340|6:249|61:265|71:293,1,150,10|8,0:1|0:0,0:0:0:0:
49,291,63020,53,0,3:0:0:0:
123,317,63207,1,0,0:0:0:0:
195,346,63395,1,8,0:0:0:0:
258,291,63582,1,0,0:0:0:0:
316,231,63770,1,0,3:0:0:0:
392,305,63957,5,0,0:0:0:0:
387,310,64051,1,4,0:0:0:0:
381,318,64145,2,0,B|415:356|415:356|475:324,1,100,8|0,0:0|0:0,0:0:0:0:
498,245,64520,101,0,3:0:0:0:
489,165,64707,1,0,0:0:0:0:
481,85,64895,1,8,0:0:0:0:
423,141,65083,1,0,0:0:0:0:
365,196,65270,1,0,3:0:0:0:
177,46,65645,6,0,P|199:57|209:89,1,50,8|0,0:0|0:0,0:0:0:0:
289,81,65832,2,0,P|290:105|267:130,1,50,8|0,0:0|0:0,0:0:0:0:
210,178,66020,102,0,B|172:168|172:168|153:176|153:176|101:161,1,100,0|2,3:0|0:0,0:0:0:0:
7,244,66395,2,0,B|45:255|45:255|64:247|64:247|102:257,1,100,8|2,0:0|0:0,0:0:0:0:
202,303,66770,5,0,3:0:0:0:
99,371,66957,2,0,B|118:366|118:366|127:370|127:370|146:364,1,50,0|4,0:0|0:0,0:0:0:0:
236,228,67145,2,0,P|277:235|332:284,1,100,8|2,0:0|0:0,0:0:0:0:
460,353,67520,102,0,B|456:319|424:331|437:291|437:291|454:243,1,100,0|2,3:0|0:0,0:0:0:0:
410,189,67895,2,0,B|406:155|374:167|387:127|387:127|404:79,1,100,8|2,0:0|0:0,0:0:0:0:
408,93,68176,1,0,0:0:0:0:
419,83,68270,2,0,L|314:105,1,100,0|0,3:0|0:0,0:0:0:0:
165,33,68645,1,8,0:0:0:0:
205,167,68832,1,2,0:0:0:0:
198,155,68926,1,8,0:0:0:0:
192,145,69020,5,0,3:0:0:0:
114,162,69207,1,2,0:0:0:0:
35,179,69395,1,8,0:0:0:0:
83,242,69582,1,2,0:0:0:0:
131,305,69770,1,0,3:0:0:0:
208,260,69957,102,0,L|216:311,1,50,2|4,0:0|0:0,0:0:0:0:
290,370,70145,2,0,L|306:268,1,100,8|2,0:0|0:0,0:0:0:0:
394,195,70520,5,0,3:0:0:0:
295,162,70707,1,2,0:0:0:0:
295,58,70895,1,8,0:0:0:0:
394,26,71082,1,6,0:3:0:0:
455,110,71270,1,6,0:3:0:0:
455,110,72020,38,0,B|440:81|440:81|517:16,3,125,4|2|0|2,3:0|0:3|1:2|0:3,0:0:0:0:
349,173,72770,1,4,3:0:0:0:
379,175,72863,1,4,0:0:0:0:
408,189,72957,1,0,0:0:0:0:
430,211,73051,1,4,0:0:0:0:
443,239,73145,1,0,1:2:0:0:
352,267,73332,1,8,0:3:0:0:
246,349,73520,6,0,B|234:333|234:333|104:314,3,125,4|0|0|0,3:0|0:0|1:2|0:0,0:0:0:0:
36,355,74270,102,0,P|2:300|5:172,1,187.5,4|0,3:0|0:0,0:0:0:0:
116,337,74645,2,0,P|123:244|81:162,1,187.5,8|8,1:3|0:2,0:0:0:0:
24,103,75020,6,0,B|134:120|134:120|173:74|173:74|146:40|146:40|89:33,2,250,12|0|4,3:3|1:2|3:0,0:0:0:0:
353,130,75957,1,2,0:3:0:0:
274,13,76145,2,0,L|284:92,1,62.5,0|0,1:2|0:0,0:0:0:0:
307,256,76332,2,0,L|299:193,1,62.5,10|0,0:3|0:0,0:0:0:0:
277,88,76520,101,4,3:0:0:0:
353,130,76707,1,2,0:3:0:0:
442,105,76895,2,0,B|439:62|439:62|373:64|365:124|394:178,1,187.5,4|4,1:3|0:2,0:0:0:0:
422,324,77270,2,0,B|460:342|460:342|492:284|444:247|382:245,1,187.5,8|0,3:0|0:0,0:0:0:0:
323,213,77645,6,0,B|297:220|297:220|295:228|295:228|264:236,1,62.5,12|0,1:3|0:0,0:0:0:0:
184,260,77832,2,0,B|158:267|158:267|156:275|156:275|125:283,1,62.5,0|0,1:0|0:0,0:0:0:0:
3,237,78020,102,0,B|17:256|17:256|-5:366,3,125,4|2|0|2,3:0|0:3|1:2|0:3,0:0:0:0:
105,169,78770,1,4,3:0:0:0:
74,172,78863,1,4,0:2:0:0:
44,164,78957,1,2,0:3:0:0:
18,146,79051,1,4,0:2:0:0:
2,120,79145,1,0,1:2:0:0:
90,81,79332,1,10,0:3:0:0:
203,16,79520,6,0,P|177:41|245:86,1,125,4|0,3:0|0:0,0:0:0:0:
377,26,79895,2,0,P|345:8|323:87,1,125,8|0,1:3|0:0,0:0:0:0:
421,194,80270,2,0,P|427:158|345:162,1,125,12|0,3:0|0:0,0:0:0:0:
274,288,80645,2,0,P|309:283|281:206,1,125,0|0,1:2|0:0,0:0:0:0:
231,174,80926,1,0,1:0:0:0:
223,183,81020,102,0,P|178:219|140:178,1,125,4|0,3:0|0:0,0:0:0:0:
166,59,81395,2,0,P|219:40|242:92,1,125,4|0,1:3|0:0,0:0:0:0:
376,231,81770,6,0,P|420:266|459:225,1,125,4|0,3:0|0:0,0:0:0:0:
433,106,82145,2,0,P|379:87|356:139,1,125,0|0,1:2|0:0,0:0:0:0:
424,344,82520,102,0,B|411:314|411:314|230:294|230:294|204:329,1,250,4|0,3:0|1:2,0:0:0:0:
80,173,83270,6,0,B|129:153|129:153|162:-20,1,187.5,4|0,3:0|0:0,0:0:0:0:
41,19,83645,70,0,L|58:88,1,62.5,10|0,0:2|0:0,0:0:0:0:
91,260,83832,2,0,P|148:265|188:193,1,125,8|2,0:2|0:0,0:0:0:0:
297,29,84770,1,8,0:1:0:0:
387,50,84957,1,0,0:0:0:0:
389,40,85051,1,4,0:2:0:0:
394,29,85145,1,10,0:3:0:0:
475,59,85332,1,0,0:0:0:0:
420,255,86270,6,0,P|367:242|321:304,1,125,8|0,0:1|0:0,0:0:0:0:
340,318,86551,2,0,P|287:305|241:367,1,125,8|0,0:0|0:0,0:0:0:0:
251,371,86832,1,2,0:0:0:0:
41,203,87770,101,8,0:1:0:0:
70,194,87863,1,0,0:0:0:0:
94,174,87957,1,0,0:0:0:0:
105,145,88051,1,0,0:2:0:0:
104,114,88145,1,6,0:3:0:0:
196,49,88426,6,0,B|214:43|227:18|227:18|312:37,1,125,8|0,0:1|0:0,0:0:0:0:
389,46,88707,2,0,B|417:63|417:63|373:58,1,62.5,8|0,0:1|0:0,0:0:0:0:
344,145,88895,2,0,P|411:95|530:105,1,187.5,0|4,3:0|0:2,0:0:0:0:
506,104,89270,1,8,0:1:0:0:
510,267,89457,2,0,P|460:283|412:228,1,125,0|8,0:0|0:3,0:0:0:0:
482,185,89832,1,0,0:0:0:0:
430,327,90020,101,2,0:0:0:0:
113,369,90770,1,8,0:1:0:0:
89,348,90863,1,4,0:2:0:0:
61,334,90957,1,0,0:0:0:0:
31,327,91051,1,4,0:2:0:0:
0,329,91145,1,10,0:3:0:0:
59,204,91895,6,0,B|112:208|131:257|131:257|124:205|165:171,1,187.5,2|0,0:1|0:2,0:0:0:0:
171,164,92270,1,8,0:1:0:0:
136,67,92457,2,0,B|196:79|196:79|190:84|190:84|269:101,1,125,0|6,0:0|0:3,0:0:0:0:
300,27,92832,1,0,0:0:0:0:
465,167,93770,102,0,B|411:145|411:145|403:147|403:147|358:206,1,125,8|0,0:1|0:0,0:0:0:0:
450,250,94051,2,0,B|396:228|396:228|388:230|388:230|343:289,1,125,4|0,0:2|0:0,0:0:0:0:
428,329,94332,1,0,0:0:0:0:
53,138,94895,6,0,B|38:108|-14:104|-14:104|42:93|73:118|83:154,1,187.5,0|4,3:0|0:2,0:0:0:0:
144,187,95270,102,0,P|117:127|126:68,1,125,8|0,0:1|0:0,0:0:0:0:
208,56,95551,2,0,P|235:116|226:175,1,125,4|0,0:0|0:0,0:0:0:0:
301,206,95832,2,0,L|377:196,1,62.5,8|0,0:0|0:0,0:0:0:0:
122,96,97145,86,0,L|38:117,1,75.0000028610231,2|0,0:3|0:0,0:0:0:0:
20,33,97520,6,0,B|37:47|37:47|17:148,1,112.500004291535,2|0,0:0|0:0,0:0:0:0:
9,213,97895,1,8,0:0:0:0:
112,193,98082,1,2,0:0:0:0:
106,272,98270,2,0,B|91:282|79:303|79:303|75:275|96:259,1,75.0000028610231,2|0,0:0|0:0,0:0:0:0:
205,182,98645,2,0,P|243:191|274:218,1,75.0000028610231,8|0,0:0|0:0,0:0:0:0:
396,146,99020,102,0,B|405:121|405:121|360:24,1,112.500004291535,2|0,0:0|0:0,0:0:0:0:
381,17,99395,1,8,0:0:0:0:
282,67,99582,1,2,0:0:0:0:
211,22,99770,6,0,P|201:41|197:67,1,37.5000014305115,2|0,0:0|0:0,0:0:0:0:
205,182,99957,2,0,P|215:177|208:177,1,37.5000014305115,2|0,0:0|0:0,0:0:0:0:
147,118,100145,2,0,B|130:108|124:88|124:88|19:73,1,112.500004291535,8|8,0:0|0:0,0:0:0:0:
21,45,100520,102,0,B|12:56|12:56|53:179,1,112.500004291535,2|0,0:0|0:0,0:0:0:0:
0,225,100895,1,8,0:0:0:0:
70,281,101082,1,2,0:0:0:0:
37,363,101270,6,0,P|65:318|175:301,1,150.000005722046,2|8,0:0|0:0,0:0:0:0:
154,294,101832,1,2,0:0:0:0:
123,201,102020,102,0,P|175:202|245:289,1,150.000005722046,2|10,0:0|0:0,0:0:0:0:
241,268,102582,1,2,0:0:0:0:
312,312,102770,6,0,P|350:307|388:279,1,75.0000028610231,2|0,3:0|0:0,0:0:0:0:
388,279,103051,1,0,0:0:0:0:
396,269,103145,2,0,L|412:365,1,75.0000028610231,8|8,0:1|0:1,0:0:0:0:
505,179,103520,70,0,B|487:194|487:194|316:152,1,187.5,2|0,3:2|3:2,0:0:0:0:
405,261,103895,2,0,L|439:62,1,187.5,10|0,0:2|0:0,0:0:0:0:
367,26,104270,2,0,B|303:15|303:15|257:96,1,125,2|4,3:2|0:2,0:0:0:0:
242,142,104551,1,4,3:2:0:0:
241,150,104645,2,0,P|182:131|190:74,1,125,8|0,0:2|0:0,0:0:0:0:
41,30,105020,6,0,B|32:45|32:45|58:97,1,62.5,2|0,3:2|0:0,0:0:0:0:
90,205,105207,2,0,B|110:164|110:164|101:149,1,62.5,6|0,0:2|0:0,0:0:0:0:
164,84,105395,2,0,L|-32:141,1,187.5,10|0,0:2|0:0,0:0:0:0:
25,259,105770,2,0,B|72:306|72:306|128:280,1,125,2|4,3:2|0:2,0:0:0:0:
226,311,106051,1,0,3:2:0:0:
218,306,106145,2,0,P|213:257|290:249,1,125,8|4,0:2|3:2,0:0:0:0:
352,316,106520,102,0,B|326:298|326:298|288:118,1,187.5,2|0,3:2|0:0,0:0:0:0:
282,62,106895,2,0,B|319:57|334:31|334:31|327:59|356:90,1,125,10|4,0:2|3:2,0:0:0:0:
456,158,107270,2,0,P|408:156|346:210,1,125,2|4,3:2|0:2,0:0:0:0:
285,59,107645,6,0,B|320:55|335:31|335:31|327:57|354:87,1,119.999996337891,6|4,0:3|3:2,0:0:0:0:
454,166,108020,2,0,P|406:162|342:214,1,119.999996337891,2|10,3:2|0:3,0:0:0:0:
287,58,108395,102,0,B|322:56|338:33|338:33|329:58|352:86,1,115.000002193451,10|4,0:3|0:2,0:0:0:0:
449,165,108770,2,0,P|392:166|348:201,1,115.000002193451,14|0,3:3|0:0,0:0:0:0:
272,266,109145,5,8,0:1:0:0:
285,262,109238,1,8,0:1:0:0:
303,266,109332,1,8,0:1:0:0:
315,276,109426,1,8,0:1:0:0:
369,342,109895,38,0,B|482:315|482:315|495:298|495:298|490:157|490:157|435:170|435:170|429:113|429:113|328:73|328:73|325:77|325:77|426:116|426:116|432:171|432:171|375:187|375:187|364:205|364:205|368:339,1,874.99997329712,0|12,0:0|0:0,0:0:0:0:
