osu file format v14

[General]
AudioFilename: audio.mp3
AudioLeadIn: 0
PreviewTime: -1
Countdown: 1
SampleSet: Normal
StackLeniency: 0.7
Mode: 0
LetterboxInBreaks: 0
WidescreenStoryboard: 0

[Editor]
DistanceSpacing: 0.9
BeatDivisor: 4
GridSize: 4
TimelineZoom: 1

[Metadata]
Title:Mlody Maj
TitleUnicode:MÅ‚ody Maj
Artist:GOLEC UORKIESTRA
ArtistUnicode:GOLEC UORKIESTRA
Creator:OhHeyImWills
Version:Impossibly Intense
Source:
Tags:polska
BeatmapID:1586888
BeatmapSetID:753743

[Difficulty]
HPDrainRate:4.5
CircleSize:5
OverallDifficulty:7
ApproachRate:9
SliderMultiplier:3.59999990463257
SliderTickRate:2

[Events]
//Background and Video events
0,0,"surume_yotyan-profile_banner-34d96a9a935172c8-480.jpeg",0,0
//Break Periods
2,124021,125067
2,152637,157698
2,159559,165083
//Storyboard Layer 0 (Background)
//Storyboard Layer 1 (Fail)
//Storyboard Layer 2 (Pass)
//Storyboard Layer 3 (Foreground)
//Storyboard Sound Samples

[TimingPoints]
591,461.538461538462,4,1,0,100,1,0
178461,461.538461538462,4,1,0,100,1,0

[HitObjects]
28,44,129,6,0,L|188:160,1,179.999995231629
504,24,591,2,0,L|368:176,1,179.999995231629
44,344,1052,2,0,L|208:240,1,179.999995231629
500,376,1514,2,0,L|364:224,1,179.999995231629
44,32,1975,2,0,L|228:76,1,179.999995231629
104,208,2437,2,0,L|320:204,1,179.999995231629
180,128,2898,6,0,B|400:172|324:108|248:92|240:48|344:40|440:64|404:152,1,359.999990463257
336,312,3591,2,0,P|428:248|384:220,1,179.999995231629
148,152,4052,2,0,B|296:192|216:168|308:80,1,179.999995231629
416,216,4514,2,0,B|316:228|332:160|484:176|500:248|368:300|264:240|276:152|336:104|420:104|464:148,1,359.999990463257
248,124,5437,1,0,0:0:0:0:
124,304,5667,1,0,0:0:0:0:
380,316,5898,1,0,0:0:0:0:
124,304,6129,1,0,0:0:0:0:
244,132,6360,1,0,0:0:0:0:
124,88,6591,5,0,0:0:0:0:
316,240,6821,1,0,0:0:0:0:
156,316,7052,1,0,0:0:0:0:
304,364,7283,1,0,0:0:0:0:
56,44,7744,5,0,0:0:0:0:
68,160,7975,1,0,0:0:0:0:
148,92,8206,1,0,0:0:0:0:
336,136,8437,1,0,0:0:0:0:
384,52,8667,1,0,0:0:0:0:
448,140,8898,1,0,0:0:0:0:
84,348,9129,5,0,0:0:0:0:
76,276,9360,1,0,0:0:0:0:
156,312,9591,1,0,0:0:0:0:
404,232,9821,5,0,0:0:0:0:
420,316,10052,5,0,0:0:0:0:
344,312,10283,1,0,0:0:0:0:
128,252,10514,1,0,0:0:0:0:
92,340,10744,1,0,0:0:0:0:
196,316,10975,1,0,0:0:0:0:
140,76,11206,1,0,0:0:0:0:
360,72,11437,1,0,0:0:0:0:
160,280,11667,1,0,0:0:0:0:
364,288,11898,1,0,0:0:0:0:
68,244,12129,1,0,0:0:0:0:
72,308,12360,6,0,P|228:264|240:252,1,179.999995231628
384,112,12821,2,0,P|268:124|328:188,1,179.999995231628
68,88,13283,2,0,L|200:152,2,89.9999976158142
444,44,13744,2,0,L|400:128,2,89.9999976158142
456,328,14206,2,0,L|352:256,2,89.9999976158142
76,144,14667,2,0,L|172:204,2,89.9999976158142
436,76,15129,2,0,L|372:152,2,89.9999976158142
68,184,15591,2,0,L|268:260,1,179.999995231628
40,48,16052,2,0,L|220:152,1,179.999995231628
480,160,16514,2,0,P|424:232|368:140,1,179.999995231628
396,352,16975,2,0,B|304:328|200:288|372:288,1,179.999995231628
8,208,17437,6,0,L|124:192,2,89.9999976158142
288,204,17898,2,0,B|232:276|176:292|184:232,2,89.9999976158142
136,116,18360,2,0,B|240:160|240:200|160:240|136:252,1,179.999995231628
456,112,19052,2,0,B|356:96|320:112|424:264,1,179.999995231629
60,56,19514,1,0,0:0:0:0:
208,64,19744,1,0,0:0:0:0:
128,152,19975,1,0,0:0:0:0:
420,320,20206,2,0,B|276:212|228:200|148:192|88:208|80:260|148:320|296:304|340:240|368:180|300:124|280:84,1,629.9999833107
368,260,21360,1,0,0:0:0:0:
408,260,21591,1,0,0:0:0:0:
248,296,21821,5,0,0:0:0:0:
172,36,22052,1,0,0:0:0:0:
96,160,22283,1,0,0:0:0:0:
72,336,22514,1,0,0:0:0:0:
440,48,22744,1,0,0:0:0:0:
252,192,22975,1,0,0:0:0:0:
452,324,23206,1,0,0:0:0:0:
448,128,23437,1,0,0:0:0:0:
28,96,23667,2,0,L|168:140,2,89.9999976158143
416,60,24129,2,0,L|352:128,2,89.9999976158143
56,312,24591,6,0,L|168:256,2,89.9999976158143
452,328,25052,2,0,L|372:272,2,89.9999976158143
212,188,25398,2,0,L|304:188,2,89.9999976158143
408,188,25975,1,0,0:0:0:0:
100,192,26206,1,0,0:0:0:0:
400,72,26437,1,0,0:0:0:0:
68,344,26667,1,0,0:0:0:0:
68,44,26898,1,0,0:0:0:0:
340,364,27129,1,0,0:0:0:0:
432,152,27360,1,0,0:0:0:0:
48,52,27591,1,0,0:0:0:0:
464,56,27821,5,0,0:0:0:0:
248,288,28052,1,0,0:0:0:0:
476,352,28283,1,0,0:0:0:0:
32,360,28514,1,0,0:0:0:0:
24,192,28744,1,0,0:0:0:0:
256,192,28975,1,0,0:0:0:0:
152,360,29206,1,0,0:0:0:0:
20,348,29437,1,0,0:0:0:0:
152,360,29667,1,0,0:0:0:0:
160,228,29898,5,0,0:0:0:0:
472,32,30129,1,0,0:0:0:0:
44,24,30360,1,0,0:0:0:0:
460,360,30591,1,0,0:0:0:0:
28,360,30821,1,0,0:0:0:0:
264,44,31052,1,0,0:0:0:0:
256,264,31283,1,0,0:0:0:0:
68,192,31514,1,0,0:0:0:0:
412,192,31744,1,0,0:0:0:0:
256,356,31975,1,0,0:0:0:0:
452,44,32206,5,0,0:0:0:0:
20,24,32437,1,0,0:0:0:0:
24,356,32667,1,0,0:0:0:0:
464,368,32898,1,0,0:0:0:0:
24,188,33129,1,0,0:0:0:0:
444,196,33360,1,0,0:0:0:0:
252,188,33591,1,0,0:0:0:0:
256,40,33821,1,0,0:0:0:0:
256,344,34052,1,0,0:0:0:0:
440,96,34283,1,0,0:0:0:0:
100,88,34514,1,0,0:0:0:0:
388,328,34744,1,0,0:0:0:0:
112,276,34975,6,0,B|200:216|216:240|172:336|56:352|16:268|160:128|136:160|128:112|128:88|192:76|256:92|288:112|296:156|308:256,1,539.999985694885
108,84,35898,2,0,B|240:184|140:96,6,89.9999976158143
144,80,36821,1,0,0:0:0:0:
212,176,37052,2,0,B|280:48|312:320|112:124|288:64|472:244,1,359.999990463257
388,76,37744,2,0,B|216:72|412:72,1,179.999995231629
136,120,38206,2,0,B|292:120|336:152|332:208|264:268|88:176|512:132|496:0|356:8|260:4|148:4|168:4,1,539.999985694885
228,104,39360,1,0,0:0:0:0:
96,44,39821,2,0,B|248:88|212:8|32:128|216:192|412:132,1,359.999990463257
400,64,40514,1,0,0:0:0:0:
120,300,40744,6,0,B|332:276|376:232|348:192|288:220|176:224|112:228|160:232,1,359.999990463257
80,88,41667,2,0,B|280:184|244:240|188:80|468:144,1,359.999990463257
432,52,42591,2,0,P|280:128|304:48,1,359.999990463257
64,64,43514,2,0,B|204:100|224:132|240:184|216:244|56:240,1,359.999990463257
288,108,44437,2,0,B|384:104|488:128|444:204|352:288|496:108|496:16,1,359.999990463257
448,180,45360,1,0,0:0:0:0:
104,280,45591,1,0,0:0:0:0:
460,288,46052,1,0,0:0:0:0:
440,104,46283,2,0,B|288:40|136:72|120:164|340:136,1,359.999990463257
248,188,47667,2,0,P|368:152|376:88,1,179.999995231629
108,88,48129,6,0,B|236:92|364:208|412:88|224:56,1,359.999990463257
200,260,49052,2,0,B|408:240|412:188|412:188|240:192|228:196,1,359.999990463257
208,276,49975,2,0,B|424:248|376:220|248:140|184:128|156:164,1,359.999990463257
80,328,50898,1,0,0:0:0:0:
80,48,51821,2,0,B|224:56|96:40|260:20,1,179.999995231629
160,288,52283,2,0,B|284:316|336:212|212:160|332:60|444:248|432:276,1,359.999990463257
48,48,53667,2,0,P|108:88|216:48,1,179.999995231629
456,68,54129,2,0,P|324:40|256:52,1,179.999995231629
48,332,54591,2,0,B|160:240|104:288|12:216,1,179.999995231629
436,24,55052,6,0,B|332:120|408:80|260:8,1,179.999995231629
152,192,55514,2,0,B|252:180|284:176|232:136|208:124|152:100,1,179.999995231629
372,196,55975,2,0,P|408:132|316:136,1,179.999995231629
116,152,56437,2,0,B|276:156|192:104|280:64,1,179.999995231629
436,340,56898,2,0,B|396:248|448:232|468:308|280:348,1,179.999995231629
136,144,57360,2,0,B|248:124|180:88|136:40|296:52,1,179.999995231629
424,48,57821,2,0,B|352:96|352:80|372:144|420:232|500:156,1,179.999995231629
80,152,58283,2,0,B|128:72|160:76|168:100|144:144|140:164|140:200|128:244,1,179.999995231629
264,200,58744,2,0,B|288:100|240:96|200:128|188:224,1,179.999995231629
464,340,59206,6,0,B|376:308|372:332|240:344,1,179.999995231629
116,212,59667,2,0,B|248:156|196:176|104:116,1,179.999995231629
452,96,60129,2,0,B|356:136|376:164|444:184|484:232,1,179.999995231629
80,248,60591,2,0,B|180:200|188:232|212:208|180:192|128:176|96:172,1,179.999995231629
212,188,61167,2,0,B|300:220|384:216|412:244|336:92,1,269.999992847443
48,48,61744,1,0,0:0:0:0:
44,336,61975,1,0,0:0:0:0:
460,340,62206,1,0,0:0:0:0:
448,68,62437,1,0,0:0:0:0:
252,192,62667,1,0,0:0:0:0:
80,72,62898,1,0,0:0:0:0:
416,280,63129,5,0,0:0:0:0:
84,152,63360,2,0,L|280:184,1,179.999995231629
420,56,63821,2,0,L|308:172,2,89.9999976158143
88,108,64283,2,0,L|192:192,2,89.9999976158143
444,72,64744,2,0,L|336:172,2,89.9999976158143
104,224,65206,2,0,L|272:240,2,89.9999976158143
412,232,65667,2,0,L|240:256,1,89.9999976158143
164,168,65898,2,0,L|352:176,1,179.999995231629
384,152,66360,1,0,0:0:0:0:
164,312,66591,2,0,B|88:260|68:160|204:104|324:216|312:328|112:288|72:168|216:196,1,359.999990463257
84,52,67283,1,0,0:0:0:0:
64,348,67514,1,0,0:0:0:0:
460,64,67744,1,0,0:0:0:0:
56,144,67975,1,0,0:0:0:0:
480,240,68206,1,0,0:0:0:0:
64,292,68437,1,0,0:0:0:0:
480,68,68667,1,0,0:0:0:0:
80,68,68898,1,0,0:0:0:0:
380,276,69129,1,0,0:0:0:0:
144,340,69360,1,0,0:0:0:0:
288,124,69591,1,0,0:0:0:0:
72,124,69821,1,0,0:0:0:0:
148,308,70052,1,0,0:0:0:0:
440,328,70283,5,0,0:0:0:0:
304,120,70514,1,0,0:0:0:0:
72,64,70744,1,0,0:0:0:0:
52,284,70975,1,0,0:0:0:0:
340,352,71206,1,0,0:0:0:0:
152,340,71437,1,0,0:0:0:0:
300,220,71667,1,0,0:0:0:0:
148,112,71898,1,0,0:0:0:0:
112,228,72129,5,0,0:0:0:0:
400,148,72360,1,0,0:0:0:0:
276,312,72591,1,0,0:0:0:0:
444,344,72821,1,0,0:0:0:0:
36,32,73052,1,0,0:0:0:0:
64,208,73283,1,0,0:0:0:0:
220,108,73514,1,0,0:0:0:0:
44,44,73744,1,0,0:0:0:0:
220,108,73975,1,0,0:0:0:0:
72,216,74206,1,0,0:0:0:0:
212,108,74437,1,0,0:0:0:0:
472,40,74667,1,0,0:0:0:0:
312,112,74898,1,0,0:0:0:0:
464,176,75129,1,0,0:0:0:0:
464,176,75360,1,0,0:0:0:0:
316,112,75591,1,0,0:0:0:0:
464,48,75821,1,0,0:0:0:0:
256,188,76052,1,0,0:0:0:0:
352,284,76283,1,0,0:0:0:0:
112,304,76514,5,0,0:0:0:0:
100,80,76744,1,0,0:0:0:0:
368,212,76975,1,0,0:0:0:0:
248,340,77206,1,0,0:0:0:0:
424,360,77437,1,0,0:0:0:0:
184,92,77667,1,0,0:0:0:0:
56,208,77898,1,0,0:0:0:0:
152,304,78129,1,0,0:0:0:0:
308,224,78360,1,0,0:0:0:0:
256,56,78591,1,0,0:0:0:0:
116,192,78821,1,0,0:0:0:0:
304,332,79052,1,0,0:0:0:0:
420,144,79283,1,0,0:0:0:0:
32,40,79514,1,0,0:0:0:0:
464,360,79744,1,0,0:0:0:0:
32,372,79975,1,0,0:0:0:0:
480,24,80206,1,0,0:0:0:0:
244,200,80437,1,0,0:0:0:0:
96,84,80667,1,0,0:0:0:0:
344,92,80898,5,0,0:0:0:0:
236,284,81129,1,0,0:0:0:0:
252,240,81360,2,0,B|160:176|252:92|424:148|368:324,1,359.999990463257
12,72,82283,2,0,B|120:120|232:168|200:52|268:40|412:88,1,359.999990463257
120,176,83552,2,0,L|248:180,1,89.9999976158143
440,92,83898,2,0,B|312:212|416:84|480:4,1,179.999995231629
40,64,84360,2,0,B|96:68|188:48|240:80,1,179.999995231629
152,192,84821,2,0,B|248:208|308:160|200:112,1,179.999995231629
420,64,85283,2,0,B|316:96|332:152|468:152,1,179.999995231629
148,120,85744,2,0,B|244:168|256:100|380:76,1,179.999995231629
108,204,86206,2,0,P|240:216|280:156,1,179.999995231629
272,264,86667,6,0,B|204:184|308:172|372:208,1,179.999995231629
128,288,87129,2,0,B|224:268|240:272|232:272|192:268|184:268|168:264|164:264|160:264|160:256|156:240|152:236|144:232|136:224|128:224|124:224,1,179.999995231629
384,168,87591,2,0,B|244:208|212:196|268:168|304:168|316:152|328:144|364:140,1,179.999995231629
96,148,88052,2,0,B|164:76|212:84|228:120|216:144|164:188,1,179.999995231629
120,56,88514,2,0,B|116:308|120:332|152:332|152:332|176:332|200:332|224:328|252:324|296:328|364:328|444:324|444:324|436:308|432:292|432:264|432:224|432:168|424:104|424:44|424:36|328:48|304:48|220:56|148:64|120:52,1,1079.99997138977
312,284,90591,2,0,B|156:228|172:100|288:72|408:80|472:136|480:200|448:240|420:56|484:32|364:16|248:20|132:68,1,719.999980926514
248,192,91744,2,0,B|156:212|152:120|244:84|400:144|396:216|300:264,1,359.999990463257
296,80,92437,2,0,B|52:176|48:248|104:260|120:284|344:388|380:356|392:332|396:276|368:180|276:64|328:60,1,719.999980926514
128,136,93821,2,0,P|272:136|260:180,1,179.999995231629
472,168,94283,2,0,B|368:104|276:104|448:52,1,179.999995231629
148,88,94744,1,0,0:0:0:0:
140,284,95206,1,0,0:0:0:0:
256,200,95667,2,0,B|140:208|128:120|216:92|408:192|392:300,1,359.999990463257
272,148,96360,1,0,0:0:0:0:
168,240,96591,2,0,B|112:140|200:116|316:272|232:60|72:92|64:76|32:168|32:232,1,359.999990463257
132,232,97975,2,0,B|232:156|352:152|452:272|252:288|300:164|432:112|540:204|520:248|488:280|356:336|312:356|248:380|200:380|164:372|92:336,1,719.999980926514
164,176,99129,2,0,B|340:136|360:224|184:116|280:80|472:104,1,359.999990463257
256,184,99821,2,0,B|112:80|408:132|444:280|316:328,1,359.999990463257
176,208,101206,2,0,B|352:148|296:108|268:92,1,179.999995231629
176,60,101667,1,0,0:0:0:0:
196,184,102129,1,0,0:0:0:0:
112,320,102591,5,0,0:0:0:0:
440,320,102821,1,0,0:0:0:0:
436,56,103052,1,0,0:0:0:0:
160,64,103283,1,0,0:0:0:0:
68,256,103514,1,0,0:0:0:0:
392,332,103744,1,0,0:0:0:0:
416,144,103975,1,0,0:0:0:0:
128,132,104206,1,0,0:0:0:0:
160,336,104437,1,0,0:0:0:0:
416,56,104667,1,0,0:0:0:0:
28,36,104898,1,0,0:0:0:0:
444,336,105129,1,0,0:0:0:0:
152,304,105360,2,0,B|88:176|152:136|256:120|360:116|412:232|304:340|240:112|492:208|488:256|484:296|456:328|372:328|308:312|240:124|332:80|376:76|328:64,1,719.999980926514
36,64,106514,1,0,0:0:0:0:
480,340,106975,1,0,0:0:0:0:
452,64,107206,2,0,B|412:200|120:96|216:56|400:48,1,359.999990463257
64,52,108591,2,0,P|228:128|240:136,1,179.999995231629
472,88,109052,2,0,P|344:144|432:332,1,359.999990463257
228,108,109975,1,0,0:0:0:0:
100,296,110206,1,0,0:0:0:0:
400,320,110437,5,0,0:0:0:0:
380,100,110667,1,0,0:0:0:0:
132,80,110898,1,0,0:0:0:0:
156,264,111129,1,0,0:0:0:0:
404,280,111360,1,0,0:0:0:0:
256,88,111591,1,0,0:0:0:0:
24,364,111821,2,0,B|24:172|92:68|180:228|220:360|172:316|184:188|308:128|416:176|436:236|444:280|380:224|504:96|460:268|456:204,1,539.999985694885
248,192,112744,2,0,B|160:152|132:120|104:72|136:36|408:92|444:204|416:312|348:352|212:372|120:344|72:288|40:144|72:68|232:40|384:56|340:124,1,899.999976158143
128,68,114129,2,0,B|244:108|296:216|152:200|232:80|436:128,1,359.999990463257
356,104,115052,2,0,B|136:136|184:48|380:56|440:160|396:224|160:268,1,539.999985694885
96,60,115975,2,0,B|236:120|200:56|288:56,1,179.999995231629
456,48,116437,2,0,P|356:104|232:64,1,179.999995231629
260,344,116898,5,0,0:0:0:0:
88,52,117129,1,0,0:0:0:0:
396,48,117360,1,0,0:0:0:0:
184,272,117821,1,0,0:0:0:0:
260,188,118283,1,0,0:0:0:0:
260,56,118514,1,0,0:0:0:0:
92,328,118744,1,0,0:0:0:0:
436,328,118975,1,0,0:0:0:0:
88,64,119206,1,0,0:0:0:0:
72,56,120129,1,0,0:0:0:0:
448,64,120360,1,0,0:0:0:0:
116,328,120591,1,0,0:0:0:0:
452,332,120821,1,0,0:0:0:0:
264,188,121052,1,0,0:0:0:0:
212,204,121975,2,0,B|0:184|36:76|236:36|556:120|412:256|396:288|316:376|124:344|20:316|-40:256|-48:164|-36:72|8:20|80:12|152:16|256:24|576:132|456:176|328:336,1,1439.99996185303
296,112,125667,5,0,0:0:0:0:
240,112,127514,5,0,0:0:0:0:
116,280,129360,5,0,0:0:0:0:
468,276,131206,1,0,0:0:0:0:
60,64,133052,1,0,0:0:0:0:
336,72,134898,1,0,0:0:0:0:
256,124,136744,1,0,0:0:0:0:
56,340,138591,1,0,0:0:0:0:
448,324,139514,1,0,0:0:0:0:
440,108,140437,1,0,0:0:0:0:
164,116,142283,1,0,0:0:0:0:
352,240,144129,1,0,0:0:0:0:
92,336,145052,1,0,0:0:0:0:
348,160,145975,1,0,0:0:0:0:
96,96,146898,1,0,0:0:0:0:
412,276,147821,5,0,0:0:0:0:
152,272,148744,1,0,0:0:0:0:
420,180,149667,1,0,0:0:0:0:
368,100,150014,1,0,0:0:0:0:
240,64,150360,1,0,0:0:0:0:
120,48,150591,1,0,0:0:0:0:
104,204,150937,1,0,0:0:0:0:
260,308,151167,1,0,0:0:0:0:
400,328,151514,2,0,B|240:276|200:144|280:80|464:132|504:268|328:336|168:316|68:264|64:184|84:96,1,719.999980926514
68,52,158898,6,0,B|260:132|188:72|424:120,1,359.999990463257
48,72,166283,6,0,B|220:188|256:284|184:104|392:88|468:228|416:264|252:312|120:336|96:276|188:148|344:100|416:144,1,719.999980926514
248,60,167437,1,0,0:0:0:0:
104,264,167898,1,0,0:0:0:0:
348,268,168129,2,0,B|160:236|144:144|264:88|376:120|400:216|352:312|76:160|160:64|356:68|412:104|428:184|436:272|400:316|164:304,1,719.999980926514
120,48,169514,1,0,0:0:0:0:
380,72,169744,1,0,0:0:0:0:
124,288,169975,1,0,0:0:0:0:
392,256,170437,1,0,0:0:0:0:
288,68,170898,1,0,0:0:0:0:
92,168,171360,1,0,0:0:0:0:
264,296,171821,1,0,0:0:0:0:
408,192,172052,1,0,0:0:0:0:
244,112,172283,1,0,0:0:0:0:
104,120,172514,1,0,0:0:0:0:
84,288,172744,1,0,0:0:0:0:
304,308,172975,1,0,0:0:0:0:
496,332,173206,1,0,0:0:0:0:
456,100,173437,1,0,0:0:0:0:
456,320,173667,2,0,B|344:316|180:220|272:180|408:84|408:148|400:188|392:212|392:224|396:236|396:236|480:144|468:140|500:196|500:240|504:264|516:296,1,629.9999833107
240,120,174821,1,0,0:0:0:0:
136,260,175283,1,0,0:0:0:0:
408,260,175514,2,0,B|272:236|176:140|340:108|400:260|240:292|144:240|104:160,1,359.999990463257
164,112,176898,2,0,B|256:116|276:224|180:128|380:84|444:168|400:284|216:304,1,359.999990463257
216,168,177821,1,0,0:0:0:0:
144,248,178283,6,0,B|184:120|304:144|344:288|240:264|276:172|364:140|424:200|416:320|336:328,1,359.999990463257
152,140,179206,1,0,0:0:0:0:
416,256,179437,1,0,0:0:0:0:
192,332,179667,1,0,0:0:0:0:
364,240,180129,2,0,B|264:240|196:152|288:100|424:108|488:256|352:364|136:360|80:264|80:152|184:92|172:160,1,539.999985694885
184,196,181052,2,0,B|168:92|328:104|356:232|212:316|248:148|400:96|452:136,1,359.999990463257
300,224,182206,2,0,B|180:204|140:152|136:100|400:164|380:244|480:208,1,359.999990463257
320,256,182845,2,0,B|208:232|140:160|88:84|224:60|344:72|440:172|472:292|440:340|400:352|284:360|164:352|84:328|28:268|8:200|16:168,1,899.999976158143
224,96,184345,1,0,0:0:0:0:
224,216,184576,1,0,0:0:0:0:
120,296,184744,1,0,0:0:0:0:
416,296,185206,5,0,0:0:0:0:
384,96,185667,1,0,0:0:0:0:
128,104,186129,1,0,0:0:0:0:
272,80,186591,1,0,0:0:0:0:
264,164,186821,1,0,0:0:0:0:
264,248,187052,1,0,0:0:0:0:
196,260,187514,1,0,0:0:0:0:
256,64,188437,1,0,0:0:0:0:
96,280,188667,1,0,0:0:0:0:
420,300,188898,1,0,0:0:0:0:
256,80,189360,1,0,0:0:0:0:
8,16,190283,1,0,0:0:0:0:
488,360,190514,1,0,0:0:0:0:
476,28,190744,1,0,0:0:0:0:
16,352,191206,1,0,0:0:0:0:
252,96,192129,1,0,0:0:0:0:
148,264,192360,1,0,0:0:0:0:
384,248,192591,1,0,0:0:0:0:
260,188,192999,1,0,0:0:0:0:
