osu file format v14

[General]
AudioFilename: HQ OVA OP.mp3
AudioLeadIn: 0
PreviewTime: 57855
Countdown: 0
SampleSet: Soft
StackLeniency: 0.7
Mode: 0
LetterboxInBreaks: 0
WidescreenStoryboard: 1

[Editor]
DistanceSpacing: 1.1
BeatDivisor: 4
GridSize: 4
TimelineZoom: 1

[Metadata]
Title:My Heart Iidasenai, Your Heart Tashikametai
TitleUnicode:My Heart言い出せない, Your Heart確かめたい
Artist:GODDESS FAMILY CLUB
ArtistUnicode:GODDESS FAMILY CLUB
Creator:bossandy
Version:Insane
Source:ああっ女神さまっ
Tags:Ah! My Goddess tv size OVA Opening op1 Inoue Kikuko 井上喜久子 Touma Yumi 冬馬由美 Hisakawa Aya 久川綾 I can't confess my heart I wanna confirm your heart Loneight l1106188
BeatmapID:459773
BeatmapSetID:193515

[Difficulty]
HPDrainRate:6
CircleSize:4
OverallDifficulty:7
ApproachRate:8
SliderMultiplier:1.6
SliderTickRate:1

[Events]
//Background and Video events
0,0,"BG.jpg",0,0
Video,242,"video.avi"
//Break Periods
//Storyboard Layer 0 (Background)
//Storyboard Layer 1 (Fail)
//Storyboard Layer 2 (Pass)
//Storyboard Layer 3 (Foreground)
//Storyboard Sound Samples

[TimingPoints]
242,455.44253833308,4,2,3,50,1,0
470,455.44253833308,4,2,1,50,1,0
4113,-100,4,2,1,60,0,0
5935,-100,4,2,3,60,0,0
6846,-100,4,2,3,40,0,0
7301,-100,4,2,3,50,0,0
7757,-100,4,2,1,50,0,1
7870,-100,4,2,1,50,0,0
11400,-100,4,2,1,30,0,0
11514,-100,4,2,1,50,0,0
25974,-100,4,2,1,30,0,0
26088,-100,4,2,1,50,0,0
39638,-100,4,2,3,70,0,0
40548,-100,4,2,1,40,0,1
40662,-100,4,2,1,50,0,0
44192,-100,4,2,1,50,0,1
44306,-100,4,2,1,50,0,0
47836,-100,4,2,1,50,0,1
47949,-100,4,2,1,50,0,0
58766,-100,4,2,1,50,0,1
58880,-100,4,2,1,70,0,1
61727,-100,4,2,2,70,0,1
62182,-100,4,2,1,70,0,1
65370,-100,4,2,2,70,0,1
65826,-100,4,2,3,90,0,1
66053,-100,4,2,1,70,0,1
69014,-100,4,2,2,70,0,1
69469,-100,4,2,1,70,0,1
71519,-100,4,2,1,70,0,0
72657,-100,4,2,2,70,0,0
73113,-100,4,2,3,90,0,0
73340,-100,4,2,1,70,0,1
76301,-100,4,2,2,70,0,1
76756,-100,4,2,1,70,0,1
79944,-100,4,2,2,70,0,1
80400,-100,4,2,3,70,0,1
80627,-100,4,2,1,70,0,1
83588,-100,4,2,2,70,0,1
84043,-100,4,2,1,70,0,1
85182,-100,4,2,3,70,0,1
85637,-100,4,2,1,70,0,1
85865,-100,4,2,3,70,0,1
85979,-100,4,2,1,70,0,0
86093,-100,4,2,1,70,0,1
86207,-100,4,2,1,70,0,0
88142,-100,4,2,3,90,0,0
88598,-100,4,2,1,60,0,0
88825,-100,4,2,1,55,0,0
89281,-100,4,2,1,50,0,0
89736,-100,4,2,1,45,0,0
90192,-100,4,2,1,40,0,0
90647,-100,4,2,1,35,0,0
91103,-100,4,2,1,30,0,0
91558,-100,4,2,1,25,0,0

[Colours]
Combo1 : 245,84,108
Combo2 : 255,255,85
Combo3 : 96,168,255

[HitObjects]
384,92,242,5,2,0:0:0:0:
384,92,355,1,2,0:0:0:0:
384,92,469,1,4,3:2:0:0:
304,192,925,1,2,0:0:0:0:
256,312,1380,1,2,0:0:0:0:
208,192,1836,1,2,0:0:0:0:
128,92,2291,6,0,B|80:100|72:144|72:144|72:224,1,160,4|2,0:0|0:0,0:0:0:0:
384,92,3202,2,0,B|432:100|440:144|440:144|440:224,1,160,2|2,0:0|0:0,0:0:0:0:
320,344,4113,6,0,L|336:384,2,40,2|2|2,0:0|0:0|0:0,0:0:0:0:
388,296,4568,2,0,L|324:244,1,80,8|0,0:0|0:0,0:0:0:0:
164,264,5024,2,0,P|204:271|260:268,1,80,0|2,0:0|0:0,0:0:0:0:
124,192,5479,1,8,0:0:0:0:
104,320,5707,1,0,0:0:0:0:
56,144,5935,5,2,0:0:0:0:
56,144,6049,1,2,0:0:0:0:
56,144,6163,1,2,0:0:0:0:
188,340,6390,1,2,0:0:0:0:
188,340,6504,1,2,0:0:0:0:
188,340,6618,1,2,0:0:0:0:
416,272,6846,5,2,0:0:0:0:
424,244,6960,1,2,0:0:0:0:
416,216,7073,1,2,0:0:0:0:
424,188,7187,1,2,0:0:0:0:
416,160,7301,1,2,0:2:0:0:
424,132,7415,1,2,0:2:0:0:
416,104,7529,1,2,0:2:0:0:
424,76,7643,1,2,0:2:0:0:
416,48,7757,1,6,0:0:0:0:
56,56,8212,6,0,P|81:97|140:140,1,80,8|0,0:0|0:0,0:0:0:0:
252,64,8667,2,0,P|203:65|137:94,1,80,2|0,0:0|0:0,0:0:0:0:
144,224,9123,2,0,P|167:181|174:109,1,80,8|0,0:0|0:0,0:0:0:0:
64,240,9578,6,0,P|108:300|196:284,1,160,2|8,0:0|0:0,0:0:0:0:
244,228,10262,1,0,0:0:0:0:
328,260,10489,1,2,0:0:0:0:
376,384,10717,1,0,0:0:0:0:
476,296,10945,1,8,0:0:0:0:
428,172,11172,1,8,0:0:0:0:
428,172,11286,1,8,0:0:0:0:
428,172,11400,6,0,P|344:128|328:68,1,160,4|8,2:1|0:0,0:0:0:0:
404,28,12083,1,0,0:0:0:0:
248,112,12311,2,0,P|206:107|164:96,1,80,2|0,0:0|0:0,0:0:0:0:
96,52,12766,1,8,0:0:0:0:
124,212,12994,1,0,0:0:0:0:
124,212,13108,1,0,0:0:0:0:
124,212,13222,6,0,P|165:202|208:200,1,80,2|0,0:0|0:0,0:0:0:0:
272,252,13677,1,8,0:0:0:0:
360,232,13905,1,0,0:0:0:0:
400,152,14133,2,0,P|408:108|438:75,1,80,2|0,0:0|0:0,0:0:0:0:
504,232,14588,2,0,P|495:275|465:308,1,80,8|0,0:0|0:0,0:0:0:0:
276,296,15044,6,0,B|360:300|332:232|416:236,2,160,2|8|2,0:0|0:0|0:0,0:0:0:0:
200,252,16182,1,0,0:0:0:0:
196,340,16410,1,8,0:0:0:0:
280,212,16638,1,0,0:0:0:0:
280,212,16752,1,0,0:0:0:0:
280,212,16865,6,0,P|269:135|203:95,1,160,2|8,0:0|0:0,0:0:0:0:
196,184,17549,1,0,0:0:0:0:
188,272,17776,2,0,L|204:368,1,80,2|0,0:0|0:0,0:0:0:0:
108,216,18232,2,0,L|92:312,1,80,8|0,0:0|0:0,0:0:0:0:
36,136,18687,6,0,P|80:72|168:48,2,160,2|8|2,0:0|0:0|0:0,0:0:0:0:
72,216,19826,2,0,L|57:294,2,80,0|8|0,0:0|0:0|0:0,0:0:0:0:
164,184,20509,6,0,L|135:341,1,160,2|8,0:0|0:0,0:0:0:0:
228,308,21192,1,0,0:0:0:0:
319,277,21420,2,0,L|348:120,1,160,2|8,0:0|0:0,0:0:0:0:
440,88,22103,1,0,0:0:0:0:
348,120,22331,6,0,P|260:108|224:32,2,160,2|8|2,0:0|0:0|0:0,0:0:0:0:
440,88,23469,1,0,0:0:0:0:
372,32,23697,1,8,0:0:0:0:
424,176,23925,1,0,0:0:0:0:
424,176,24039,1,0,0:0:0:0:
424,176,24153,5,2,0:0:0:0:
504,212,24380,1,0,0:0:0:0:
440,88,24608,1,8,0:0:0:0:
336,180,24836,1,0,0:0:0:0:
396,304,25063,2,0,P|428:320|472:320,1,80,2|0,0:0|0:0,0:0:0:0:
336,180,25519,1,8,0:0:0:0:
256,288,25747,1,8,0:0:0:0:
256,288,25860,1,8,0:0:0:0:
256,288,25974,6,0,P|168:296|104:240,1,160,4|8,2:1|0:0,0:0:0:0:
80,172,26657,1,0,0:0:0:0:
96,84,26885,2,0,P|52:60|20:56,2,80,2|0|8,0:0|0:0|0:0,0:0:0:0:
80,172,27568,1,0,0:0:0:0:
80,172,27682,1,0,0:0:0:0:
80,172,27796,6,0,P|88:244|172:296,1,160,2|8,0:0|0:0,0:0:0:0:
228,244,28479,1,0,0:0:0:0:
228,244,28593,1,0,0:0:0:0:
228,244,28707,1,2,0:0:0:0:
308,352,28935,1,0,0:0:0:0:
428,300,29162,1,8,0:0:0:0:
412,168,29390,1,0,0:0:0:0:
288,124,29618,6,0,P|196:112|140:52,2,160,2|8|2,0:0|0:0|0:0,0:0:0:0:
352,64,30756,2,0,L|432:52,1,80,0|8,0:0|0:0,0:0:0:0:
240,232,31212,1,0,0:0:0:0:
240,232,31326,1,0,0:0:0:0:
240,232,31440,6,0,L|64:200,1,160,2|8,0:0|0:0,0:0:0:0:
28,136,32123,1,0,0:0:0:0:
100,292,32350,2,0,P|84:335|56:364,1,80,2|0,0:0|0:0,0:0:0:0:
164,216,32806,2,0,P|190:253|197:293,1,80,8|0,0:0|0:0,0:0:0:0:
120,116,33261,6,0,P|174:67|264:76,1,160,2|8,0:0|0:0,0:0:0:0:
308,144,33945,1,0,0:0:0:0:
360,216,34172,2,0,P|437:222|488:160,1,160,2|8,0:0|0:0,0:0:0:0:
460,80,34855,1,0,0:0:0:0:
404,148,35083,6,0,L|484:324,1,160,2|8,0:0|0:0,0:0:0:0:
416,364,35766,1,0,0:0:0:0:
352,304,35994,2,0,P|244:272|192:312,1,160,2|8,0:0|0:0,0:0:0:0:
136,340,36677,1,0,0:0:0:0:
60,292,36905,6,0,P|38:255|32:208,1,80,2|0,0:0|0:0,0:0:0:0:
60,136,37360,1,8,0:0:0:0:
128,192,37588,1,0,0:0:0:0:
152,108,37816,2,0,P|185:86|236:80,1,80,2|0,0:0|0:0,0:0:0:0:
372,104,38271,2,0,P|338:125|288:132,1,80,8|0,0:0|0:0,0:0:0:0:
392,28,38727,6,0,P|452:108|432:156,1,160,2|8,0:0|0:0,0:0:0:0:
372,104,39410,1,0,0:0:0:0:
428,240,39638,1,2,0:0:0:0:
428,240,39751,1,2,0:0:0:0:
428,240,39865,1,2,0:0:0:0:
340,340,40093,1,2,0:0:0:0:
340,340,40207,1,2,0:0:0:0:
340,340,40321,1,2,0:0:0:0:
208,336,40548,6,0,B|172:332|144:352|144:352|124:336|124:336|92:356|58:341,1,160,4|8,2:1|0:0,0:0:0:0:
84,256,41232,1,0,0:0:0:0:
104,172,41459,6,0,L|88:72,1,80,2|2,0:0|0:0,0:0:0:0:
176,64,41915,2,0,L|192:164,1,80,8|0,0:0|0:0,0:0:0:0:
92,188,42370,6,0,L|76:88,1,80,2|0,0:0|0:0,0:0:0:0:
164,80,42826,2,0,L|180:180,1,80,8|0,0:0|0:0,0:0:0:0:
80,204,43281,6,0,L|64:104,1,80,2|2,0:0|0:0,0:0:0:0:
152,96,43737,2,0,L|168:196,1,80,8|0,0:0|0:0,0:0:0:0:
188,348,44192,6,0,B|223:361|223:361|264:352|264:352|304:361|304:361|340:348,1,160,6|8,0:0|0:0,0:0:0:0:
372,264,44875,1,0,0:0:0:0:
456,240,45103,6,0,P|484:188|476:140,1,80,2|2,0:0|0:0,0:0:0:0:
420,108,45558,2,0,P|392:160|400:208,1,80,8|0,0:0|0:0,0:0:0:0:
464,256,46014,6,0,P|492:204|484:156,1,80,2|0,0:0|0:0,0:0:0:0:
428,124,46469,2,0,P|400:176|408:224,1,80,8|0,0:0|0:0,0:0:0:0:
472,272,46925,6,0,P|500:220|492:172,1,80,2|2,0:0|0:0,0:0:0:0:
436,140,47380,2,0,P|408:192|416:240,1,80,8|0,0:0|0:0,0:0:0:0:
508,96,47836,6,0,P|440:56|364:96,1,160,6|8,0:0|0:0,0:0:0:0:
308,148,48519,1,0,0:0:0:0:
224,120,48746,6,0,B|184:104|184:104|144:108,1,80,2|2,0:0|0:0,0:0:0:0:
92,176,49202,2,0,B|132:192|132:192|172:188,1,80,8|0,0:0|0:0,0:0:0:0:
240,104,49657,6,0,B|200:88|200:88|160:92,1,80,2|0,0:0|0:0,0:0:0:0:
108,160,50113,2,0,B|148:176|148:176|188:172,1,80,8|0,0:0|0:0,0:0:0:0:
264,88,50568,6,0,B|224:72|224:72|184:76,1,80,2|2,0:0|0:0,0:0:0:0:
132,144,51024,2,0,B|172:160|172:160|212:156,1,80,8|0,0:0|0:0,0:0:0:0:
416,68,51479,6,0,P|323:80|296:140,1,160,4|8,0:1|0:0,0:0:0:0:
340,212,52162,1,0,0:0:0:0:
456,276,52390,1,2,0:0:0:0:
456,276,52504,1,0,0:0:0:0:
456,276,52618,1,0,0:0:0:0:
455,143,52845,1,8,0:0:0:0:
340,212,53073,1,0,0:0:0:0:
224,276,53301,6,0,P|120:264|92:220,1,160,2|8,0:0|0:0,0:0:0:0:
136,148,53984,1,0,0:0:0:0:
116,16,54212,1,2,0:0:0:0:
116,16,54326,1,0,0:0:0:0:
116,16,54439,1,0,0:0:0:0:
12,100,54667,1,8,0:0:0:0:
136,148,54895,1,0,0:0:0:0:
240,64,55123,6,0,P|308:28|388:36,1,160,6|8,0:0|0:0,0:0:0:0:
448,104,55806,1,0,0:0:0:0:
216,140,56033,2,0,P|148:104|68:112,1,160,6|8,0:0|0:0,0:0:0:0:
16,184,56717,1,0,0:0:0:0:
264,208,56944,6,0,P|305:204|352:184,1,80,6|0,0:0|0:0,0:0:0:0:
460,104,57400,2,0,P|418:107|372:128,1,80,12|0,0:0|0:0,0:0:0:0:
264,208,57855,1,6,0:0:0:0:
288,292,58083,1,4,0:0:0:0:
156,216,58311,1,8,0:0:0:0:
136,344,58538,1,0,0:0:0:0:
52,196,58766,6,0,P|48:112|112:44,1,160,4|8,2:1|0:0,0:0:0:0:
172,88,59449,1,0,0:0:0:0:
256,120,59677,2,0,P|300:124|336:104,1,80,2|0,0:0|0:0,0:0:0:0:
464,36,60132,2,0,P|420:32|384:52,1,80,8|0,0:0|0:0,0:0:0:0:
440,116,60474,1,0,0:0:0:0:
440,116,60588,6,0,P|460:176|456:284,1,160,2|8,0:0|0:0,0:0:0:0:
384,316,61271,1,0,0:0:0:0:
334,242,61499,5,2,0:0:0:0:
169,285,61727,1,6,0:0:0:0:
273,343,61954,1,12,0:0:0:0:
230,184,62182,1,0,0:0:0:0:
68,204,62410,6,0,P|16:120|40:68,1,160,2|8,0:0|0:0,0:0:0:0:
104,128,63093,1,0,0:0:0:0:
148,204,63321,2,0,P|208:268|296:236,1,160,2|8,0:0|0:0,0:0:0:0:
336,200,64004,1,0,0:0:0:0:
372,120,64231,6,0,L|352:32,1,80,2|0,0:0|0:0,0:0:0:0:
424,200,64687,2,0,L|406:278,1,80,8|0,0:0|0:0,0:0:0:0:
406,278,65028,1,0,0:0:0:0:
406,278,65142,5,2,0:0:0:0:
284,328,65370,1,6,0:0:0:0:
404,372,65598,1,12,0:0:0:0:
284,232,65826,1,2,0:0:0:0:
284,232,65939,1,2,0:0:0:0:
284,232,66053,6,0,P|238:219|204:220,1,80,6|0,0:0|0:0,0:0:0:0:
40,300,66509,2,0,P|85:312|120:312,1,80,8|0,0:0|0:0,0:0:0:0:
336,172,66964,2,0,B|288:144|232:136|172:148,1,160,2|8,0:0|0:0,0:0:0:0:
284,232,67647,1,0,0:0:0:0:
284,232,67761,1,0,0:0:0:0:
284,232,67875,6,0,P|380:236|412:160,1,160,2|8,0:0|0:0,0:0:0:0:
396,104,68558,1,0,0:0:0:0:
480,140,68786,5,2,0:0:0:0:
308,72,69014,1,6,0:0:0:0:
428,20,69241,1,12,0:0:0:0:
360,192,69469,1,0,0:0:0:0:
284,232,69697,6,0,P|274:282|284:328,1,80,2|0,0:0|0:0,0:0:0:0:
360,356,70152,2,0,P|369:305|360:260,1,80,8|0,0:0|0:0,0:0:0:0:
212,192,70608,2,0,P|192:296|216:376,1,160,2|8,0:0|0:0,0:0:0:0:
284,232,71291,1,0,0:0:0:0:
336,152,71519,6,0,L|416:132,1,80,2|0,0:0|0:0,0:0:0:0:
284,84,71974,2,0,L|204:104,1,80,8|0,0:0|0:0,0:0:0:0:
72,232,72429,1,2,0:0:0:0:
20,88,72657,1,6,0:0:0:0:
168,36,72885,1,12,0:0:0:0:
220,180,73113,1,2,0:0:0:0:
220,180,73226,1,2,0:0:0:0:
220,180,73340,6,0,P|288:204|344:136,1,160,6|8,0:0|0:0,0:0:0:0:
332,60,74023,1,0,0:0:0:0:
268,124,74251,2,0,B|300:152|340:148|340:148|386:140|420:164,1,160,2|8,0:0|0:0,0:0:0:0:
480,320,74934,1,0,0:0:0:0:
480,320,75048,1,0,0:0:0:0:
480,320,75162,6,0,P|376:264|364:208,1,160,2|8,0:0|0:0,0:0:0:0:
418,162,75845,1,0,0:0:0:0:
472,92,76073,5,2,0:0:0:0:
332,156,76301,1,6,0:0:0:0:
472,224,76528,1,12,0:0:0:0:
372,64,76756,1,0,0:0:0:0:
224,144,76984,6,0,P|160:104|144:12,1,160,2|8,0:0|0:0,0:0:0:0:
244,40,77667,1,0,0:0:0:0:
100,152,77895,2,0,P|60:212|120:308,1,160,2|8,0:0|0:0,0:0:0:0:
164,336,78578,1,0,0:0:0:0:
220,268,78806,6,0,P|260:248|300:248,1,80,2|0,0:0|0:0,0:0:0:0:
508,340,79261,2,0,L|428:336,1,80,8|0,0:0|0:0,0:0:0:0:
340,328,79717,5,2,0:0:0:0:
460,248,79944,1,4,0:0:0:0:
288,164,80172,1,12,0:0:0:0:
480,120,80400,1,2,0:0:0:0:
480,120,80514,1,2,0:0:0:0:
480,120,80627,6,0,P|404:132|336:80,1,160,6|8,0:0|0:0,0:0:0:0:
276,24,81311,1,0,0:0:0:0:
192,144,81538,2,0,P|128:98|56:120,1,160,2|8,0:0|0:0,0:0:0:0:
116,336,82221,1,0,0:0:0:0:
116,336,82335,1,0,0:0:0:0:
116,336,82449,6,0,B|97:297|111:260|111:260|131:217|116:178,1,160,2|8,0:0|0:0,0:0:0:0:
260,100,83132,1,0,0:0:0:0:
324,168,83360,1,2,0:0:0:0:
384,96,83588,1,4,0:0:0:0:
328,258,83815,2,0,P|341:294|373:318,1,80,12|0,0:0|0:0,0:0:0:0:
416,240,84271,6,0,P|440:210|445:171,1,80,2|0,0:0|0:0,0:0:0:0:
356,176,84726,2,0,P|318:169|281:184,1,80,8|0,0:0|0:0,0:0:0:0:
373,318,85182,1,2,0:0:0:0:
445,170,85410,1,2,0:0:0:0:
445,170,85523,1,2,0:0:0:0:
445,170,85637,1,8,0:0:0:0:
281,185,85865,1,2,0:0:0:0:
220,248,86093,6,0,P|178:264|136:264,2,80,6|0|2,0:0|0:0|0:0,0:0:0:0:
348,128,87004,2,0,P|390:112|432:112,2,80,2|0|2,0:0|0:0|0:0,0:0:0:0:
348,128,87914,5,4,0:0:0:0:
255,200,88142,1,2,0:0:0:0:
172,72,88370,1,2,0:0:0:0:
92,264,88598,1,4,0:0:0:0:
256,192,88711,12,0,91558,0:0:0:0:
