osu file format v14

[General]
AudioFilename: HQ OVA OP.mp3
AudioLeadIn: 0
PreviewTime: 57855
Countdown: 0
SampleSet: Soft
StackLeniency: 0.7
Mode: 0
LetterboxInBreaks: 0
WidescreenStoryboard: 0

[Editor]
DistanceSpacing: 1.1
BeatDivisor: 4
GridSize: 4
TimelineZoom: 1

[Metadata]
Title:My Heart Iidasenai, Your Heart Tashikametai
TitleUnicode:My Heart言い出せない, Your Heart確かめたい
Artist:GODDESS FAMILY CLUB
ArtistUnicode:GODDESS FAMILY CLUB
Creator:bossandy
Version:Hard
Source:ああっ女神さまっ
Tags:Ah! My Goddess tv size OVA Opening op1 Inoue Kikuko 井上喜久子 Touma Yumi 冬馬由美 Hisakawa Aya 久川綾 I can't confess my heart I wanna confirm your heart Loneight l1106188
BeatmapID:480897
BeatmapSetID:193515

[Difficulty]
HPDrainRate:5
CircleSize:4
OverallDifficulty:5
ApproachRate:6
SliderMultiplier:1.4
SliderTickRate:1

[Events]
//Background and Video events
0,0,"BG.jpg",0,0
Video,242,"video.avi"
//Break Periods
//Storyboard Layer 0 (Background)
//Storyboard Layer 1 (Fail)
//Storyboard Layer 2 (Pass)
//Storyboard Layer 3 (Foreground)
//Storyboard Sound Samples

[TimingPoints]
242,455.44253833308,4,2,3,50,1,0
470,455.44253833308,4,2,1,50,1,0
4113,-100,4,2,1,60,0,0
5935,-100,4,2,3,60,0,0
6846,-100,4,2,3,40,0,0
7301,-100,4,2,3,50,0,0
7757,-100,4,2,1,50,0,1
7870,-100,4,2,1,50,0,0
11400,-100,4,2,1,30,0,0
11514,-100,4,2,1,50,0,0
25974,-100,4,2,1,30,0,0
26088,-100,4,2,1,50,0,0
39638,-100,4,2,3,70,0,0
40548,-100,4,2,1,40,0,1
40662,-100,4,2,1,50,0,0
44192,-100,4,2,1,50,0,1
44306,-100,4,2,1,50,0,0
47836,-100,4,2,1,50,0,1
47949,-100,4,2,1,50,0,0
58766,-100,4,2,1,50,0,1
58880,-100,4,2,1,70,0,1
61727,-100,4,2,2,70,0,1
62182,-100,4,2,1,70,0,1
65370,-100,4,2,2,70,0,1
65826,-100,4,2,3,90,0,1
66053,-100,4,2,1,70,0,1
69014,-100,4,2,2,70,0,1
69469,-100,4,2,1,70,0,1
71519,-100,4,2,1,70,0,0
72657,-100,4,2,2,70,0,0
73113,-100,4,2,3,90,0,0
73340,-100,4,2,1,70,0,1
76301,-100,4,2,2,70,0,1
76756,-100,4,2,1,70,0,1
79944,-100,4,2,2,70,0,1
80400,-100,4,2,3,70,0,1
80627,-100,4,2,1,70,0,1
83588,-100,4,2,2,70,0,1
84043,-100,4,2,1,70,0,1
85182,-100,4,2,3,70,0,1
85637,-100,4,2,1,70,0,1
85865,-100,4,2,3,70,0,1
85979,-100,4,2,1,70,0,0
86093,-100,4,2,1,70,0,1
86207,-100,4,2,1,70,0,0
88142,-100,4,2,3,90,0,0
88598,-100,4,2,1,60,0,0
88825,-100,4,2,1,55,0,0
89281,-100,4,2,1,50,0,0
89736,-100,4,2,1,45,0,0
90192,-100,4,2,1,40,0,0
90647,-100,4,2,1,35,0,0
91103,-100,4,2,1,30,0,0
91558,-100,4,2,1,25,0,0

[Colours]
Combo1 : 245,84,108
Combo2 : 255,255,85
Combo3 : 96,168,255

[HitObjects]
424,120,242,6,0,L|448:92,2,35,2|2|4,0:0|0:0|3:2,0:0:0:0:
316,232,925,1,2,0:0:0:0:
256,92,1380,1,2,0:0:0:0:
196,232,1836,1,2,0:0:0:0:
128,92,2291,6,0,P|64:72|56:128,1,140,4|2,0:0|0:0,0:0:0:0:
123,267,3202,2,0,P|180:291|196:232,1,140,2|2,0:0|0:0,0:0:0:0:
256,88,4113,5,2,0:0:0:0:
328,64,4341,1,2,0:0:0:0:
400,88,4568,2,0,P|448:140|444:212,1,140,8|0,0:0|0:0,0:0:0:0:
424,280,5252,1,2,0:0:0:0:
356,312,5479,1,8,0:0:0:0:
304,168,5935,6,0,L|243:116,1,70,2|2,0:0|0:0,0:0:0:0:
220,192,6390,2,0,L|142:177,1,70,2|2,0:0|0:0,0:0:0:0:
164,256,6846,2,0,L|89:281,1,70,2|2,0:0|0:0,0:0:0:0:
60,292,7187,1,2,0:0:0:0:
24,304,7301,2,0,L|19:262,3,35,2|2|2|2,0:2|0:2|0:2|0:2,0:0:0:0:
16,232,7757,5,6,0:0:0:0:
48,80,8212,1,8,0:0:0:0:
188,44,8667,2,0,P|244:68|344:60,2,140,2|8|2,0:0|0:0|0:0,0:0:0:0:
116,20,9806,6,0,B|96:20|80:16|80:16|64:20|44:20,2,70,0|8|0,0:0|0:0|0:0,0:0:0:0:
132,96,10489,2,0,P|200:156|268:172,1,140,2|8,0:0|0:0,0:0:0:0:
340,104,11172,1,8,0:0:0:0:
340,104,11286,1,8,0:0:0:0:
340,104,11400,6,0,B|404:48|476:60,2,140,4|8|2,2:1|0:0|0:0,0:0:0:0:
444,216,12766,1,8,0:0:0:0:
416,288,12994,2,0,L|392:316,1,35,0|0,0:0|0:0,0:0:0:0:
356,300,13222,6,0,P|280:292|200:316,1,140,2|8,0:0|0:0,0:0:0:0:
152,344,13905,1,0,0:0:0:0:
116,276,14133,2,0,B|101:237|119:209|119:209|137:180|123:142,1,140,2|8,0:0|0:0,0:0:0:0:
236,36,15044,6,0,B|197:50|169:32|169:32|140:14|102:28,2,140,2|8|2,0:0|0:0|0:0,0:0:0:0:
328,160,16410,1,8,0:0:0:0:
385,108,16638,2,0,L|415:81,1,35
444,64,16865,6,0,P|464:136|444:196,1,140,2|8,0:0|0:0,0:0:0:0:
372,224,17549,1,0,0:0:0:0:
328,160,17776,2,0,L|196:115,1,140,2|8,0:0|0:0,0:0:0:0:
72,204,18687,5,2,0:0:0:0:
208,279,19143,1,8,0:0:0:0:
56,299,19598,1,2,0:0:0:0:
167,190,20054,1,8,0:0:0:0:
138,343,20509,6,0,P|208:372|272:348,1,140,2|8,0:0|0:0,0:0:0:0:
292,280,21192,1,0,0:0:0:0:
312,204,21420,2,0,P|377:185|440:213,1,140,2|8,0:0|0:0,0:0:0:0:
452,288,22103,1,0,0:0:0:0:
512,240,22331,5,2,0:0:0:0:
368,296,22786,2,0,P|303:315|240:287,1,140,8|2,0:0|0:0,0:0:0:0:
176,144,23697,1,8,0:0:0:0:
96,140,23925,1,0,0:0:0:0:
96,140,24039,1,0,0:0:0:0:
96,140,24153,6,0,L|56:68,1,70,2|0,0:0|0:0,0:0:0:0:
176,144,24608,2,0,L|258:145,1,70,8|0,0:0|0:0,0:0:0:0:
132,208,25063,2,0,L|89:278,2,70,2|0|8,0:0|0:0|0:0,0:0:0:0:
204,232,25747,2,0,L|244:248,1,35,8|8,0:0|0:0,0:0:0:0:
272,256,25974,6,0,P|344:244|412:256,2,140,4|8|2,2:1|0:0|0:0,0:0:0:0:
404,340,27341,1,8,0:0:0:0:
476,308,27568,1,0,0:0:0:0:
476,308,27682,1,0,0:0:0:0:
476,308,27796,6,0,P|496:240|472:160,1,140,2|8,0:0|0:0,0:0:0:0:
404,156,28479,1,0,0:0:0:0:
328,140,28707,2,0,P|308:72|332:-8,1,140,2|8,0:0|0:0,0:0:0:0:
448,96,29618,6,0,P|477:160|440:220,2,140,2|8|2,0:0|0:0|0:0,0:0:0:0:
340,208,30984,1,8,0:0:0:0:
268,180,31212,1,0,0:0:0:0:
268,180,31326,1,0,0:0:0:0:
268,180,31440,6,0,B|212:160|212:160|200:120|156:108,1,140,2|8,0:0|0:0,0:0:0:0:
136,184,32123,1,0,0:0:0:0:
84,128,32350,2,0,P|68:76|136:8,1,140,2|8,0:0|0:0,0:0:0:0:
136,184,33261,6,0,P|142:237|63:293,1,140,2|8,0:0|0:0,0:0:0:0:
228,232,34172,2,0,P|271:199|358:239,1,140,2|8,0:0|0:0,0:0:0:0:
272,360,35083,6,0,L|436:320,1,140,2|8,0:0|0:0,0:0:0:0:
433,253,35766,1,0,0:0:0:0:
376,200,35994,2,0,L|212:240,1,140,2|8,0:0|0:0,0:0:0:0:
164,212,36677,1,0,0:0:0:0:
96,176,36905,6,0,P|66:105|76:12,2,140,2|8|2,0:0|0:0|0:0,0:0:0:0:
164,212,38044,2,0,P|140:240|104:252,2,70,0|8|0,0:0|0:0|0:0,0:0:0:0:
160,136,38727,5,2,0:0:0:0:
296,64,39182,1,8,0:0:0:0:
444,100,39638,2,0,L|500:124,2,35,2|2|2,0:0|0:0|0:0,0:0:0:0:
412,168,40093,2,0,L|460:184,2,35,2|2|2,0:0|0:0|0:0,0:0:0:0:
376,236,40548,5,4,2:1:0:0:
248,252,41004,1,8,0:0:0:0:
104,200,41459,2,0,L|20:208,2,70,2|2|8,0:0|0:0|0:0,0:0:0:0:
248,252,42370,5,2,0:0:0:0:
164,120,42826,1,8,0:0:0:0:
156,272,43281,2,0,L|120:332,2,70,2|2|8,0:0|0:0|0:0,0:0:0:0:
304,320,44192,6,0,B|320:324|320:324|340:320|340:320|356:324|356:324|372:320|372:320|388:324|388:324|404:320|404:320|424:324|424:324|440:320,1,140,6|8,0:0|0:0,0:0:0:0:
492,176,45103,1,2,0:0:0:0:
424,208,45331,1,2,0:0:0:0:
348,224,45558,6,0,P|256:220|208:180,2,140,8|2|8,0:0|0:0|0:0,0:0:0:0:
400,80,46925,2,0,L|424:8,2,70,2|2|8,0:0|0:0|0:0,0:0:0:0:
368,152,47608,1,0,0:0:0:0:
324,88,47836,6,0,P|248:40|184:40,1,140,6|8,0:0|0:0,0:0:0:0:
100,152,48746,1,2,0:0:0:0:
64,220,48974,1,2,0:0:0:0:
140,224,49202,2,0,P|161:257|172:292,1,70,8|0,0:0|0:0,0:0:0:0:
220,344,49657,6,0,P|308:348|376:320,1,140,2|8,0:0|0:0,0:0:0:0:
412,276,50340,1,0,0:0:0:0:
391,199,50568,2,0,P|392:165|406:133,1,70,2|2,0:0|0:0,0:0:0:0:
464,80,51024,1,8,0:0:0:0:
272,108,51479,6,0,B|200:116|200:116|136:93,1,140,4|8,0:1|0:0,0:0:0:0:
116,19,52162,2,0,P|64:63|68:130,1,140,0|0,0:0|0:0,0:0:0:0:
132,176,52845,1,8,0:0:0:0:
284,196,53301,6,0,B|356:188|356:188|419:210,1,140,2|8,0:0|0:0,0:0:0:0:
439,285,53984,2,0,P|490:241|486:174,1,140,0|0,0:0|0:0,0:0:0:0:
424,128,54667,1,8,0:0:0:0:
280,76,55123,6,0,L|296:228,1,140,6|8,0:0|0:0,0:0:0:0:
196,96,56033,2,0,L|212:248,1,140,6|8,0:0|0:0,0:0:0:0:
112,116,56944,6,0,L|128:268,2,140,6|12|6,0:0|0:0|0:0,0:0:0:0:
140,44,58083,1,4,0:0:0:0:
196,96,58311,1,8,0:0:0:0:
224,24,58538,1,0,0:0:0:0:
280,76,58766,6,0,P|347:73|408:32,1,140,4|8,2:1|0:0,0:0:0:0:
468,80,59449,1,0,0:0:0:0:
416,136,59677,2,0,L|436:276,1,140,2|8,0:0|0:0,0:0:0:0:
400,344,60360,1,0,0:0:0:0:
400,344,60474,1,0,0:0:0:0:
400,344,60588,6,0,P|325:319|248:328,1,140,2|8,0:0|0:0,0:0:0:0:
192,348,61271,1,0,0:0:0:0:
172,272,61499,6,0,L|156:200,1,70,2|6,0:0|0:0,0:0:0:0:
96,300,61954,2,0,L|80:372,1,70,12|0,0:0|0:0,0:0:0:0:
76,220,62410,6,0,L|45:83,1,140,2|8,0:0|0:0,0:0:0:0:
100,32,63093,1,0,0:0:0:0:
164,72,63321,2,0,B|201:86|231:72|231:72|261:57|298:72,1,140,2|8,0:0|0:0,0:0:0:0:
264,140,64004,1,0,0:0:0:0:
228,208,64231,6,0,B|265:222|295:208|295:208|325:193|362:208,1,140,2|8,0:0|0:0,0:0:0:0:
328,276,64915,1,0,0:0:0:0:
404,276,65142,6,0,P|436:240|440:208,1,70,2|6,0:0|0:0,0:0:0:0:
376,92,65598,2,0,P|408:128|412:160,1,70,12|2,0:0|0:0,0:0:0:0:
440,340,66053,6,0,P|491:293|512:227,1,140,6|8,0:0|0:0,0:0:0:0:
504,152,66736,1,0,0:0:0:0:
468,84,66964,2,0,B|400:104|400:104|332:96,1,140,2|8,0:0|0:0,0:0:0:0:
256,88,67647,1,0,0:0:0:0:
256,88,67761,1,0,0:0:0:0:
256,88,67875,6,0,B|188:80|188:80|120:100,1,140,2|8,0:0|0:0,0:0:0:0:
48,128,68558,1,0,0:0:0:0:
108,180,68786,6,0,B|112:216|112:216|96:248,1,70,2|6,0:0|0:0,0:0:0:0:
40,352,69241,2,0,B|44:316|44:316|28:284,1,70,12|0,0:0|0:0,0:0:0:0:
184,160,69697,6,0,B|192:232|192:232|161:292,1,140,2|8,0:0|0:0,0:0:0:0:
120,356,70380,1,0,0:0:0:0:
196,360,70608,2,0,P|264:348|304:292,1,140,2|8,0:0|0:0,0:0:0:0:
300,216,71291,1,0,0:0:0:0:
372,248,71519,6,0,B|386:210|372:180|372:180|357:150|372:113,2,140,2|8|2,0:0|0:0|0:0,0:0:0:0:
300,216,72657,1,6,0:0:0:0:
216,152,72885,1,12,0:0:0:0:
200,256,73113,1,2,0:0:0:0:
200,256,73226,1,2,0:0:0:0:
200,256,73340,6,0,P|144:296|64:260,1,140,6|8,0:0|0:0,0:0:0:0:
132,220,74023,1,0,0:0:0:0:
64,184,74251,2,0,P|118:144|184:161,1,140,2|8,0:0|0:0,0:0:0:0:
256,208,74934,1,0,0:0:0:0:
256,208,75048,1,0,0:0:0:0:
255,208,75162,6,0,B|324:233|324:233|392:223,1,140,2|8,0:0|0:0,0:0:0:0:
468,212,75845,1,0,0:0:0:0:
420,148,76073,6,0,B|404:124|404:124|392:104|400:80,1,70,2|6,0:0|0:0,0:0:0:0:
496,28,76528,2,0,B|480:52|480:52|468:72|476:96,1,70,12|0,0:0|0:0,0:0:0:0:
364,200,76984,6,0,B|332:152|332:152|312:112|321:72,1,140,2|8,0:0|0:0,0:0:0:0:
256,32,77667,1,0,0:0:0:0:
192,76,77895,2,0,L|28:84,1,140,2|8,0:0|0:0,0:0:0:0:
36,160,78578,1,0,0:0:0:0:
60,232,78806,6,0,L|199:225,1,140,2|8,0:0|0:0,0:0:0:0:
276,220,79489,1,0,0:0:0:0:
352,216,79717,6,0,B|376:214|376:214|396:225|420:224,1,70,2|4,0:0|0:0,0:0:0:0:
484,292,80172,2,0,B|459:290|459:290|439:301|416:300,1,70,12|2,0:0|0:0,0:0:0:0:
336,140,80627,6,0,B|384:136|384:136|424:158|472:148,1,140,6|8,0:0|0:0,0:0:0:0:
504,76,81311,1,0,0:0:0:0:
452,20,81538,2,0,L|312:32,1,140,2|8,0:0|0:0,0:0:0:0:
260,88,82221,1,0,0:0:0:0:
260,88,82335,1,0,0:0:0:0:
260,88,82449,6,0,B|244:126|259:156|259:156|273:186|259:223,1,140,2|8,0:0|0:0,0:0:0:0:
220,292,83132,1,0,0:0:0:0:
184,224,83360,6,0,B|176:188|176:188|180:152,1,70,2|6,0:0|0:0,0:0:0:0:
160,8,83815,2,0,B|152:43|152:43|156:80,1,70,12|0,0:0|0:0,0:0:0:0:
112,276,84271,6,0,B|96:196|96:196|103:138,1,140,2|8,0:0|0:0,0:0:0:0:
179,155,84954,1,0,0:0:0:0:
256,172,85182,2,0,B|263:114|263:114|247:34,1,140,2|8,0:0|0:0,0:0:0:0:
96,56,86093,5,6,0:0:0:0:
256,320,87004,1,2,0:0:0:0:
416,56,87914,6,0,B|443:48|455:48|483:56,2,70,4|2|2,0:0|0:0|0:0,0:0:0:0:
356,104,88598,1,4,0:0:0:0:
256,192,88711,12,0,91558,0:0:0:0:
