osu file format v14

[General]
AudioFilename: HQ OVA OP.mp3
AudioLeadIn: 0
PreviewTime: 57855
Countdown: 0
SampleSet: Soft
StackLeniency: 0.7
Mode: 0
LetterboxInBreaks: 0
WidescreenStoryboard: 0

[Editor]
DistanceSpacing: 1.1
BeatDivisor: 4
GridSize: 4
TimelineZoom: 1

[Metadata]
Title:My Heart Iidasenai, Your Heart Tashikametai
TitleUnicode:My Heart言い出せない, Your Heart確かめたい
Artist:GODDESS FAMILY CLUB
ArtistUnicode:GODDESS FAMILY CLUB
Creator:bossandy
Version:Easy
Source:ああっ女神さまっ
Tags:Ah! My Goddess tv size OVA Opening op1 Inoue Kikuko 井上喜久子 Touma Yumi 冬馬由美 Hisakawa Aya 久川綾 I can't confess my heart I wanna confirm your heart Loneight l1106188
BeatmapID:1582257
BeatmapSetID:193515

[Difficulty]
HPDrainRate:2
CircleSize:3
OverallDifficulty:2
ApproachRate:3
SliderMultiplier:1
SliderTickRate:1

[Events]
//Background and Video events
0,0,"BG.jpg",0,0
Video,242,"video.avi"
//Break Periods
//Storyboard Layer 0 (Background)
//Storyboard Layer 1 (Fail)
//Storyboard Layer 2 (Pass)
//Storyboard Layer 3 (Foreground)
//Storyboard Sound Samples

[TimingPoints]
242,455.44253833308,4,2,3,50,1,0
470,455.44253833308,4,2,1,50,1,0
925,-100,4,2,2,50,0,0
1380,-100,4,2,1,50,0,0
2747,-100,4,2,2,50,0,0
4113,-100,4,2,1,60,0,0
5935,-100,4,2,3,60,0,0
6846,-100,4,2,3,40,0,0
7301,-100,4,2,3,50,0,0
7757,-100,4,2,1,50,0,1
7870,-100,4,2,1,50,0,0
11400,-100,4,2,1,30,0,0
11514,-100,4,2,1,50,0,0
25974,-100,4,2,1,30,0,0
26088,-100,4,2,1,50,0,0
39638,-100,4,2,3,70,0,0
40548,-100,4,2,1,40,0,1
40662,-100,4,2,1,50,0,0
44192,-100,4,2,1,50,0,1
44306,-100,4,2,1,50,0,0
47836,-100,4,2,1,50,0,1
47949,-100,4,2,1,50,0,0
58766,-100,4,2,1,50,0,1
58880,-100,4,2,1,70,0,1
61727,-100,4,2,2,70,0,1
62182,-100,4,2,1,70,0,1
65370,-100,4,2,2,70,0,1
65826,-100,4,2,3,90,0,1
66053,-100,4,2,1,70,0,1
69014,-100,4,2,2,70,0,1
69469,-100,4,2,1,70,0,1
71519,-100,4,2,1,70,0,0
72657,-100,4,2,2,70,0,0
73113,-100,4,2,3,90,0,0
73340,-100,4,2,1,70,0,1
76301,-100,4,2,2,70,0,1
76756,-100,4,2,1,70,0,1
79944,-100,4,2,2,70,0,1
80400,-100,4,2,3,70,0,1
80627,-100,4,2,1,70,0,1
83588,-100,4,2,2,70,0,1
84043,-100,4,2,1,70,0,1
85182,-100,4,2,3,70,0,1
85637,-100,4,2,1,70,0,1
85865,-100,4,2,3,70,0,1
85979,-100,4,2,1,70,0,0
86093,-100,4,2,1,70,0,1
86207,-100,4,2,1,70,0,0
88142,-100,4,2,3,90,0,0
88598,-100,4,2,1,60,0,0
88825,-100,4,2,1,55,0,0
89281,-100,4,2,1,50,0,0
89736,-100,4,2,1,45,0,0
90192,-100,4,2,1,40,0,0
90647,-100,4,2,1,35,0,0
91103,-100,4,2,1,30,0,0
91558,-100,4,2,1,25,0,0

[Colours]
Combo1 : 245,84,108
Combo2 : 255,255,85
Combo3 : 96,168,255

[HitObjects]
316,288,470,6,0,L|332:80,1,200,4|2,3:2|0:0,0:0:0:0:
256,8,1836,1,2,0:0:0:0:
181,88,2291,2,0,L|197:296,1,200,4|2,0:0|0:0,0:0:0:0:
256,380,3658,1,2,0:0:0:0:
364,356,4113,6,0,P|400:312|408:264,1,100,2|8,0:0|0:0,0:0:0:0:
300,268,5024,2,0,P|309:211|292:166,1,100,0|8,0:0|0:0,0:0:0:0:
200,224,5935,2,0,P|179:170|142:139,1,100,2|2,0:0|0:0,0:0:0:0:
92,236,6846,2,0,P|47:200|0:192,1,100,2|2,0:0|0:2,0:0:0:0:
7,300,7757,6,0,B|53:334|101:332|101:332|149:331|194:365,1,200,6|2,0:0|0:0,0:0:0:0:
284,300,9123,1,8,0:0:0:0:
200,228,9578,2,0,P|156:212|104:212,2,100,2|8|2,0:0|0:0|0:0,0:0:0:0:
284,300,10945,1,8,0:0:0:0:
380,244,11400,6,0,L|392:140,1,100,4|8,2:1|0:0,0:0:0:0:
400,36,12311,2,0,L|200:48,1,200,2|2,0:0|0:0,0:0:0:0:
92,52,13677,1,8,0:0:0:0:
148,148,14133,1,2,0:0:0:0:
40,152,14588,1,8,0:0:0:0:
100,244,15044,6,0,P|152:252|208:236,1,100,2|8,0:0|0:0,0:0:0:0:
276,164,15955,2,0,P|372:142|470:161,1,200,2|2,0:0|0:0,0:0:0:0:
452,268,17321,1,8,0:0:0:0:
404,360,17776,2,0,L|296:372,1,100,2|8,0:0|0:0,0:0:0:0:
232,288,18687,5,2,0:0:0:0:
128,320,19143,1,8,0:0:0:0:
156,212,19598,2,0,P|160:156|140:92,1,100,2|8,0:0|0:0,0:0:0:0:
248,64,20509,2,0,P|269:161|259:260,1,200,2|2,0:0|0:0,0:0:0:0:
228,364,21875,1,8,0:0:0:0:
128,316,22331,6,0,L|20:324,2,100,2|8|2,0:0|0:0|0:0,0:0:0:0:
228,272,23697,1,8,0:0:0:0:
308,196,24153,2,0,P|355:199|400:232,1,100,2|8,0:0|0:0,0:0:0:0:
317,305,25063,2,0,P|269:301|225:269,1,100,2|8,0:0|0:0,0:0:0:0:
308,196,25974,6,0,L|296:96,1,100,4|8,2:1|0:0,0:0:0:0:
384,32,26885,2,0,L|407:230,1,200,2|2,0:0|0:0,0:0:0:0:
420,340,28251,1,8,0:0:0:0:
316,300,28707,1,2,0:0:0:0:
208,328,29162,1,8,0:0:0:0:
116,268,29618,6,0,L|100:164,1,100,2|8,0:0|0:0,0:0:0:0:
84,60,30529,2,0,P|181:79|272:40,1,200,2|2,0:0|0:0,0:0:0:0:
376,8,31895,1,8,0:0:0:0:
476,56,32350,2,0,P|486:104|481:154,1,100,2|8,0:0|0:0,0:0:0:0:
392,220,33261,5,2,0:0:0:0:
288,188,33717,1,8,0:0:0:0:
188,232,34172,2,0,P|183:287|204:352,1,100,2|8,0:0|0:0,0:0:0:0:
96,384,35083,2,0,P|74:286|84:187,1,200,2|2,0:0|0:0,0:0:0:0:
176,128,36449,1,8,0:0:0:0:
268,188,36905,6,0,P|324:180|370:142,2,100,2|8|2,0:0|0:0|0:0,0:0:0:0:
176,128,38271,1,8,0:0:0:0:
75,169,38727,2,0,P|60:224|80:280,1,100,2|8,0:0|0:0,0:0:0:0:
171,223,39638,2,0,P|186:168|166:112,1,100,2|2,0:0|0:0,0:0:0:0:
156,20,40548,6,0,B|210:12|249:43|249:43|288:12|343:20,1,200,4|2,2:1|0:0,0:0:0:0:
320,128,41915,1,8,0:0:0:0:
392,212,42370,2,0,P|392:260|356:320,1,100,2|8,0:0|0:0,0:0:0:0:
261,329,43281,2,0,P|261:281|297:221,1,100,2|8,0:0|0:0,0:0:0:0:
320,128,44192,6,0,P|295:47|230:100,1,200,6|2,0:0|0:0,0:0:0:0:
204,208,45558,1,8,0:0:0:0:
96,192,46014,2,0,P|33:189|-16:220,1,100,2|8,0:0|0:0,0:0:0:0:
60,300,46925,2,0,P|109:305|158:283,1,100,2|8,0:0|0:0,0:0:0:0:
246,214,47836,6,0,B|294:198|294:198|342:210|342:210|390:198|390:198|438:214,1,200,6|2,0:0|0:0,0:0:0:0:
384,312,49202,1,8,0:0:0:0:
276,324,49657,2,0,B|228:328|228:328|176:308,1,100,2|8,0:0|0:0,0:0:0:0:
88,368,50568,2,0,P|72:328|80:264,1,100,2|8,0:0|0:0,0:0:0:0:
0,192,51479,6,0,B|45:161|93:164|93:164|140:169|188:137,1,200,4|2,0:1|0:0,0:0:0:0:
256,52,52845,1,8,0:0:0:0:
323,137,53301,2,0,B|371:169|418:164|418:164|466:161|512:192,1,200,2|2,0:0|0:0,0:0:0:0:
436,272,54667,1,8,0:0:0:0:
350,342,55123,6,0,B|303:334|303:334|256:354|256:354|208:334|208:334|161:342,2,200,6|6|6,0:0|0:0|0:0,0:0:0:0:
324,236,57400,1,12,0:0:0:0:
220,204,57855,1,6,0:0:0:0:
288,120,58311,1,8,0:0:0:0:
256,16,58766,6,0,L|156:32,1,100,4|8,2:1|0:0,0:0:0:0:
48,56,59677,2,0,P|96:144|92:244,1,200,2|2,0:0|0:0,0:0:0:0:
60,348,61043,1,8,0:0:0:0:
164,380,61499,2,0,P|216:368|256:336,1,100,2|12,0:0|0:0,0:0:0:0:
304,244,62410,6,0,L|204:236,1,100,2|8,0:0|0:0,0:0:0:0:
248,136,63321,2,0,L|348:144,1,100,2|8,0:0|0:0,0:0:0:0:
392,44,64231,2,0,L|192:28,1,200,2|2,0:0|0:0,0:0:0:0:
140,124,65598,1,12,0:0:0:0:
184,224,66053,6,0,P|229:244|279:246,1,100,6|8,0:0|0:0,0:0:0:0:
312,352,66964,2,0,P|376:304|368:184,1,200,2|2,0:0|0:0,0:0:0:0:
279,246,68330,1,8,0:0:0:0:
284,132,68786,2,0,L|288:28,1,100,2|12,0:0|0:0,0:0:0:0:
176,32,69697,6,0,L|179:131,1,100,2|8,0:0|0:0,0:0:0:0:
72,140,70608,2,0,L|68:239,1,100,2|8,0:0|0:0,0:0:0:0:
60,348,71519,2,0,B|114:342|148:308|148:308|182:274|239:268,1,200,2|2,0:0|0:0,0:0:0:0:
336,320,72885,1,12,0:0:0:0:
432,268,73340,6,0,L|445:151,1,100,6|8,0:0|0:0,0:0:0:0:
338,201,74251,2,0,L|361:2,1,200,2|2,0:0|0:0,0:0:0:0:
264,52,75618,1,8,0:0:0:0:
164,100,76073,2,0,P|112:104|60:80,1,100,2|12,0:0|0:0,0:0:0:0:
48,196,76984,6,0,L|24:300,1,100,2|8,0:0|0:0,0:0:0:0:
108,368,77895,2,0,L|205:345,1,100,2|8,0:0|0:0,0:0:0:0:
204,236,78806,2,0,L|398:280,1,200,2|2,0:0|0:0,0:0:0:0:
504,316,80172,1,12,0:0:0:0:
480,208,80627,6,0,P|470:158|472:100,1,100,6|8,0:0|0:0,0:0:0:0:
384,44,81538,2,0,P|292:84|192:76,1,200,2|2,0:0|0:0,0:0:0:0:
88,48,82905,1,8,0:0:0:0:
4,120,83360,2,0,P|10:171|44:216,1,100,2|12,0:0|0:0,0:0:0:0:
144,228,84271,6,0,P|200:232|240:264,1,100,2|8,0:0|0:0,0:0:0:0:
296,348,85182,2,0,P|352:344|392:312,1,100,2|8,0:0|0:0,0:0:0:0:
392,208,86093,5,6,0:0:0:0:
256,36,87004,1,2,0:0:0:0:
120,208,87914,2,0,L|136:368,1,150,4|4,0:0|0:0,0:0:0:0:
256,192,88711,12,0,91558,0:0:0:0:
