osu file format v14

[General]
AudioFilename: DRAMAtical Murder re codeOP.mp3
AudioLeadIn: 0
PreviewTime: 93522
Countdown: 0
SampleSet: Soft
StackLeniency: 0.7
Mode: 0
LetterboxInBreaks: 0
WidescreenStoryboard: 0

[Editor]
Bookmarks: 116230
DistanceSpacing: 1.1
BeatDivisor: 4
GridSize: 32
TimelineZoom: 1.8

[Metadata]
Title:RADICAL MAT
TitleUnicode:RADICAL MAT
Artist:GOATBED
ArtistUnicode:GOATBED
Creator:Konei
Version:Insane
Source:DRAMAtical Murder re:code
Tags:yaoi bl nitro chiral plus dmmd visual novel vn opening game japanese boys love
BeatmapID:840377
BeatmapSetID:384606

[Difficulty]
HPDrainRate:7
CircleSize:4
OverallDifficulty:7
ApproachRate:9
SliderMultiplier:1.7
SliderTickRate:2

[Events]
//Background and Video events
0,0,"BG.jpg",0,0
//Break Periods
//Storyboard Layer 0 (Background)
//Storyboard Layer 1 (Fail)
//Storyboard Layer 2 (Pass)
//Storyboard Layer 3 (Foreground)
//Storyboard Layer 4 (Overlay)
//Storyboard Sound Samples

[TimingPoints]
814,416.666666666667,4,2,1,40,1,0
9147,-100,4,2,1,60,0,1
12480,-83.3333333333333,4,2,1,60,0,1
13105,-100,4,2,1,60,0,1
20814,-125,4,2,1,60,0,0
22480,-100,4,2,1,60,0,1
22584,-100,4,2,1,60,0,0
49147,-100,4,2,1,35,0,0
72480,-100,4,2,1,45,0,0
91022,-100,4,2,0,45,0,0
92064,-100,4,2,1,45,0,0
93314,-66.6666666666667,4,2,1,45,0,0
94147,-100,4,2,1,60,0,1
97480,-83.3333333333333,4,2,1,60,0,1
97897,-100,4,2,1,60,0,1
107376,-100,4,2,1,60,0,0
107480,-90.9090909090909,4,2,1,60,0,1
120814,-100,4,2,1,60,0,0
120918,-100,4,2,1,5,0,0

[Colours]
Combo1 : 244,17,11
Combo2 : 20,103,194
Combo3 : 90,41,220
Combo4 : 190,22,111

[HitObjects]
97,113,2480,6,0,L|105:244,1,127.5,2|2,0:1|0:1,0:0:0:0:
107,267,2897,1,0,1:0:0:0:
247,311,3105,2,0,P|288:323|378:228,1,170,2|2,0:1|0:1,0:0:0:0:
282,214,3730,1,0,1:0:0:0:
282,214,4147,6,0,L|288:120,1,85,2|2,0:1|0:1,0:0:0:0:
271,328,4564,1,0,1:0:0:0:
247,311,4668,1,2,0:1:0:0:
145,250,4876,2,0,P|127:303|159:374,1,127.5,2|2,0:1|0:1,0:0:0:0:
292,344,5397,1,0,1:0:0:0:
465,45,5814,6,0,L|461:191,1,127.5,2|2,0:1|0:1,0:0:0:0:
376,172,6230,2,0,L|380:26,1,127.5,0|2,1:0|0:1,0:0:0:0:
360,42,6647,1,2,0:1:0:0:
340,46,6751,1,2,0:1:0:0:
321,50,6855,1,2,0:1:0:0:
303,56,6959,1,2,0:1:0:0:
284,62,7064,6,0,L|200:59,1,85,0|0,1:1|0:0,0:0:0:0:
70,222,7480,2,0,L|154:225,1,85,2|0,0:0|0:0,0:0:0:0:
50,202,7897,6,0,L|134:205,1,85,2|0,0:0|0:0,0:0:0:0:
315,341,8314,2,0,L|231:338,1,85,2|0,0:0|0:0,0:0:0:0:
333,321,8730,6,0,L|249:318,1,85,2|0,0:0|0:0,0:0:0:0:
50,202,9147,6,0,P|97:174|180:204,1,127.5,6|2,1:0|0:1,0:0:0:0:
184,206,9564,1,8,1:0:0:0:
416,203,9772,1,2,0:0:0:0:
416,203,9876,1,0,0:0:0:0:
416,203,9980,2,0,P|464:203|507:187,1,85,2|2,0:1|0:1,0:0:0:0:
301,313,10397,1,8,1:0:0:0:
292,109,10605,1,2,0:1:0:0:
75,97,10814,6,0,B|86:88|86:88|66:149|97:221,1,127.5,2|2,0:1|0:1,0:0:0:0:
98,231,11230,1,8,1:0:0:0:
274,366,11439,1,2,0:0:0:0:
274,366,11543,1,0,0:0:0:0:
274,366,11647,2,0,P|316:371|371:355,1,85,2|2,0:1|0:1,0:0:0:0:
504,184,12064,2,0,P|442:172|386:201,1,127.5,8|2,1:0|1:0,0:0:0:0:
304,300,12480,6,0,P|368:277|381:185,1,152.999995330811,4|0,1:0|0:0,0:0:0:0:
369,165,12897,1,8,1:0:0:0:
213,80,13105,2,0,B|161:95|161:95|93:78|93:78|36:97,1,170,2|2,0:1|0:1,0:0:0:0:
130,178,13730,1,8,1:0:0:0:
228,56,13939,1,0,0:0:0:0:
228,56,14043,1,0,0:0:0:0:
228,56,14147,6,0,L|321:47,1,85,2|2,0:1|0:0,0:0:0:0:
237,190,14564,2,0,L|144:199,1,85,8|2,1:0|0:0,0:0:0:0:
307,281,14980,2,0,L|400:272,1,85,2|2,0:1|0:0,0:0:0:0:
230,354,15397,2,0,L|137:363,1,85,8|2,1:0|0:1,0:0:0:0:
113,351,15709,1,2,0:1:0:0:
81,338,15814,6,0,B|103:311|103:311|105:255|62:212,1,127.5,6|2,0:1|0:1,0:0:0:0:
59,201,16230,2,0,L|51:107,1,85,8|0,1:0|0:0,0:0:0:0:
47,38,16543,1,2,0:0:0:0:
47,38,16647,1,2,0:1:0:0:
241,59,16855,2,0,P|295:50|325:57,1,85,2|8,0:1|1:0,0:0:0:0:
205,215,17272,1,2,0:1:0:0:
239,45,17480,6,0,P|303:29|378:42,1,127.5,2|2,0:1|0:0,0:0:0:0:
403,55,17897,1,8,1:0:0:0:
368,232,18105,2,0,B|316:247|316:247|248:230|248:230|191:249,1,170,2|2,0:1|0:1,0:0:0:0:
283,346,18730,1,8,1:0:0:0:
93,286,18939,1,2,0:1:0:0:
93,286,19043,1,2,0:1:0:0:
93,286,19147,6,0,L|86:201,1,85,2|0,0:1|0:0,0:0:0:0:
230,31,19564,2,0,L|237:116,1,85,8|0,1:0|0:0,0:0:0:0:
244,196,19876,1,2,0:1:0:0:
244,196,19980,2,0,L|238:243,1,42.5,2|8,0:1|1:0,0:0:0:0:
437,274,20293,2,0,L|443:321,1,42.5,2|8,0:1|1:0,0:0:0:0:
393,123,20605,1,2,0:0:0:0:
393,123,20709,1,8,1:0:0:0:
393,123,20814,6,0,L|397:47,1,68,2|0,0:1|0:0,0:0:0:0:
244,196,21230,2,0,L|250:270,1,68,2|0,0:1|0:0,0:0:0:0:
258,369,21647,1,2,0:1:0:0:
104,274,21855,5,0,1:0:0:0:
84,263,21959,1,0,1:0:0:0:
64,253,22064,1,0,1:0:0:0:
224,78,22272,1,8,1:0:0:0:
244,67,22376,1,0,1:0:0:0:
265,57,22480,6,0,L|354:52,1,85,4|0,1:0|0:0,0:0:0:0:
490,41,22897,1,0,1:0:0:0:
429,152,23105,1,0,0:0:0:0:
312,291,23314,2,0,P|252:278|188:302,1,127.5,2|2,0:0|0:0,0:0:0:0:
160,305,23730,2,0,L|49:313,1,85,0|2,1:0|0:0,0:0:0:0:
195,170,24147,6,0,L|306:162,1,85,2|2,0:0|0:0,0:0:0:0:
119,48,24564,2,0,L|8:56,1,85,0|2,1:0|0:0,0:0:0:0:
279,163,24980,2,0,P|357:190|450:144,1,170,2|0,0:0|1:0,0:0:0:0:
355,82,25605,1,0,0:0:0:0:
192,126,25814,6,0,P|186:166|201:212,1,85,2|2,0:1|0:0,0:0:0:0:
240,339,26230,1,8,1:0:0:0:
119,361,26439,1,2,0:0:0:0:
104,229,26647,2,0,P|98:188|70:149,1,85,2|0,0:0|0:0,0:0:0:0:
119,361,27064,2,0,P|190:362|246:335,1,127.5,8|2,1:0|0:0,0:0:0:0:
266,324,27480,6,0,L|373:312,1,85,2|0,0:1|0:0,0:0:0:0:
256,180,27897,2,0,L|149:168,1,85,10|0,1:0|0:0,0:0:0:0:
258,56,28314,2,0,L|365:44,1,85,2|0,0:1|0:0,0:0:0:0:
256,180,28730,2,0,L|149:168,1,85,10|0,1:0|0:0,0:0:0:0:
27,147,29147,5,2,0:1:0:0:
80,249,29355,1,2,0:0:0:0:
109,69,29564,1,8,1:0:0:0:
67,258,29772,1,2,0:0:0:0:
124,61,29980,6,0,L|177:59,1,42.5,8|0,0:0|0:0,0:0:0:0:
260,81,30189,2,0,L|313:79,1,42.5,8|0,0:0|0:0,0:0:0:0:
397,91,30397,1,8,0:0:0:0:
177,259,30605,5,2,0:0:0:0:
293,337,30814,1,2,0:1:0:0:
416,244,31022,1,2,0:0:0:0:
179,286,31230,5,8,0:0:0:0:
420,268,31439,1,8,0:0:0:0:
296,78,31647,2,0,L|288:177,1,85,2|2,0:1|0:1,0:0:0:0:
293,359,32064,1,2,0:1:0:0:
92,255,32272,1,2,0:0:0:0:
197,32,32480,6,0,P|218:101|192:162,1,127.5,2|2,0:0|0:1,0:0:0:0:
205,175,32897,2,0,L|298:161,1,85,2|2,1:0|0:0,0:0:0:0:
435,93,33314,2,0,L|483:86,2,42.5,0|0|2,1:0|1:0|0:1,0:0:0:0:
409,291,33730,1,0,1:0:0:0:
289,162,33939,1,2,0:1:0:0:
289,162,34043,1,2,0:1:0:0:
289,162,34147,6,0,L|386:146,1,85,2|8,0:1|0:0,0:0:0:0:
387,145,34459,1,2,0:0:0:0:
401,142,34564,1,2,0:1:0:0:
409,291,34772,1,0,0:0:0:0:
321,376,34980,5,8,0:0:0:0:
284,142,35189,2,0,L|268:45,1,85,8|2,0:0|0:1,0:0:0:0:
269,44,35814,6,0,P|313:47|357:29,1,85,2|0,0:1|0:0,0:0:0:0:
199,145,36230,1,2,0:1:0:0:
104,65,36439,1,0,0:0:0:0:
104,65,36543,1,0,0:0:0:0:
104,65,36647,1,2,0:1:0:0:
212,230,36855,1,0,0:0:0:0:
341,202,37064,2,0,P|386:190|426:193,1,85,2|0,0:1|0:0,0:0:0:0:
387,291,37480,5,0,0:0:0:0:
381,297,37584,1,0,0:0:0:0:
375,303,37689,1,0,0:0:0:0:
370,309,37793,1,0,0:0:0:0:
363,315,37897,1,2,0:1:0:0:
69,289,38105,2,0,P|109:299|212:223,1,170
115,77,38730,2,0,P|99:121|110:170,1,85,2|0,0:1|0:0,0:0:0:0:
110,164,39043,1,0,0:0:0:0:
114,171,39147,6,0,L|60:193,3,42.5,2|0|0|0,0:1|0:0|0:0|0:0,0:0:0:0:
68,196,39564,2,0,P|62:240|74:281,1,85,2|0,0:1|0:0,0:0:0:0:
300,355,39980,6,0,L|357:344,1,42.5,2|0,0:1|0:0,0:0:0:0:
435,304,40189,2,0,L|461:263,1,42.5
485,170,40397,2,0,L|480:116,1,42.5,2|0,0:1|0:0,0:0:0:0:
185,58,40814,5,2,0:1:0:0:
192,54,40918,1,0,0:0:0:0:
199,50,41022,2,0,L|198:116,1,42.5,2|0,0:0|0:0,0:0:0:0:
10,355,41439,5,0,0:0:0:0:
17,350,41543,1,0,0:0:0:0:
24,346,41647,2,0,L|79:342,1,42.5,2|0,0:1|0:0,0:0:0:0:
169,341,41855,2,0,L|216:354,1,42.5
314,345,42064,2,0,L|408:320,1,85,2|0,0:1|0:0,0:0:0:0:
407,109,42480,6,0,P|395:149|407:196,1,85,2|0,0:1|0:0,0:0:0:0:
500,155,42897,1,2,0:1:0:0:
259,49,43105,1,0,0:0:0:0:
259,49,43209,1,0,0:0:0:0:
259,49,43314,2,0,L|346:44,1,85,2|0,0:1|0:0,0:0:0:0:
106,171,43730,2,0,L|206:167,1,85
481,338,44147,5,2,0:1:0:0:
472,338,44251,1,0,0:0:0:0:
463,338,44355,1,0,0:0:0:0:
454,338,44459,1,0,0:0:0:0:
445,338,44564,1,2,0:1:0:0:
190,265,44772,2,0,P|275:246|360:255,1,170
378,93,45397,2,0,P|319:83|277:57,1,85,2|0,0:1|0:0,0:0:0:0:
289,67,45709,1,0,0:0:0:0:
280,64,45814,6,0,L|285:113,3,42.5
285,114,46230,2,0,L|175:115,1,85,2|0,0:1|0:0,0:0:0:0:
291,284,46647,2,0,L|181:283,1,85,2|0,0:1|0:0,0:0:0:0:
11,356,47064,1,2,0:1:0:0:
76,276,47272,1,0,0:0:0:0:
136,81,47480,6,0,L|177:74,3,42.5,2|0|0|0,0:1|0:0|0:0|0:0,0:0:0:0:
251,116,47897,2,0,L|350:98,1,85,2|0,0:1|0:0,0:0:0:0:
165,249,48314,2,0,L|140:287,1,42.5,2|0,0:1|0:0,0:0:0:0:
256,278,48522,2,0,L|256:327,1,42.5
347,249,48730,2,0,L|372:287,1,42.5,2|0,0:1|0:0,0:0:0:0:
424,363,48939,1,0,0:0:0:0:
388,138,49147,6,0,P|440:129|485:142,1,85,4|0,1:0|0:0,0:0:0:0:
298,167,49564,1,0,1:0:0:0:
193,302,49772,1,2,0:0:0:0:
225,100,49980,1,0,1:0:0:0:
200,324,50189,1,0,0:0:0:0:
209,81,50397,2,0,L|310:75,1,85,0|2,1:0|0:0,0:0:0:0:
110,169,50814,5,0,1:0:0:0:
169,240,51022,1,2,0:0:0:0:
262,245,51230,1,0,1:0:0:0:
332,182,51439,1,2,0:0:0:0:
169,240,51647,5,0,1:0:0:0:
201,327,51855,1,2,0:0:0:0:
291,352,52064,1,0,1:0:0:0:
375,311,52272,1,2,0:0:0:0:
457,131,52480,6,0,L|467:186,3,42.5,4|0|0|0,1:0|0:0|0:0|0:0,0:0:0:0:
478,251,52897,1,0,1:0:0:0:
366,360,53105,1,2,0:0:0:0:
284,164,53314,1,0,1:0:0:0:
399,356,53522,1,0,0:0:0:0:
254,156,53730,2,0,L|162:158,1,85,0|0,1:0|0:0,0:0:0:0:
324,42,54147,5,0,1:0:0:0:
413,68,54355,1,2,0:0:0:0:
435,158,54564,1,0,1:0:0:0:
375,229,54772,1,2,0:0:0:0:
413,68,54980,5,0,1:0:0:0:
324,42,55189,1,2,0:0:0:0:
260,110,55397,1,0,1:0:0:0:
278,201,55605,1,2,0:0:0:0:
106,311,55814,6,0,P|145:300|191:305,1,85,4|0,1:0|0:0,0:0:0:0:
203,310,56126,1,0,0:0:0:0:
217,316,56230,1,0,1:0:0:0:
369,222,56439,6,0,P|412:225|467:205,1,85,2|0,0:0|1:0,0:0:0:0:
402,123,56855,1,0,0:0:0:0:
370,301,57064,2,0,P|414:306|467:290,1,85,0|0,1:0|0:0,0:0:0:0:
441,55,57480,6,0,P|397:50|344:66,1,85,0|0,1:0|0:0,0:0:0:0:
252,244,57897,2,0,P|257:200|241:147,1,85,0|0,1:1|0:0,0:0:0:0:
71,329,58314,2,0,P|115:334|168:318,1,85,0|0,1:0|0:0,0:0:0:0:
146,99,58730,2,0,P|102:94|49:110,1,85,0|0,1:0|0:0,0:0:0:0:
230,212,59147,6,0,L|276:209,3,42.5,4|0|0|0,1:0|0:0|0:0|0:0,0:0:0:0:
360,202,59564,2,0,L|451:196,1,85,0|2,1:0|0:0,0:0:0:0:
323,308,59980,5,0,1:0:0:0:
245,254,60189,1,2,0:0:0:0:
152,267,60397,1,0,1:0:0:0:
111,350,60605,1,2,0:0:0:0:
245,254,60814,5,0,1:0:0:0:
187,180,61022,1,2,0:0:0:0:
100,144,61230,1,0,1:0:0:0:
9,167,61439,1,2,0:0:0:0:
196,340,61647,5,2,1:0:0:0:
453,151,61959,1,2,1:0:0:0:
144,63,62272,1,2,1:0:0:0:
291,260,62480,6,0,L|386:255,1,85,4|2,1:0|0:0,0:0:0:0:
394,262,62793,1,0,0:0:0:0:
411,272,62897,1,8,0:0:0:0:
483,152,63105,1,2,0:0:0:0:
307,33,63314,2,0,P|263:27|218:35,1,85,2|2,1:1|0:0,0:0:0:0:
101,185,63730,2,0,P|137:159|164:122,1,85,2|2,1:1|0:0,0:0:0:0:
109,34,64147,5,0,1:0:0:0:
260,146,64355,2,0,P|305:140|350:145,1,85,2|8,1:2|0:0,0:0:0:0:
403,234,64772,1,2,0:0:0:0:
485,167,64980,1,0,1:0:0:0:
454,344,65189,1,2,0:0:0:0:
454,344,65293,1,0,0:0:0:0:
454,344,65397,2,0,P|409:350|364:345,1,85,8|2,0:2|0:0,0:0:0:0:
259,145,65814,6,0,L|407:131,1,127.5,2|2,1:0|1:0,0:0:0:0:
416,130,66230,1,8,0:0:0:0:
341,255,66439,1,0,0:0:0:0:
341,255,66543,1,0,0:0:0:0:
341,255,66647,2,0,L|453:247,1,85,2|2,1:0|0:0,0:0:0:0:
427,37,67064,2,0,L|315:45,1,85,2|2,1:0|0:0,0:0:0:0:
173,57,67480,5,2,1:0:0:0:
121,190,67689,1,2,0:0:0:0:
30,42,67897,1,8,0:0:0:0:
146,124,68105,1,2,0:0:0:0:
229,280,68314,5,2,1:0:0:0:
367,289,68522,1,0,1:0:0:0:
150,328,68730,5,8,0:0:0:0:
452,245,68939,1,8,0:0:0:0:
407,38,69147,6,0,L|462:30,3,42.5,2|0|2|0,1:0|0:0|0:0|0:0,0:0:0:0:
464,32,69564,2,0,L|424:136,1,85,8|2,1:2|0:0,0:0:0:0:
271,144,69980,2,0,L|285:231,1,85,2|2,1:0|0:0,0:0:0:0:
299,359,70397,1,8,0:0:0:0:
171,303,70605,1,8,1:2:0:0:
395,274,70814,6,0,P|439:277|480:260,1,85,2|2,1:0|0:0,0:0:0:0:
494,251,71126,1,2,0:0:0:0:
494,251,71230,2,0,L|508:341,1,85,8|2,0:0|0:0,0:0:0:0:
479,147,71647,1,8,1:2:0:0:
339,24,71855,1,8,1:2:0:0:
264,196,72064,1,2,1:0:0:0:
72,139,72272,1,8,1:0:0:0:
72,139,72376,1,8,1:0:0:0:
72,139,72480,6,0,P|46:202|79:296,1,170,4|8,1:0|1:0,0:0:0:0:
158,376,73105,1,2,0:0:0:0:
320,292,73314,2,0,L|374:284,2,42.5,8|8|0,1:2|0:0|0:0,0:0:0:0:
195,182,73730,2,0,L|287:172,1,85,8|0,1:0|0:0,0:0:0:0:
438,258,74147,6,0,P|467:303|469:342,1,85,8|0,1:0|1:0,0:0:0:0:
465,348,74459,2,0,P|492:273|470:204,1,127.5,8|8,1:0|1:0,0:0:0:0:
428,56,74980,1,0,1:0:0:0:
428,56,75084,1,0,1:0:0:0:
428,56,75189,1,0,1:0:0:0:
428,56,75293,1,0,1:0:0:0:
428,56,75397,1,0,1:0:0:0:
428,56,75814,6,0,L|519:49,1,85,4|2,1:0|0:0,0:0:0:0:
340,178,76230,2,0,L|428:198,1,85,8|8,1:0|0:0,0:0:0:0:
182,217,76647,2,0,P|202:281|180:341,1,127.5,2|2,0:1|0:1,0:0:0:0:
171,363,77064,1,8,1:0:0:0:
65,286,77272,1,0,0:0:0:0:
58,92,77480,5,2,0:1:0:0:
206,94,77689,2,0,P|248:99|294:87,1,85,2|8,0:0|1:0,0:0:0:0:
400,141,78105,2,0,P|441:131|483:136,1,85,0|2,0:0|0:1,0:0:0:0:
445,228,78522,1,0,0:0:0:0:
382,349,78730,1,8,1:0:0:0:
308,197,78939,1,8,0:0:0:0:
191,318,79147,6,0,P|149:306|102:316,1,85,2|8,0:1|0:0,0:0:0:0:
89,321,79459,1,2,0:0:0:0:
68,329,79564,2,0,P|97:296|103:239,1,85,8|0,1:0|0:0,0:0:0:0:
154,46,79980,2,0,P|154:93|177:140,1,85,2|0,0:1|0:0,0:0:0:0:
278,189,80397,1,8,1:0:0:0:
300,67,80605,1,0,0:0:0:0:
358,235,80814,6,0,P|405:219|488:237,1,127.5,2|2,1:0|0:1,0:0:0:0:
480,342,81230,2,0,P|433:358|350:340,1,127.5,2|2,1:0|0:1,0:0:0:0:
260,293,81647,6,0,B|168:246|168:246|146:280,1,127.5,2|2,1:0|0:1,0:0:0:0:
162,358,82064,2,0,L|155:268,1,85,8|8,1:2|1:2,1:0:0:0:
139,88,82480,6,0,P|184:93|234:77,1,85,4|0,1:0|0:0,0:0:0:0:
428,137,82897,2,0,P|383:132|333:148,1,85,8|8,1:0|0:0,0:0:0:0:
245,329,83314,2,0,P|260:265|228:205,1,127.5,2|2,0:1|0:1,0:0:0:0:
230,201,83730,2,0,L|223:99,1,85,8|0,1:0|0:0,0:0:0:0:
65,31,84147,5,0,0:0:0:0:
48,180,84355,2,0,P|42:224|55:266,1,85,2|8,0:0|1:0,0:0:0:0:
182,319,84772,2,0,P|188:277|176:236,1,85,2|10,0:0|0:1,0:0:0:0:
139,137,85189,1,0,0:0:0:0:
58,29,85397,1,8,1:0:0:0:
221,35,85605,1,8,0:0:0:0:
368,88,85814,6,0,L|455:85,1,85,2|8,0:1|0:0,0:0:0:0:
469,85,86126,1,2,0:0:0:0:
484,84,86230,2,0,P|493:127|480:167,1,85,8|0,1:0|0:0,0:0:0:0:
351,272,86647,2,0,P|395:279|436:267,1,85,2|0,0:1|0:0,0:0:0:0:
317,87,87064,2,0,P|308:130|321:170,1,85,8|0,1:0|0:0,0:0:0:0:
346,346,87480,6,0,B|325:352|325:352|195:332,1,127.5,2|2,1:0|0:1,0:0:0:0:
157,253,87897,2,0,B|52:236|52:236|31:242,1,127.5,2|2,1:0|0:1,0:0:0:0:
39,367,88314,6,0,P|24:310|41:219,1,127.5,2|2,1:0|0:1,0:0:0:0:
71,153,88730,2,0,L|174:166,1,85,0|8,1:2|0:0,0:0:0:0:
341,211,89147,5,2,1:2:0:0:
423,29,89355,1,2,0:0:0:0:
423,29,89459,1,2,0:0:0:0:
423,29,89564,1,8,1:0:0:0:
441,233,89772,1,8,0:0:0:0:
309,92,89980,5,2,1:2:0:0:
511,119,90189,1,2,0:0:0:0:
511,119,90293,1,2,0:0:0:0:
511,119,90397,1,8,1:0:0:0:
341,211,90605,2,0,P|296:208|249:217,1,85,8|2,0:0|0:1,0:0:0:0:
56,330,91022,5,2,1:0:0:0:
50,109,91230,1,2,1:0:0:0:
78,329,91647,5,2,1:0:0:0:
43,91,91855,2,0,L|128:79,1,85,2|8,1:0|0:0,0:0:0:0:
348,52,92272,5,2,0:0:0:0:
370,38,92376,1,2,0:0:0:0:
393,26,92480,6,0,L|388:81,2,42.5,4|0|0,1:0|0:0|0:0,0:0:0:0:
386,152,92793,2,0,L|396:247,1,85
405,320,93105,1,0,0:0:0:0:
177,318,93314,6,0,L|263:314,1,63.7500024318696,4|0,1:0|0:0,0:0:0:0:
25,332,93522,6,0,L|90:323,1,63.7500024318696,4|0,1:0|0:0,0:0:0:0:
454,30,94147,6,0,P|446:88|461:157,1,127.5,4|2,1:0|0:1,0:0:0:0:
470,185,94564,1,8,1:0:0:0:
329,350,94772,1,2,0:0:0:0:
329,350,94876,1,0,0:0:0:0:
329,350,94980,2,0,P|291:357|241:353,1,85,2|2,0:1|0:1,0:0:0:0:
475,349,95397,1,8,1:0:0:0:
326,205,95605,1,2,0:0:0:0:
109,156,95814,6,0,P|92:214|123:286,1,127.5,2|2,0:1|0:1,0:0:0:0:
127,301,96230,1,8,1:0:0:0:
326,347,96439,1,2,0:0:0:0:
326,347,96543,1,0,0:0:0:0:
326,347,96647,2,0,P|369:349|413:330,1,85,2|2,0:1|0:1,0:0:0:0:
363,128,97064,6,0,P|346:196|368:269,1,127.5,0|2,0:0|1:0,0:0:0:0:
488,296,97480,6,0,P|446:251|358:250,1,152.999995330811,4|2,1:0|0:1,0:0:0:0:
334,284,97897,1,8,1:0:0:0:
110,335,98105,2,0,P|178:354|259:299,1,170,2|2,0:1|0:1,0:0:0:0:
180,128,98730,2,0,P|166:180|180:225,1,85,8|0,1:0|0:0,0:0:0:0:
174,226,99043,1,2,0:0:0:0:
178,242,99147,6,0,L|271:217,1,85,2|2,0:1|0:0,0:0:0:0:
388,342,99564,2,0,L|363:249,1,85,8|2,1:0|0:0,0:0:0:0:
508,201,99980,2,0,L|415:176,1,85,2|2,0:1|0:1,0:0:0:0:
308,47,100397,2,0,L|333:140,1,85,8|2,1:0|0:0,0:0:0:0:
371,340,100814,6,0,P|306:360|249:348,1,127.5,4|2,1:0|0:1,0:0:0:0:
220,332,101230,1,8,1:0:0:0:
56,213,101439,1,2,0:0:0:0:
56,213,101543,1,0,0:0:0:0:
56,213,101647,2,0,P|99:206|150:213,1,85,2|2,0:1|0:1,0:0:0:0:
277,272,102064,1,8,1:0:0:0:
264,123,102272,1,0,0:0:0:0:
383,262,102480,6,0,P|440:240|526:255,1,127.5,2|2,0:1|0:1,0:0:0:0:
512,257,102897,1,8,1:0:0:0:
334,356,103105,1,2,0:0:0:0:
334,356,103209,1,0,0:0:0:0:
334,356,103314,2,0,P|270:363|245:357,1,85,2|2,0:1|0:1,0:0:0:0:
123,291,103730,1,8,1:0:0:0:
252,219,103939,1,0,0:0:0:0:
135,49,104147,6,0,P|123:110|140:174,1,127.5,2|2,0:1|0:1,0:0:0:0:
149,201,104564,2,0,L|48:195,1,85,8|0,1:0|0:0,0:0:0:0:
200,333,104980,2,0,L|292:326,1,85,2|2,0:1|0:1,0:0:0:0:
426,315,105397,1,8,1:0:0:0:
348,195,105605,1,2,0:0:0:0:
348,195,105709,1,0,0:0:0:0:
348,195,105814,6,0,P|394:191|431:167,1,85
351,81,106230,1,8,1:0:0:0:
247,141,106439,1,0,0:0:0:0:
106,302,106647,6,0,L|59:323,2,42.5,2|8|2,0:1|0:1|0:1,0:0:0:0:
328,342,107064,1,8,1:0:0:0:
247,141,107272,1,8,1:0:0:0:
247,141,107376,1,8,1:0:0:0:
247,141,107480,6,0,P|290:130|347:139,1,93.5000028533936,4|2,1:0|0:0,0:0:0:0:
440,222,107897,1,8,1:0:0:0:
484,97,108105,1,0,0:0:0:0:
484,97,108209,1,0,0:0:0:0:
484,97,108314,1,2,0:1:0:0:
383,9,108522,1,2,0:1:0:0:
353,213,108730,1,8,1:0:0:0:
167,118,108939,6,0,P|119:106|59:115,1,93.5000028533936,2|2,0:0|0:1,0:0:0:0:
113,232,109355,1,2,0:0:0:0:
206,329,109564,1,8,1:0:0:0:
331,278,109772,1,0,0:0:0:0:
331,278,109876,1,0,0:0:0:0:
331,278,109980,2,0,P|379:286|434:271,1,93.5000028533936,2|2,0:1|0:1,0:0:0:0:
372,161,110397,1,8,1:0:0:0:
220,39,110605,1,0,0:0:0:0:
72,244,110814,6,0,P|116:252|201:207,1,140.25000428009,2|2,0:1|0:1,0:0:0:0:
199,180,111230,2,0,P|188:237|205:273,1,93.5000028533936,8|2,1:0|0:0,0:0:0:0:
330,346,111647,1,2,0:1:0:0:
409,218,111855,1,2,0:1:0:0:
286,134,112064,1,8,1:0:0:0:
121,306,112272,6,0,P|174:295|202:265,1,93.5000028533936,2|2,0:0|0:1,0:0:0:0:
217,252,112584,1,2,0:0:0:0:
233,235,112689,2,0,P|285:223|328:233,1,93.5000028533936,0|8,0:0|1:0,0:0:0:0:
418,326,113105,1,0,0:0:0:0:
471,122,113314,6,0,P|484:177|473:226,1,93.5000028533936,2|2,0:1|0:1,0:0:0:0:
247,133,113730,2,0,P|241:86|254:42,1,93.5000028533936,8|0,1:0|0:0,0:0:0:0:
315,295,114147,6,0,P|241:304|178:276,1,140.25000428009,4|2,1:0|0:1,0:0:0:0:
155,265,114564,1,8,1:0:0:0:
90,81,114772,1,2,0:0:0:0:
90,81,114876,1,0,0:0:0:0:
90,81,114980,2,0,P|140:71|187:79,1,93.5000028533936,2|2,0:1|0:1,0:0:0:0:
260,178,115397,1,8,1:0:0:0:
445,257,115605,6,0,P|469:195|440:119,1,140.25000428009,2|2,0:0|0:0,0:0:0:0:
443,115,116022,2,0,L|477:11,1,93.5000028533936,2|8,0:0|1:0,0:0:0:0:
366,197,116439,1,2,0:0:0:0:
366,197,116543,1,2,0:0:0:0:
366,197,116647,1,2,0:1:0:0:
314,344,116855,1,2,0:1:0:0:
159,313,117064,1,8,1:0:0:0:
88,122,117272,6,0,P|149:102|237:135,1,140.25000428009,2|0,0:0|0:0,0:0:0:0:
243,143,117689,1,2,0:0:0:0:
395,279,117897,2,0,L|499:259,1,93.5000028533936,8|2,1:0|1:0,0:0:0:0:
259,355,118314,1,2,0:1:0:0:
366,154,118522,1,2,0:0:0:0:
366,154,118626,1,0,0:0:0:0:
366,154,118730,1,8,1:0:0:0:
84,134,118939,6,0,P|42:216|104:283,1,187.000005706787,2|2,0:0|0:0,0:0:0:0:
291,321,119564,2,0,P|234:307|182:320,1,93.5000028533936,8|0,1:0|0:0,0:0:0:0:
390,324,119980,2,0,P|447:338|499:325,1,93.5000028533936,2|2,0:1|0:1,0:0:0:0:
344,221,120397,1,8,1:0:0:0:
256,47,120605,2,0,L|250:105,2,46.7500014266968,0|0|4,1:0|1:0|0:0,0:0:0:0:
256,192,120918,12,0,122689,0:0:0:0:
