osu file format v14

[General]
AudioFilename: audio.mp3
AudioLeadIn: 0
PreviewTime: 234527
Countdown: 0
SampleSet: Drum
StackLeniency: 0.2
Mode: 0
LetterboxInBreaks: 0
WidescreenStoryboard: 1

[Editor]
Bookmarks: 171227
DistanceSpacing: 0.6
BeatDivisor: 3
GridSize: 8
TimelineZoom: 1.6

[Metadata]
Title:Questlords of Inverness, Ride to the Galactic Fortress!
TitleUnicode:Questlords of Inverness, Ride to the Galactic Fortress!
Artist:GLORYHAMMER
ArtistUnicode:GLORYHAMMER
Creator:iamtickrate
Version:The Ancient Crystal Galaxy
Source:
Tags:english power symphonic metal space 1992: rise of the chaos wizards fantasy
BeatmapID:3327998
BeatmapSetID:1630218

[Difficulty]
HPDrainRate:5
CircleSize:4.3
OverallDifficulty:9.3
ApproachRate:9.6
SliderMultiplier:2
SliderTickRate:1

[Events]
//Background and Video events
0,0,"bg.jpg",0,0
//Break Periods
//Storyboard Layer 0 (Background)
//Storyboard Layer 1 (Fail)
//Storyboard Layer 2 (Pass)
//Storyboard Layer 3 (Foreground)
//Storyboard Layer 4 (Overlay)
//Storyboard Sound Samples

[TimingPoints]
534,300,4,3,1,60,1,0
534,-200,4,3,1,60,0,0
1659,-200,4,3,1,5,0,0
1734,-200,4,3,1,60,0,0
2859,-200,4,3,1,5,0,0
2934,-200,4,3,1,60,0,0
4059,-200,4,3,1,5,0,0
4134,-200,4,3,2,60,0,0
4584,-200,4,3,3,60,0,0
5034,-200,4,3,4,60,0,0
5334,-200,4,3,1,60,0,0
6459,-200,4,3,1,5,0,0
6534,-200,4,3,1,60,0,0
7659,-200,4,3,1,5,0,0
7734,-200,4,3,1,60,0,0
9384,-200,4,3,1,5,0,0
9434,-200,4,3,1,60,0,0
9534,-200,4,3,4,60,0,0
10134,-200,4,3,1,60,0,0
11259,-200,4,3,1,5,0,0
11334,-200,4,3,1,60,0,0
12459,-200,4,3,1,5,0,0
12534,-200,4,3,1,60,0,0
14559,-200,4,3,1,5,0,0
14634,-200,4,3,1,60,0,0
14934,-133.333333333333,4,3,1,60,0,0
15309,-133.333333333333,4,3,1,5,0,0
15384,-133.333333333333,4,3,1,60,0,0
15759,-133.333333333333,4,3,1,5,0,0
15834,-133.333333333333,4,3,1,60,0,0
16509,-133.333333333333,4,3,1,5,0,0
16584,-133.333333333333,4,3,1,60,0,0
16959,-133.333333333333,4,3,1,5,0,0
17034,-133.333333333333,4,3,1,60,0,0
17334,-100,4,3,1,60,0,0
17784,-100,4,3,2,60,0,0
17934,-100,4,3,3,60,0,0
18234,-100,4,3,4,60,0,0
18534,-133.333333333333,4,3,1,30,0,0
19734,-90.9090909090909,4,3,1,60,0,0
21609,-90.9090909090909,4,3,1,5,0,0
21684,-90.9090909090909,4,3,1,60,0,0
21759,-90.9090909090909,4,3,1,5,0,0
21834,-90.9090909090909,4,3,1,60,0,0
24009,-90.9090909090909,4,3,1,5,0,0
24084,-90.9090909090909,4,3,1,60,0,0
24159,-90.9090909090909,4,3,1,5,0,0
24234,-90.9090909090909,4,3,1,60,0,0
26409,-90.9090909090909,4,3,1,5,0,0
26484,-90.9090909090909,4,3,1,60,0,0
26559,-90.9090909090909,4,3,1,5,0,0
26634,-90.9090909090909,4,3,1,60,0,0
28584,-90.9090909090909,4,3,2,60,0,0
28734,-90.9090909090909,4,3,1,60,0,0
28884,-90.9090909090909,4,3,3,60,0,0
29034,-90.9090909090909,4,3,4,60,0,0
29334,-100,4,3,1,60,0,0
29559,-100,4,3,1,5,0,0
29634,-100,4,3,1,60,0,0
31959,-100,4,3,1,5,0,0
32034,-100,4,3,1,60,0,0
47784,-100,4,3,3,60,0,0
48234,-100,4,3,4,60,0,0
48534,-95.2380952380952,4,3,1,60,0,0
51159,-95.2380952380952,4,3,1,5,0,0
51234,-95.2380952380952,4,3,1,60,0,0
57834,-133.333333333333,4,3,1,60,0,0
57909,-95.2380952380952,4,3,1,5,0,0
58134,-100,4,3,1,60,0,0
63159,-100,4,3,1,5,0,0
63234,-100,4,3,1,60,0,0
67959,-100,4,3,1,5,0,0
68034,-100,4,3,1,60,0,0
70359,-100,4,3,1,5,0,0
70434,-100,4,3,1,60,0,0
76584,-100,4,3,2,60,0,0
76884,-100,4,3,4,60,0,0
77334,-133.333333333333,4,3,1,30,0,0
78834,-133.333333333333,4,3,2,60,0,0
78984,-133.333333333333,4,3,3,60,0,0
79134,-133.333333333333,4,3,4,60,0,0
79284,-133.333333333333,4,3,2,60,0,0
79434,-133.333333333333,4,3,3,60,0,0
79584,-133.333333333333,4,3,4,60,0,0
79734,-83.3333333333333,4,3,1,60,0,1
99384,-83.3333333333333,4,3,3,60,0,1
99534,-83.3333333333333,4,3,1,60,0,1
99684,-83.3333333333333,4,3,4,60,0,1
99984,-83.3333333333333,4,3,1,60,0,1
100134,-100,4,3,1,60,0,0
100959,-100,4,3,1,5,0,0
101034,-100,4,3,1,60,0,0
101259,-100,4,3,1,5,0,0
101334,-100,4,3,1,60,0,0
120834,-100,4,3,1,30,0,0
121134,-100,4,3,1,60,0,0
121284,-100,4,3,2,60,0,0
121434,-100,4,3,3,60,0,0
121734,-100,4,3,1,60,0,0
121959,-100,4,3,1,5,0,0
122034,-100,4,3,1,60,0,0
124359,-100,4,3,1,5,0,0
124434,-100,4,3,1,60,0,0
131559,-100,4,3,1,5,0,0
131634,-100,4,3,1,60,0,0
139734,-83.3333333333333,4,3,1,60,0,0
140034,-100,4,3,1,60,0,0
140184,-100,4,3,1,30,0,0
140334,-100,4,3,1,60,0,0
140484,-100,4,3,1,30,0,0
140634,-100,4,3,1,60,0,0
140784,-100,4,3,2,60,0,0
140859,-100,4,3,1,60,0,0
140934,-133.333333333333,4,3,1,60,0,0
142434,-133.333333333333,4,3,2,60,0,0
142584,-133.333333333333,4,3,3,60,0,0
142734,-133.333333333333,4,3,4,60,0,0
142884,-133.333333333333,4,3,2,60,0,0
143034,-133.333333333333,4,3,3,60,0,0
143184,-133.333333333333,4,3,4,60,0,0
143334,-83.3333333333333,4,3,1,60,0,1
161784,-83.3333333333333,4,3,2,60,0,1
161934,-83.3333333333333,4,3,1,60,0,1
162084,-83.3333333333333,4,3,3,60,0,1
162234,-83.3333333333333,4,3,4,60,0,1
162534,-111.111111111111,4,3,1,60,0,0
163734,-111.111111111111,4,3,1,85,0,0
163809,-111.111111111111,4,3,1,60,0,0
166134,-111.111111111111,4,3,1,85,0,0
166209,-111.111111111111,4,3,1,60,0,0
167559,-111.111111111111,4,3,1,5,0,0
167634,-111.111111111111,4,3,1,60,0,0
168534,-111.111111111111,4,3,1,85,0,0
168609,-111.111111111111,4,3,1,60,0,0
170934,-111.111111111111,4,3,1,85,0,0
171009,-111.111111111111,4,3,1,60,0,0
171834,-111.111111111111,4,3,2,60,0,0
172134,-111.111111111111,4,3,1,60,0,0
172209,-111.111111111111,4,3,1,5,0,0
172284,-111.111111111111,4,3,1,60,0,0
172359,-111.111111111111,4,3,1,5,0,0
172434,-111.111111111111,4,3,1,60,0,0
172659,-111.111111111111,4,3,1,5,0,0
172734,-111.111111111111,4,3,1,60,0,0
173559,-111.111111111111,4,3,1,5,0,0
173634,-111.111111111111,4,3,1,60,0,0
173709,-111.111111111111,4,3,1,5,0,0
173784,-111.111111111111,4,3,1,60,0,0
173859,-111.111111111111,4,3,1,5,0,0
173934,-111.111111111111,4,3,1,60,0,0
174759,-111.111111111111,4,3,1,5,0,0
174834,-111.111111111111,4,3,1,60,0,0
175059,-111.111111111111,4,3,1,5,0,0
175134,-111.111111111111,4,3,1,60,0,0
175659,-111.111111111111,4,3,1,5,0,0
175734,-111.111111111111,4,3,1,60,0,0
175809,-111.111111111111,4,3,1,5,0,0
175884,-111.111111111111,4,3,1,60,0,0
175959,-111.111111111111,4,3,1,5,0,0
176034,-111.111111111111,4,3,1,60,0,0
176259,-111.111111111111,4,3,1,5,0,0
176334,-111.111111111111,4,3,1,60,0,0
177009,-111.111111111111,4,3,1,5,0,0
177084,-111.111111111111,4,3,1,60,0,0
177159,-111.111111111111,4,3,1,5,0,0
177234,-111.111111111111,4,3,1,60,0,0
177459,-111.111111111111,4,3,1,5,0,0
177534,-111.111111111111,4,3,1,60,0,0
178059,-111.111111111111,4,3,1,5,0,0
178134,-111.111111111111,4,3,1,60,0,0
178359,-111.111111111111,4,3,1,5,0,0
178434,-111.111111111111,4,3,1,60,0,0
178659,-111.111111111111,4,3,1,5,0,0
178734,-111.111111111111,4,3,1,60,0,0
179109,-111.111111111111,4,3,1,5,0,0
179184,-111.111111111111,4,3,1,60,0,0
179259,-111.111111111111,4,3,1,5,0,0
179334,-111.111111111111,4,3,1,60,0,0
179559,-111.111111111111,4,3,1,5,0,0
179634,-111.111111111111,4,3,1,60,0,0
179859,-111.111111111111,4,3,1,5,0,0
179934,-111.111111111111,4,3,1,60,0,0
180759,-111.111111111111,4,3,1,5,0,0
180834,-111.111111111111,4,3,1,60,0,0
181059,-111.111111111111,4,3,1,5,0,0
181134,-111.111111111111,4,3,1,60,0,0
181434,-111.111111111111,4,3,2,60,0,0
181734,-111.111111111111,4,3,1,60,0,0
181809,-111.111111111111,4,3,1,5,0,0
181884,-111.111111111111,4,3,1,60,0,0
181959,-111.111111111111,4,3,1,5,0,0
182034,-111.111111111111,4,3,1,60,0,0
182259,-111.111111111111,4,3,1,5,0,0
182334,-111.111111111111,4,3,1,60,0,0
183159,-111.111111111111,4,3,1,5,0,0
183234,-111.111111111111,4,3,1,60,0,0
183309,-111.111111111111,4,3,1,5,0,0
183384,-111.111111111111,4,3,1,60,0,0
183459,-111.111111111111,4,3,1,5,0,0
183534,-111.111111111111,4,3,1,60,0,0
184359,-111.111111111111,4,3,1,5,0,0
184434,-111.111111111111,4,3,1,60,0,0
184659,-111.111111111111,4,3,1,5,0,0
184734,-111.111111111111,4,3,1,60,0,0
185259,-111.111111111111,4,3,1,5,0,0
185334,-111.111111111111,4,3,1,60,0,0
185409,-111.111111111111,4,3,1,5,0,0
185484,-111.111111111111,4,3,1,60,0,0
185559,-111.111111111111,4,3,1,5,0,0
185634,-111.111111111111,4,3,1,60,0,0
185859,-111.111111111111,4,3,1,5,0,0
185934,-111.111111111111,4,3,1,60,0,0
186609,-111.111111111111,4,3,1,5,0,0
186684,-111.111111111111,4,3,1,60,0,0
186759,-111.111111111111,4,3,1,5,0,0
186834,-111.111111111111,4,3,1,60,0,0
187059,-111.111111111111,4,3,1,5,0,0
187134,-111.111111111111,4,3,1,60,0,0
187659,-111.111111111111,4,3,1,5,0,0
187734,-111.111111111111,4,3,1,60,0,0
187959,-111.111111111111,4,3,1,5,0,0
188034,-111.111111111111,4,3,1,60,0,0
188259,-111.111111111111,4,3,1,5,0,0
188334,-111.111111111111,4,3,1,60,0,0
188709,-111.111111111111,4,3,1,5,0,0
188784,-111.111111111111,4,3,1,60,0,0
188859,-111.111111111111,4,3,1,5,0,0
188934,-111.111111111111,4,3,1,60,0,0
189159,-111.111111111111,4,3,1,5,0,0
189234,-111.111111111111,4,3,1,60,0,0
189459,-111.111111111111,4,3,1,5,0,0
189534,-111.111111111111,4,3,1,60,0,0
190134,-100,4,3,1,60,0,0
195384,-100,4,3,3,60,0,0
195834,-100,4,3,4,60,0,0
196134,-95.2380952380952,4,3,1,60,0,0
198834,-95.2380952380952,4,3,1,45,0,0
198909,-95.2380952380952,4,3,1,60,0,0
199434,-95.2380952380952,4,3,1,45,0,0
199509,-95.2380952380952,4,3,1,60,0,0
200034,-95.2380952380952,4,3,1,45,0,0
200109,-95.2380952380952,4,3,1,60,0,0
200634,-95.2380952380952,4,3,1,45,0,0
200709,-95.2380952380952,4,3,1,60,0,0
201234,-95.2380952380952,4,3,1,45,0,0
201309,-95.2380952380952,4,3,1,60,0,0
201834,-95.2380952380952,4,3,1,45,0,0
201909,-95.2380952380952,4,3,1,60,0,0
202434,-95.2380952380952,4,3,1,45,0,0
202509,-95.2380952380952,4,3,1,60,0,0
203034,-95.2380952380952,4,3,1,45,0,0
203109,-95.2380952380952,4,3,1,60,0,0
203634,-95.2380952380952,4,3,1,45,0,0
203709,-95.2380952380952,4,3,1,60,0,0
204234,-95.2380952380952,4,3,1,45,0,0
204309,-95.2380952380952,4,3,1,60,0,0
204834,-95.2380952380952,4,3,1,45,0,0
204909,-95.2380952380952,4,3,1,60,0,0
205434,-95.2380952380952,4,3,3,60,0,0
205734,-95.2380952380952,4,3,1,60,0,0
206709,-95.2380952380952,4,3,1,5,0,0
206784,-95.2380952380952,4,3,1,60,0,0
206859,-95.2380952380952,4,3,1,5,0,0
206934,-95.2380952380952,4,3,1,60,0,0
212259,-95.2380952380952,4,3,1,5,0,0
212334,-95.2380952380952,4,3,1,60,0,0
215034,-95.2380952380952,4,3,2,60,0,0
215334,-90.9090909090909,4,3,1,60,0,0
223734,-86.9565217391304,4,3,1,60,0,0
223959,-86.9565217391304,4,3,1,5,0,0
224034,-86.9565217391304,4,3,3,60,0,0
224109,-86.9565217391304,4,3,1,60,0,0
224634,-86.9565217391304,4,3,2,60,0,0
224709,-86.9565217391304,4,3,1,60,0,0
226134,-86.9565217391304,4,2,2,60,0,0
226734,-86.9565217391304,4,3,1,60,0,0
228534,-86.9565217391304,4,2,3,60,0,0
229134,-86.9565217391304,4,3,1,60,0,0
231009,-86.9565217391304,4,3,1,5,0,0
231084,-86.9565217391304,4,3,1,60,0,0
231159,-86.9565217391304,4,3,1,5,0,0
231234,-86.9565217391304,4,3,1,60,0,0
233734,-86.9565217391304,4,3,2,60,0,0
233934,-86.9565217391304,4,3,3,60,0,0
234234,-86.9565217391304,4,3,4,60,0,0
234534,-133.333333333333,4,3,1,60,0,0
235659,-133.333333333333,4,3,1,5,0,0
235734,-133.333333333333,4,3,1,60,0,0
236859,-133.333333333333,4,3,1,5,0,0
236934,-133.333333333333,4,3,1,60,0,0
238059,-133.333333333333,4,3,1,5,0,0
238134,-133.333333333333,4,3,1,60,0,0
239259,-133.333333333333,4,3,1,5,0,0
239334,-90.9090909090909,4,3,1,60,0,0
240984,-90.9090909090909,4,3,2,60,0,0
241134,-90.9090909090909,4,3,1,60,0,0
241284,-90.9090909090909,4,3,3,60,0,0
241434,-90.9090909090909,4,3,4,60,0,0
241584,-90.9090909090909,4,3,1,60,0,0
241734,-83.3333333333333,4,3,1,60,0,1
256284,-83.3333333333333,4,3,1,25,0,1
256434,-83.3333333333333,4,3,1,60,0,1
256584,-83.3333333333333,4,3,2,60,0,1
256734,-83.3333333333333,4,3,1,60,0,1
256884,-83.3333333333333,4,3,3,60,0,1
257034,-83.3333333333333,4,3,4,60,0,1
257184,-83.3333333333333,4,3,1,60,0,1
257334,-100,4,3,1,60,0,0
262134,-83.3333333333333,4,3,1,60,0,0
262659,-83.3333333333333,4,3,1,5,0,0
262734,-83.3333333333333,4,3,1,60,0,0
263034,-90.9090909090909,4,3,1,60,0,0
263334,-95.2380952380952,4,3,1,60,0,0
266934,-90.9090909090909,4,3,1,60,0,0
267159,-90.9090909090909,4,3,1,5,0,0
267234,-90.9090909090909,4,3,1,60,0,0
268134,-100,4,3,1,60,0,0
269859,-100,4,3,1,5,0,0
269934,-100,4,3,1,60,0,0
270009,-100,4,3,1,5,0,0
270084,-100,4,3,1,60,0,0
270159,-100,4,3,1,5,0,0
270234,-100,4,3,1,60,0,0
271584,-83.3333333333333,4,3,1,60,0,0
271884,-100,4,3,1,60,0,0
276534,-90.9090909090909,4,3,1,60,0,0
276759,-90.9090909090909,4,3,1,5,0,0
276834,-90.9090909090909,4,3,1,60,0,0
277734,-111.111111111111,4,3,1,60,0,0
294984,-111.111111111111,4,3,3,60,0,0
295434,-111.111111111111,4,3,4,60,0,0
295734,-133.333333333333,4,3,1,30,0,0
296934,-90.9090909090909,4,3,1,60,0,0
298809,-90.9090909090909,4,3,1,5,0,0
298884,-90.9090909090909,4,3,1,60,0,0
298959,-90.9090909090909,4,3,1,5,0,0
299034,-90.9090909090909,4,3,1,60,0,0
301209,-90.9090909090909,4,3,1,5,0,0
301284,-90.9090909090909,4,3,1,60,0,0
301359,-90.9090909090909,4,3,1,5,0,0
301434,-90.9090909090909,4,3,1,60,0,0
303609,-90.9090909090909,4,3,1,5,0,0
303684,-90.9090909090909,4,3,1,60,0,0
303759,-90.9090909090909,4,3,1,5,0,0
303834,-90.9090909090909,4,3,1,60,0,0
305409,-90.9090909090909,4,3,1,25,0,0
305634,-90.9090909090909,4,3,1,60,0,0
305784,-90.9090909090909,4,3,3,60,0,0
305934,-90.9090909090909,4,3,1,60,0,0
306084,-90.9090909090909,4,3,2,60,0,0
306234,-90.9090909090909,4,3,3,60,0,0
306384,-90.9090909090909,4,3,4,60,0,0
306534,-90.9090909090909,4,3,1,85,0,0
316134,-90.9090909090909,4,3,1,5,0,0

[Colours]
Combo1 : 104,177,184
Combo2 : 116,175,146
Combo3 : 106,106,106
Combo4 : 164,165,165

[HitObjects]
304,265,534,6,0,B|252:224|288:162|288:162|350:133|393:172|393:172|403:140|403:140|475:170|511:109,1,375,4|0,3:0|3:0,3:0:0:0:
433,14,1734,6,0,B|396:21|407:56|371:81|371:81|403:58|438:67|470:93|459:149|424:173|424:173|374:215|412:279,1,375,4|0,0:0|0:0,0:0:0:0:
491,338,2934,6,0,B|514:306|495:259|495:259|411:275|411:275|379:319|379:319|206:347,1,375,4|0,0:0|0:0,0:0:0:0:
200,369,4134,6,0,L|192:346,1,25,8|8,0:0|0:0,0:0:0:0:
247,197,4584,6,0,L|231:216,1,25,8|8,0:0|0:0,0:0:0:0:
93,253,5034,6,0,L|118:258,1,25,8|8,0:0|0:0,0:0:0:0:
218,33,5334,6,0,B|223:80|180:108|145:98|145:98|143:104|143:104|89:88|59:136|62:178|102:207|102:207|103:215|103:215|130:229|138:277|109:304,1,375,4|0,0:0|0:0,0:0:0:0:
44,357,6534,6,0,B|81:311|81:311|183:308|239:348|239:348|251:316|282:302|282:302|318:334|380:323,1,375,4|0,0:0|0:0,0:0:0:0:
471,245,7734,6,0,B|473:296|492:330|492:330|443:325|355:345|355:345|347:242|398:182|398:182|394:150|394:150|437:103|414:28,1,550,4|0,0:0|0:0,0:0:0:0:
411,28,9434,2,0,L|442:22,1,16.6666666666667
406,15,9534,1,8,0:0:0:0:
406,15,10134,6,0,B|450:27|450:27|478:64|455:147|358:124|358:124|343:105|343:105|272:70|222:130,1,375,4|0,0:0|0:0,0:0:0:0:
162,191,11334,6,0,B|189:151|233:152|233:152|108:140|72:44|72:44|114:69|157:43,1,375,4|0,0:0|0:0,0:0:0:0:
298,4,12534,6,4,B|219:86|227:238|227:238|266:188|338:182|338:182|366:288|304:358|304:358|271:312|211:312,1,675
202,330,14634,1,0,2:0:0:0:
0,259,14934,6,0,B|12:202|84:205|84:205|119:247|176:219,1,187.500007152558,4|0,0:2|0:0,0:0:0:0:
173,368,15384,2,0,B|117:386|84:322|84:322|103:270|50:235,1,187.500007152558,4|0,0:2|0:0,0:0:0:0:
198,234,15834,2,0,B|204:255|194:271|194:271|162:284|156:322,1,75.0000028610231,4|0,0:0|2:0,3:0:0:0:
25,49,16134,6,0,B|56:27|56:27|219:85,1,187.500007152558,4|0,0:2|0:0,0:0:0:0:
258,20,16584,2,0,B|292:35|292:35|323:206,1,187.500007152558,4|0,0:0|0:0,0:0:0:0:
400,201,17034,2,0,B|402:227|402:227|347:289,1,75.0000028610231,4|0,0:2|2:0,0:0:0:0:
180,371,17334,5,12,0:0:0:0:
118,350,17409,1,8,0:0:0:0:
91,290,17484,1,8,0:0:0:0:
107,227,17559,1,8,0:0:0:0:
161,191,17634,1,8,0:0:0:0:
220,192,17709,1,0,0:0:0:0:
258,231,17784,2,0,P|265:258|256:286,1,50,8|8,0:0|0:0,0:0:0:0:
159,375,17934,5,8,0:0:0:0:
164,346,18009,1,8,0:0:0:0:
167,316,18084,1,8,0:0:0:0:
171,286,18159,1,8,0:0:0:0:
152,262,18234,5,8,0:0:0:0:
148,242,18309,1,8,0:0:0:0:
144,222,18384,1,8,0:0:0:0:
140,203,18459,1,8,0:0:0:0:
163,167,18534,6,0,P|99:182|2:211,1,150.000005722046,4|0,2:0|2:0,0:0:0:0:
23,283,19734,6,0,P|43:340|111:337,1,110.000003356934,4|10,0:2|0:2,0:0:0:0:
168,173,20034,2,0,P|178:210|166:240,1,55.0000016784668,2|0,0:2|0:0,0:0:0:0:
139,293,20184,1,10,0:2:0:0:
27,103,20334,1,0,0:0:0:0:
44,84,20409,1,0,0:0:0:0:
67,75,20484,1,10,0:2:0:0:
91,77,20559,1,0,0:0:0:0:
108,56,20634,5,2,0:2:0:0:
139,86,20709,1,0,0:0:0:0:
182,89,20784,1,10,0:2:0:0:
310,20,20934,6,0,B|301:70|301:70|305:80|305:80|291:158,1,110.000003356934,2|10,0:2|0:2,0:0:0:0:
441,242,21234,2,0,L|431:170,1,55.0000016784668,2|0,0:2|0:0,0:0:0:0:
423,117,21384,1,10,0:2:0:0:
316,328,21534,6,0,P|313:306|285:294,1,55.0000016784668,2|0,0:2|0:0,0:0:0:0:
220,218,21684,2,0,P|211:238|181:242,1,55.0000016784668,10|0,0:2|0:0,0:0:0:0:
105,326,21834,1,2,0:2:0:0:
61,317,21909,1,0,0:0:0:0:
17,309,21984,1,8,0:0:0:0:
72,14,22134,6,0,B|88:72|88:72|68:143|68:143|105:248,1,220.000006713867,4|2,0:0|0:2,0:0:0:0:
111,235,22509,1,0,0:0:0:0:
111,235,22584,1,10,0:2:0:0:
205,126,22734,5,2,0:2:0:0:
205,126,22809,1,0,0:0:0:0:
205,126,22884,2,0,L|290:113,1,55.0000016784668,10|0,0:2|0:0,0:0:0:0:
363,245,23034,1,2,0:2:0:0:
336,236,23109,1,0,0:0:0:0:
309,227,23184,1,10,0:2:0:0:
455,235,23334,6,0,P|410:273|374:339,1,110.000003356934,2|10,0:2|0:2,0:0:0:0:
242,273,23634,2,0,P|269:300|273:332,1,55.0000016784668,2|0,0:2|0:0,0:0:0:0:
278,384,23784,1,10,0:2:0:0:
364,182,23934,6,0,B|354:167|354:167|309:150,1,55.0000016784668,2|0,0:2|0:0,0:0:0:0:
145,85,24084,2,0,B|155:100|155:100|200:117,1,55.0000016784668,10|0,0:2|0:0,0:0:0:0:
335,12,24234,1,2,0:2:0:0:
292,24,24309,1,0,0:0:0:0:
281,67,24384,1,8,0:0:0:0:
236,243,24534,6,0,B|258:226|258:226|171:197,1,110.000003356934,4|10,0:0|0:2,0:0:0:0:
33,246,24834,2,0,P|21:216|20:185,1,55.0000016784668,2|0,0:2|0:0,0:0:0:0:
65,124,24984,1,10,0:2:0:0:
103,309,25134,1,2,0:2:0:0:
124,312,25209,1,0,0:0:0:0:
145,314,25284,1,10,0:2:0:0:
166,316,25359,1,0,0:0:0:0:
197,343,25434,5,2,0:2:0:0:
240,337,25509,1,0,0:0:0:0:
283,331,25584,1,8,0:0:0:0:
383,209,25734,6,0,B|386:230|386:230|357:334,1,110.000003356934,2|10,0:2|0:2,0:0:0:0:
243,91,26034,2,0,L|256:165,1,55.0000016784668,2|0,0:2|0:0,0:0:0:0:
268,219,26184,1,10,0:2:0:0:
482,58,26334,6,0,P|456:52|448:11,1,55.0000016784668,2|0,0:2|0:0,0:0:0:0:
376,130,26484,2,0,P|361:107|385:72,1,55.0000016784668,8|0,0:2|0:0,0:0:0:0:
288,35,26634,1,2,0:2:0:0:
319,3,26709,1,0,0:0:0:0:
362,0,26784,1,8,0:0:0:0:
252,145,26934,6,0,B|197:162|146:113|177:81|125:29|46:73,1,220.000006713867,4|2,0:0|0:2,0:0:0:0:
48,91,27309,1,0,0:0:0:0:
48,91,27384,1,10,0:2:0:0:
254,3,27534,5,2,0:2:0:0:
254,3,27609,1,0,0:0:0:0:
254,3,27684,2,0,L|246:66,1,55.0000016784668,10|0,0:2|0:0,0:0:0:0:
166,147,27834,1,2,0:2:0:0:
171,173,27909,1,0,0:0:0:0:
176,199,27984,1,8,0:0:0:0:
292,356,28134,5,8,0:0:0:0:
338,317,28209,1,8,0:0:0:0:
345,257,28284,1,8,0:0:0:0:
311,206,28359,1,8,0:0:0:0:
252,190,28434,5,0,0:0:0:0:
247,168,28509,1,0,0:0:0:0:
243,146,28584,2,0,L|231:87,1,55.0000016784668,8|8,0:0|0:0,0:0:0:0:
143,183,28733,5,8,0:0:0:0:
141,204,28808,1,8,0:0:0:0:
139,226,28884,2,0,L|131:280,1,55.0000016784668,8|8,0:0|0:0,0:0:0:0:
42,79,29034,5,8,0:0:0:0:
45,68,29109,1,8,0:0:0:0:
52,60,29184,1,8,0:0:0:0:
62,55,29259,1,8,0:0:0:0:
71,54,29334,6,0,B|72:81|92:101|92:101|54:134|48:229,1,150,4|0,0:0|0:0,0:0:0:0:
24,190,29634,2,0,B|40:162|40:162|135:179,1,100,10|0,0:0|0:0,0:0:0:0:
170,317,29934,2,0,B|125:334|125:334|75:298,1,100,2|0,0:0|0:0,0:0:0:0:
233,132,30234,2,0,B|243:186|243:186|240:191|240:191|250:249,1,100,10|0,0:0|0:0,0:0:0:0:
444,323,30534,6,0,B|398:294|398:294|237:353,1,200,2|10,0:0|0:0,0:0:0:0:
384,384,30984,1,0,0:0:0:0:
236,204,31134,1,2,0:0:0:0:
393,265,31284,1,0,0:0:0:0:
192,382,31434,2,0,P|130:356|89:351,1,100,10|0,0:0|0:0,0:0:0:0:
131,88,31734,6,0,L|160:268,1,150,2|0,0:0|0:0,0:0:0:0:
168,254,32034,2,0,B|126:277|126:277|69:253,1,100,10|0,0:0|0:0,0:0:0:0:
217,107,32334,1,2,0:0:0:0:
301,195,32484,2,0,B|354:181|354:181|358:174|358:174|400:163,1,100,0|10,0:0|0:0,0:0:0:0:
220,86,32784,1,0,0:0:0:0:
307,270,32934,5,2,0:0:0:0:
348,103,33084,1,0,0:0:0:0:
189,203,33234,1,10,0:0:0:0:
143,0,33384,1,0,0:0:0:0:
345,123,33534,6,0,P|391:129|413:71,1,100,4|0,0:0|0:0,0:0:0:0:
124,15,33834,6,0,P|127:61|77:89,1,100,12|0,0:2|0:0,0:0:0:0:
254,305,34134,6,0,P|239:193|210:66,1,200,4|10,0:0|0:0,0:0:0:0:
332,245,34584,1,0,0:0:0:0:
137,189,34734,1,2,0:0:0:0:
330,102,34884,1,0,0:0:0:0:
157,290,35034,2,0,L|38:267,1,100,10|0,0:0|0:0,0:0:0:0:
232,29,35334,6,0,B|260:17|272:-4|272:-4|243:161,1,200,4|10,0:0|0:0,0:0:0:0:
289,303,35784,1,0,0:0:0:0:
131,145,35934,1,2,0:0:0:0:
219,367,36084,1,0,0:0:0:0:
331,190,36234,2,0,B|360:162|399:165|399:165|449:199,1,100,10|0,0:0|0:0,0:0:0:0:
211,353,36534,6,0,B|188:313|188:313|105:272|44:329,1,200,4|10,0:0|0:0,0:0:0:0:
239,159,36984,1,0,0:0:0:0:
117,384,37134,1,2,0:0:0:0:
51,89,37284,1,0,0:0:0:0:
251,242,37434,2,0,P|260:189|286:121,1,100,10|0,0:0|0:0,0:0:0:0:
119,16,37734,6,0,B|75:18|63:61|63:61|77:121|77:121|82:129|82:129|94:186,1,200,2|10,0:0|0:0,0:0:0:0:
216,336,38184,1,0,0:0:0:0:
274,145,38334,2,0,B|322:136|322:136|332:130|332:130|382:119,1,100,2|0,0:0|0:0,0:0:0:0:
502,0,38634,5,8,0:0:0:0:
429,284,38784,1,8,0:0:0:0:
272,50,38934,6,0,B|257:79|257:79|280:168,1,100,4|0,0:0|0:0,0:0:0:0:
438,182,39234,2,0,B|446:133|446:133|393:98,1,100,10|0,0:0|0:0,0:0:0:0:
255,237,39534,2,0,B|303:247|303:247|312:244|312:244|380:257,1,100,2|0,0:0|0:0,0:0:0:0:
183,102,39834,2,0,P|136:113|131:165,1,100,10|0,0:0|0:0,0:0:0:0:
157,351,40134,6,0,B|168:319|193:309|193:309|92:327|45:269,1,200,2|10,0:0|0:0,0:0:0:0:
15,369,40584,1,0,0:0:0:0:
201,220,40734,1,2,0:0:0:0:
39,284,40884,1,0,0:0:0:0:
231,373,41034,2,0,L|342:349,1,100,10|0,0:0|0:0,0:0:0:0:
452,167,41334,6,0,B|402:186|402:186|439:349,1,200,2|10,0:0|0:0,0:0:0:0:
305,240,41784,2,0,B|313:196|313:196|312:187|312:187|323:130,1,100,0|2,0:0|0:0,0:0:0:0:
430,99,42084,2,0,B|421:55|421:55|422:46|422:46|412:-11,1,100,0|10,0:0|0:0,0:0:0:0:
191,79,42384,1,0,0:0:0:0:
267,151,42534,2,0,B|289:179|289:179|269:246|269:246|252:265|252:265|230:351,1,200,2|10,0:0|0:0,0:0:0:0:
320,311,42984,1,0,0:0:0:0:
101,57,43134,6,0,P|65:74|64:134,1,100,4|0,0:0|0:0,0:0:0:0:
404,189,43434,6,0,P|359:145|390:92,1,100,12|0,0:2|0:0,0:0:0:0:
80,320,43734,6,0,B|133:347|170:287|170:287|209:227|279:271,1,200,4|10,0:0|0:0,0:0:0:0:
126,170,44184,1,0,0:0:0:0:
241,376,44334,1,2,0:0:0:0:
76,241,44484,1,0,0:0:0:0:
270,238,44634,2,0,P|320:269|368:315,1,100,10|0,0:0|0:0,0:0:0:0:
218,0,44934,6,0,B|221:34|249:56|249:56|200:195,1,200,4|10,0:0|0:0,0:0:0:0:
133,43,45384,1,0,0:0:0:0:
328,157,45534,1,2,0:0:0:0:
95,158,45684,1,0,0:0:0:0:
349,32,45834,2,0,P|396:65|392:113,1,100,10|0,0:0|0:0,0:0:0:0:
239,337,46134,6,0,B|210:308|184:309|184:309|247:239|326:258,1,200,4|10,0:0|0:0,0:0:0:0:
489,134,46584,1,0,0:0:0:0:
386,378,46734,1,2,0:0:0:0:
307,97,46884,1,0,0:0:0:0:
482,248,47034,2,0,B|496:260|499:280|499:280|487:311|455:342,1,100,10|0,0:0|0:0,0:0:0:0:
312,83,47334,5,8,0:0:0:0:
349,42,47409,1,8,0:0:0:0:
402,30,47484,1,8,0:0:0:0:
493,99,47634,1,8,0:0:0:0:
363,209,47784,5,8,0:0:0:0:
349,215,47859,1,8,0:0:0:0:
334,214,47934,1,8,0:0:0:0:
268,179,48084,1,8,0:0:0:0:
193,66,48234,5,8,0:0:0:0:
191,79,48384,1,8,0:0:0:0:
72,131,48534,5,4,0:2:0:0:
170,248,48684,1,0,0:0:0:0:
63,358,48834,2,0,B|26:288|72:207|72:207|108:202|134:169,1,209.999993591309,10|2,0:2|0:2,0:0:0:0:
220,9,49284,5,0,0:0:0:0:
55,120,49434,1,10,0:2:0:0:
246,195,49584,1,0,0:0:0:0:
95,27,49734,5,2,0:2:0:0:
44,246,49884,1,0,0:0:0:0:
233,115,50034,2,0,P|294:103|354:80,1,104.999996795654,10|0,0:2|0:0,0:0:0:0:
197,18,50334,1,0,0:0:0:0:
259,211,50484,2,0,L|466:251,1,209.999993591309,2|10,0:2|0:2,0:0:0:0:
249,343,50934,6,0,B|198:362|198:362|99:273,1,157.499995193482,4|0,0:2|0:0,0:0:0:0:
144,270,51234,2,0,B|134:315|134:315|136:324|136:324|119:381,1,104.999996795654,10|0,0:2|0:0,0:0:0:0:
55,119,51534,1,2,0:2:0:0:
240,262,51684,1,0,0:0:0:0:
25,256,51834,1,10,0:2:0:0:
145,154,51984,1,0,0:0:0:0:
24,364,52134,5,2,0:2:0:0:
64,147,52284,1,0,0:0:0:0:
254,277,52434,2,0,B|371:252,1,104.999996795654,10|0,0:2|0:0,0:0:0:0:
489,114,52734,1,2,0:2:0:0:
389,45,52884,5,8,0:0:0:0:
479,282,53034,1,8,0:0:0:0:
486,30,53184,1,8,0:0:0:0:
311,128,53334,5,4,0:0:0:0:
389,237,53484,1,0,0:0:0:0:
506,116,53634,2,0,B|461:58|352:113|379:131|332:153|270:133,1,209.999993591309,10|2,0:2|0:2,0:0:0:0:
220,21,54084,5,0,0:0:0:0:
401,117,54234,1,10,0:2:0:0:
228,24,54384,1,0,0:0:0:0:
302,235,54534,5,2,0:2:0:0:
376,24,54684,1,0,0:0:0:0:
216,134,54834,2,0,P|156:106|158:76,1,104.999996795654,10|0,0:2|0:0,0:0:0:0:
403,190,55134,1,2,0:2:0:0:
317,101,55285,2,0,B|280:198|269:305,1,209.999993591309,0|0,0:2|0:2,0:0:0:0:
486,325,55734,5,4,0:0:0:0:
291,233,55884,1,0,0:0:0:0:
485,118,56034,1,10,0:2:0:0:
317,155,56184,1,0,0:0:0:0:
465,238,56334,5,2,0:2:0:0:
511,47,56484,1,0,0:0:0:0:
340,175,56634,1,10,0:2:0:0:
288,39,56784,1,0,0:0:0:0:
494,156,56934,5,8,0:0:0:0:
184,247,57084,1,8,0:0:0:0:
411,31,57234,1,8,0:0:0:0:
307,362,57384,1,8,0:0:0:0:
184,35,57534,6,0,P|208:98|219:159,1,104.999996795654,8|0,0:0|0:0,0:0:0:0:
411,31,57834,1,8,0:0:0:0:
216,362,58134,6,0,P|209:323|152:303,1,100,4|0,0:0|0:0,0:0:0:0:
72,240,58359,1,0,0:0:0:0:
85,248,58434,2,0,P|44:294|-9:293,1,100,10|0,0:0|0:0,0:0:0:0:
117,0,58734,5,2,0:0:0:0:
183,116,58884,1,0,0:0:0:0:
24,181,59034,2,0,P|47:137|56:86,1,100,10|0,0:0|0:0,0:0:0:0:
337,1,59334,6,0,B|291:22|291:22|313:70|319:172,1,200,2|10,0:0|0:0,0:0:0:0:
196,101,59784,1,0,0:0:0:0:
399,58,59934,1,2,0:0:0:0:
208,0,60084,1,0,0:0:0:0:
401,148,60234,2,0,L|524:126,1,100,10|0,0:0|0:0,0:0:0:0:
421,257,60459,5,0,0:0:0:0:
412,271,60534,2,0,B|379:298|379:298|221:218,1,200,2|10,0:0|0:0,0:0:0:0:
90,318,60984,2,0,B|109:363|109:363|185:356,1,100,0|2,0:0|0:0,0:0:0:0:
117,196,61284,2,0,B|75:207|75:207|68:213|68:213|-10:234,1,100,0|10,0:0|0:0,0:0:0:0:
137,15,61584,1,0,0:0:0:0:
223,83,61734,6,0,B|320:103|320:103|330:118|330:118|425:135,1,200,2|10,0:0|0:0,0:0:0:0:
400,50,62184,1,0,0:0:0:0:
296,303,62334,6,0,P|333:318|341:379,1,100,4|0,0:0|0:0,0:0:0:0:
159,121,62634,6,0,P|172:87|243:87,1,100,12|0,0:2|0:0,0:0:0:0:
353,190,62934,6,0,P|265:208|169:237,1,150,4|0,0:0|0:0,0:0:0:0:
194,236,63234,1,10,0:0:0:0:
134,139,63384,2,0,P|96:192|63:215,1,100,0|2,0:0|0:0,0:0:0:0:
158,354,63684,2,0,P|232:334|286:346,1,100,0|10,0:0|0:0,0:0:0:0:
103,290,63984,1,0,0:0:0:0:
391,211,64134,6,0,P|372:271|362:338,1,100,4|0,0:0|0:0,0:0:0:0:
211,63,64434,2,0,P|230:123|240:190,1,100,10|0,0:0|0:0,0:0:0:0:
397,2,64734,1,2,0:0:0:0:
324,157,64884,1,0,0:0:0:0:
211,28,65034,2,0,L|71:48,1,100,10|0,0:0|0:0,0:0:0:0:
69,254,65334,6,0,B|88:195|162:207|162:207|192:260|273:244,1,200,4|10,0:0|0:0,0:0:0:0:
39,118,65784,1,0,0:0:0:0:
146,351,65934,1,2,0:0:0:0:
211,87,66084,1,0,0:0:0:0:
6,204,66234,2,0,P|25:259|35:331,1,100,10|0,0:0|0:0,0:0:0:0:
340,204,66534,6,0,B|325:156|267:134|213:178|213:178|243:165|276:186,1,200,4|10,0:0|0:0,0:0:0:0:
369,107,66984,1,0,0:0:0:0:
283,331,67134,5,8,0:0:0:0:
204,56,67284,1,8,0:0:0:0:
447,243,67434,1,8,0:0:0:0:
510,6,67584,1,8,0:0:0:0:
278,192,67734,6,0,B|250:196|236:210|236:210|203:158|134:150,1,150,4|0,0:0|0:0,0:0:0:0:
152,124,68034,2,0,B|171:138|171:138|140:224,1,100,10|0,0:0|0:0,0:0:0:0:
0,286,68334,2,0,L|18:395,1,100,2|0,0:0|0:0,0:0:0:0:
39,154,68634,2,0,P|15:167|52:167,1,100,10|0,0:0|0:0,0:0:0:0:
155,328,68934,6,0,B|183:337|216:324|244:275|229:270|218:261|249:209|299:209|322:233,1,200,2|10,0:0|0:0,0:0:0:0:
152,251,69384,1,0,0:0:0:0:
321,360,69534,1,2,0:0:0:0:
148,237,69684,1,0,0:0:0:0:
399,174,69834,2,0,P|375:228|368:286,1,100,10|0,0:0|0:0,0:0:0:0:
164,8,70134,6,0,B|177:59|177:59|211:83|211:83|225:142,1,150,2|0,0:0|0:0,0:0:0:0:
209,150,70434,1,10,0:0:0:0:
327,117,70584,2,0,B|308:185|308:185|331:236|331:236|308:313,1,200
158,378,71034,2,0,L|141:280,1,100,10|0,0:0|0:0,0:0:0:0:
4,116,71334,6,0,B|38:123|59:153|59:153|114:107|197:108,1,200,2|10,0:0|0:0,0:0:0:0:
61,51,71784,1,0,0:0:0:0:
183,213,71934,6,0,P|218:231|198:305,1,100,4|0,0:0|0:0,0:0:0:0:
446,53,72234,6,0,P|390:28|395:-7,1,100,12|0,0:2|0:0,0:0:0:0:
353,361,72534,6,0,P|366:257|386:159,1,200,4|10,0:0|0:0,0:0:0:0:
303,36,72984,1,0,0:0:0:0:
457,217,73134,1,2,0:0:0:0:
427,7,73284,1,0,0:0:0:0:
262,144,73434,2,0,L|149:123,1,100,10|0,0:0|0:0,0:0:0:0:
4,16,73734,6,0,B|30:32|30:32|31:37|31:37|44:54|44:54|-14:122|43:164|-4:208,1,200,4|10,0:0|0:0,0:0:0:0:
159,284,74184,1,0,0:0:0:0:
39,124,74334,1,2,0:0:0:0:
16,340,74484,1,0,0:0:0:0:
194,167,74634,2,0,P|249:193|316:211,1,100,10|0,0:0|0:0,0:0:0:0:
512,327,74934,6,0,B|511:289|466:274|466:274|429:286|405:310|405:310|376:287|319:303,1,200,4|10,0:0|0:0,0:0:0:0:
512,167,75384,1,0,0:0:0:0:
419,384,75534,1,2,0:0:0:0:
306,129,75684,1,0,0:0:0:0:
490,252,75834,2,0,B|499:216|499:216|492:196|492:196|504:144,1,100,10|0,0:0|3:0,0:0:0:0:
375,8,76134,5,8,0:0:0:0:
357,65,76209,1,8,0:0:0:0:
302,90,76284,1,8,0:0:0:0:
243,77,76359,1,8,0:0:0:0:
184,90,76434,1,8,0:0:0:0:
147,137,76509,1,8,0:0:0:0:
156,196,76584,5,8,0:0:0:0:
178,176,76659,1,8,0:0:0:0:
187,147,76734,1,8,0:0:0:0:
182,117,76809,1,8,0:0:0:0:
145,80,76884,5,8,0:0:0:0:
138,87,76959,1,8,0:0:0:0:
128,91,77034,1,8,0:0:0:0:
118,91,77109,1,8,0:0:0:0:
108,88,77184,1,8,0:0:0:0:
99,82,77259,1,8,0:0:0:0:
74,45,77334,6,0,L|384:78,1,300.000011444092,4|0,2:0|2:0,0:0:0:0:
372,76,78834,5,8,0:0:0:0:
371,69,78909,1,8,0:0:0:0:
370,62,78984,1,8,0:0:0:0:
369,55,79059,1,8,0:0:0:0:
367,48,79134,2,0,L|358:-4,1,37.5000014305115,8|8,0:0|0:0,0:0:0:0:
459,171,79284,5,8,0:0:0:0:
460,164,79359,1,8,0:0:0:0:
461,157,79434,1,8,0:0:0:0:
462,150,79509,1,8,0:0:0:0:
464,143,79584,2,0,L|473:91,1,37.5000014305115,8|8,0:0|0:0,0:0:0:0:
369,235,79734,5,12,0:0:0:0:
265,0,79884,1,0,0:0:0:0:
496,115,80034,1,8,0:0:0:0:
185,211,80184,5,0,0:0:0:0:
379,30,80334,1,10,0:2:0:0:
339,307,80484,1,0,0:0:0:0:
152,72,80634,6,0,B|104:86|104:86|100:94|100:94|28:114,1,119.999996337891,10|0,0:2|0:0,0:0:0:0:
60,299,80934,2,0,B|44:278|18:270|18:270|125:200|195:236,1,239.999992675781,10|10,3:2|3:2,3:0:0:0:
292,384,81384,1,0,0:0:0:0:
462,248,81534,6,0,P|405:243|356:172,1,119.999996337891,10|0,0:2|0:0,0:0:0:0:
235,22,81834,2,0,P|287:39|271:110,1,119.999996337891,10|0,0:2|0:0,0:0:0:0:
47,284,82134,5,12,0:0:0:0:
300,167,82284,1,0,0:0:0:0:
62,53,82434,1,10,0:2:0:0:
173,320,82584,5,0,0:0:0:0:
230,37,82734,1,10,0:2:0:0:
0,179,82884,1,0,0:0:0:0:
252,251,83034,6,0,B|287:260|287:260|382:217,1,119.999996337891,10|0,0:2|0:0,0:0:0:0:
441,19,83334,5,10,0:2:0:0:
376,327,83484,1,0,0:0:0:0:
491,86,83634,1,10,0:2:0:0:
217,155,83784,5,0,0:0:0:0:
460,295,83934,1,10,0:2:0:0:
276,78,84084,1,0,0:0:0:0:
182,318,84234,6,0,B|139:303|139:303|123:284|123:284|71:266,1,119.999996337891,10|0,0:2|0:0,0:0:0:0:
394,57,84534,5,10,0:2:0:0:
310,348,84684,1,0,0:0:0:0:
255,2,84834,5,10,0:2:0:0:
438,245,84984,1,0,0:0:0:0:
155,137,85134,5,10,0:2:0:0:
412,31,85284,1,0,0:0:0:0:
240,311,85434,5,10,0:2:0:0:
161,38,85584,1,0,0:0:0:0:
399,153,85734,5,10,0:2:0:0:
213,240,85884,1,0,0:0:0:0:
404,321,86034,5,10,0:2:0:0:
225,166,86184,1,0,0:0:0:0:
501,166,86334,5,10,0:2:0:0:
300,278,86484,1,0,0:0:0:0:
478,384,86634,5,12,0:2:0:0:
488,376,86709,1,0,0:0:0:0:
503,349,86784,1,0,0:0:0:0:
503,301,86859,1,0,0:0:0:0:
456,255,86934,5,12,0:0:0:0:
185,375,87084,1,0,0:0:0:0:
486,336,87234,1,10,0:2:0:0:
263,145,87384,5,0,0:0:0:0:
399,384,87534,1,10,0:2:0:0:
363,93,87684,1,0,0:0:0:0:
190,268,87834,6,0,P|207:325|216:384,1,119.999996337891,10|0,0:2|0:0,0:0:0:0:
449,149,88134,2,0,B|474:121|503:117|503:117|435:27|325:109,1,239.999992675781,10|10,0:2|0:2,0:0:0:0:
291,261,88584,1,0,0:0:0:0:
361,1,88734,1,10,0:2:0:0:
417,225,88884,1,0,0:0:0:0:
169,30,89034,2,0,P|192:81|209:149,1,119.999996337891,10|0,0:2|0:0,0:0:0:0:
247,328,89334,5,12,0:0:0:0:
347,93,89484,1,0,0:0:0:0:
110,187,89634,1,10,0:2:0:0:
376,255,89784,5,0,0:0:0:0:
170,110,89934,1,10,0:2:0:0:
331,345,90084,1,0,0:0:0:0:
278,57,90234,6,0,P|249:113|229:188,1,119.999996337891,10|0,0:2|0:0,0:0:0:0:
89,358,90534,2,0,P|67:273|0:119,1,239.999992675781,10|10,0:2|0:2,0:0:0:0:
61,22,90984,1,0,0:0:0:0:
286,221,91134,6,0,B|341:209|341:209|354:194|354:194|398:182,1,119.999996337891,10|0,0:2|0:0,0:0:0:0:
221,32,91434,2,0,P|168:48|156:111,1,119.999996337891,10|0,0:2|0:0,0:0:0:0:
178,142,91659,1,0,0:0:0:0:
178,142,91734,5,12,0:0:0:0:
228,270,91884,2,0,L|188:400,1,119.999996337891,0|10,0:0|0:2,0:0:0:0:
81,79,92184,5,0,0:0:0:0:
23,224,92334,2,0,L|63:354,1,119.999996337891,10|0,0:2|0:0,0:0:0:0:
243,145,92634,6,0,B|220:137|220:137|158:169|158:169|127:159,1,119.999996337891,10|0,0:2|0:0,0:0:0:0:
291,335,92934,5,10,0:2:0:0:
382,260,93084,2,0,L|510:284,1,119.999996337891,0|10,0:0|0:2,0:0:0:0:
215,384,93384,5,0,0:0:0:0:
151,179,93534,2,0,L|23:203,1,119.999996337891,10|0,0:2|0:0,0:0:0:0:
272,305,93834,6,0,B|305:228|305:228|300:180,1,119.999996337891,10|0,0:2|0:0,0:0:0:0:
283,3,94134,5,10,0:2:0:0:
187,152,94284,1,0,0:0:0:0:
370,91,94434,2,0,P|365:47|291:26,1,119.999996337891,10|0,0:2|0:0,0:0:0:0:
35,252,94734,5,10,0:2:0:0:
75,56,94884,1,0,0:0:0:0:
211,180,95034,2,0,P|281:164|349:156,1,119.999996337891,10|0,0:2|0:0,0:0:0:0:
446,348,95334,5,10,0:2:0:0:
297,259,95484,1,0,0:0:0:0:
454,127,95634,2,0,B|487:174|487:174|466:244,1,119.999996337891,10|0,0:2|0:0,0:0:0:0:
221,57,95934,5,8,0:0:0:0:
270,22,96009,1,8,0:0:0:0:
329,26,96084,1,8,0:0:0:0:
292,339,96234,6,0,P|279:287|213:284,1,119.999996337891,4|0,0:2|0:0,0:0:0:0:
52,138,96534,5,10,0:2:0:0:
113,258,96684,2,0,L|86:407,1,119.999996337891,0|10,0:0|0:2,0:0:0:0:
283,64,96984,5,0,0:0:0:0:
195,223,97134,2,0,L|225:360,1,119.999996337891,10|0,0:2|0:0,0:0:0:0:
42,111,97434,6,0,B|80:77|122:73|122:73|170:91,1,119.999996337891,10|0,0:2|0:0,0:0:0:0:
309,285,97734,5,10,0:2:0:0:
128,166,97884,1,0,0:0:0:0:
290,107,98034,1,10,0:2:0:0:
100,315,98184,5,0,0:0:0:0:
167,64,98334,1,10,0:2:0:0:
285,216,98484,1,0,0:0:0:0:
59,238,98634,6,0,P|83:164|98:100,1,119.999996337891,10|0,0:2|0:0,0:0:0:0:
281,14,98934,5,8,0:0:0:0:
244,61,99009,1,8,0:0:0:0:
245,120,99084,1,8,0:0:0:0:
283,165,99159,1,8,0:0:0:0:
316,207,99234,1,0,0:0:0:0:
319,254,99309,1,0,0:0:0:0:
296,289,99384,5,8,0:0:0:0:
265,269,99459,1,8,0:0:0:0:
229,271,99534,1,0,0:0:0:0:
201,294,99609,1,0,0:0:0:0:
188,327,99684,5,8,0:0:0:0:
205,330,99759,1,8,0:0:0:0:
218,342,99834,1,8,0:0:0:0:
228,356,99909,1,8,0:0:0:0:
226,373,99984,6,0,P|206:367|212:334,1,59.9999981689454
321,153,100134,6,0,L|334:107,1,33.3333333333333,8|0,0:0|0:0,0:0:0:0:
331,121,100734,6,0,B|343:96|314:79|324:45|324:45|295:85|234:72,1,150,4|0,0:0|0:0,0:0:0:0:
115,156,101034,2,0,B|147:146|176:186|176:186|166:152|195:135|183:110,1,150,4|0,0:2|0:0,0:0:0:0:
77,70,101334,6,0,P|174:89|290:97,1,200,4|10,0:0|0:0,0:0:0:0:
189,12,101784,1,0,0:0:0:0:
206,213,101934,5,2,0:0:0:0:
115,156,102084,1,0,0:0:0:0:
295,96,102234,1,10,0:0:0:0:
195,120,102384,1,0,0:0:0:0:
334,240,102534,6,0,B|366:240|387:276|387:276|356:212|404:111,1,200,2|10,0:0|0:0,0:0:0:0:
446,78,102984,1,0,0:0:0:0:
284,130,103134,5,2,0:0:0:0:
362,58,103284,1,0,0:0:0:0:
267,7,103434,1,10,0:0:0:0:
188,85,103584,1,0,0:0:0:0:
296,246,103734,6,0,B|367:261|367:261|421:244,2,100,4|0|10,0:0|0:0|0:0,0:0:0:0:
222,319,104184,1,0,0:0:0:0:
120,172,104334,2,0,P|152:222|135:286,1,100,2|0,0:0|0:0,0:0:0:0:
297,40,104634,2,0,P|273:94|258:155,1,100,10|0,0:0|0:0,0:0:0:0:
69,43,104934,5,2,0:0:0:0:
167,1,105084,1,0,0:0:0:0:
207,100,105234,1,10,0:0:0:0:
109,141,105384,1,0,0:0:0:0:
3,230,105534,5,2,0:0:0:0:
52,316,105684,1,0,0:0:0:0:
177,165,105834,1,10,0:0:0:0:
117,218,105984,1,0,0:0:0:0:
295,291,106134,6,0,P|226:276|62:249,1,200,4|10,0:0|0:0,0:0:0:0:
173,344,106584,1,0,0:0:0:0:
289,193,106734,5,2,0:0:0:0:
263,120,106884,1,0,0:0:0:0:
150,197,107034,1,10,0:0:0:0:
213,286,107184,1,0,0:0:0:0:
365,133,107334,6,0,B|464:182|380:233|478:288,1,200,4|10,0:0|0:0,0:0:0:0:
508,200,107784,1,0,0:0:0:0:
351,324,107934,5,2,0:0:0:0:
292,273,108084,1,0,0:0:0:0:
214,173,108234,1,10,0:0:0:0:
137,228,108384,1,0,0:0:0:0:
23,336,108534,5,0,0:0:0:0:
77,368,108634,1,0,0:0:0:0:
139,354,108734,1,2,0:2:0:0:
178,304,108834,1,8,0:0:0:0:
229,266,108934,1,2,0:2:0:0:
293,266,109034,1,0,0:0:0:0:
334,314,109134,5,2,0:2:0:0:
267,357,109234,1,0,0:0:0:0:
192,330,109334,1,2,0:2:0:0:
161,256,109434,1,8,0:0:0:0:
189,181,109534,1,2,0:2:0:0:
169,104,109634,1,0,0:0:0:0:
98,65,109734,6,0,P|129:132|191:285,1,200,4|10,0:0|0:0,0:0:0:0:
247,142,110184,1,0,0:0:0:0:
28,277,110334,5,8,0:0:0:0:
277,368,110484,1,8,0:0:0:0:
131,157,110634,1,8,0:0:0:0:
377,71,110784,1,8,0:0:0:0:
137,329,110934,6,0,B|116:347|107:368|107:368|48:298|86:202,1,200,4|10,0:0|0:0,0:0:0:0:
163,123,111384,1,0,0:0:0:0:
32,42,111534,5,2,0:0:0:0:
61,115,111684,1,0,0:0:0:0:
155,205,111834,1,10,0:0:0:0:
127,281,111984,1,0,0:0:0:0:
236,61,112134,6,0,B|258:22|258:22|425:58,1,200,4|10,0:0|0:0,0:0:0:0:
502,77,112584,1,0,0:0:0:0:
304,166,112734,5,2,0:0:0:0:
344,88,112884,1,0,0:0:0:0:
466,198,113034,1,10,0:0:0:0:
375,259,113184,1,0,0:0:0:0:
449,364,113334,6,0,B|403:378|403:378|357:354,2,100,4|0|10,0:0|0:0|0:0,0:0:0:0:
347,258,113784,1,0,0:0:0:0:
238,384,113934,2,0,P|218:316|196:265,1,100,2|0,0:0|0:0,0:0:0:0:
359,143,114234,2,0,P|341:189|328:237,1,100,10|0,0:0|0:0,0:0:0:0:
204,0,114534,5,4,0:0:0:0:
244,145,114684,1,0,0:0:0:0:
340,36,114834,1,10,0:0:0:0:
219,3,114984,1,0,0:0:0:0:
350,153,115134,5,2,0:0:0:0:
256,229,115284,1,0,0:0:0:0:
193,80,115434,5,8,0:0:0:0:
351,297,115584,1,8,0:0:0:0:
82,372,115734,6,0,P|100:273|130:178,1,200,4|10,0:0|0:0,0:0:0:0:
63,52,116184,1,0,0:0:0:0:
207,147,116334,5,2,0:0:0:0:
138,104,116484,1,0,0:0:0:0:
272,191,116634,1,10,0:0:0:0:
303,2,116784,1,0,0:0:0:0:
35,138,116934,6,0,B|22:181|73:205|73:205|208:167,1,200,4|10,0:0|0:0,0:0:0:0:
241,75,117384,1,0,0:0:0:0:
74,16,117534,5,2,0:0:0:0:
116,84,117684,1,0,0:0:0:0:
33,236,117834,1,10,0:0:0:0:
125,70,117984,1,0,0:0:0:0:
270,192,118134,5,4,0:0:0:0:
295,247,118234,1,0,0:0:0:0:
287,308,118334,1,2,0:2:0:0:
246,356,118434,1,8,0:0:0:0:
186,375,118534,1,2,0:2:0:0:
127,357,118634,1,0,0:0:0:0:
85,309,118734,5,2,0:2:0:0:
143,256,118834,1,0,0:0:0:0:
222,255,118934,1,2,0:2:0:0:
287,299,119034,1,8,0:0:0:0:
339,358,119134,1,2,0:2:0:0:
417,368,119234,1,0,0:0:0:0:
484,326,119334,5,12,0:2:0:0:
307,110,119484,1,0,0:0:0:0:
190,383,119634,1,0,0:0:0:0:
431,80,119784,5,12,0:2:0:0:
306,314,119934,1,0,0:0:0:0:
256,36,120084,1,0,0:0:0:0:
445,231,120234,5,12,0:2:0:0:
512,0,120384,1,0,0:0:0:0:
301,188,120534,5,8,0:0:0:0:
252,212,120609,1,8,0:0:0:0:
199,196,120684,1,8,0:0:0:0:
173,148,120759,1,8,0:0:0:0:
169,94,120834,1,8,0:0:0:0:
135,51,120909,1,8,0:0:0:0:
83,32,120984,1,8,0:0:0:0:
34,54,121059,1,8,0:0:0:0:
8,102,121134,5,8,0:0:0:0:
27,126,121209,1,8,0:0:0:0:
55,134,121284,1,8,0:0:0:0:
84,131,121359,1,8,0:0:0:0:
124,144,121434,5,8,0:0:0:0:
134,133,121509,1,8,0:0:0:0:
148,128,121584,1,8,0:0:0:0:
163,128,121659,1,8,0:0:0:0:
197,102,121734,6,0,B|227:195|227:195|193:253,1,150,4|0,0:0|0:0,0:0:0:0:
181,228,122034,2,0,B|223:216|223:216|243:224|243:224|308:210,1,100,10|0,0:0|0:0,0:0:0:0:
384,82,122334,2,0,B|359:92|359:92|374:180,1,100,2|0,0:0|0:0,0:0:0:0:
454,302,122634,2,0,B|422:265|422:265|358:273,1,100,10|0,0:0|0:0,0:0:0:0:
143,310,122934,6,0,B|141:284|120:265|120:265|230:281|215:385,1,200,2|10,0:0|0:0,0:0:0:0:
247,187,123384,1,0,0:0:0:0:
70,345,123534,1,2,0:0:0:0:
126,120,123684,1,0,0:0:0:0:
238,280,123834,2,0,P|292:256|348:240,1,100,10|0,0:0|0:0,0:0:0:0:
467,89,124134,6,0,B|442:98|433:126|433:126|456:228,1,150,2|0,0:0|0:0,0:0:0:0:
465,237,124434,1,10,0:0:0:0:
335,141,124584,2,0,P|279:166|233:179,1,100,0|2,0:0|0:0,0:0:0:0:
472,272,124884,1,0,0:0:0:0:
375,363,125034,2,0,P|298:332|266:322,1,100,10|0,0:0|0:0,0:0:0:0:
81,300,125334,6,0,B|101:322|101:322|169:305|169:305|186:270|186:270|282:248,1,200,2|10,0:0|0:0,0:0:0:0:
332,242,125784,1,0,0:0:0:0:
124,14,125934,6,0,P|65:28|61:67,1,100,4|0,0:0|0:0,0:0:0:0:
245,256,126234,6,0,P|229:180|222:128,1,100,12|0,0:2|0:0,0:0:0:0:
479,15,126534,6,0,B|461:43|434:48|434:48|408:211,1,200,4|10,0:0|0:0,0:0:0:0:
294,37,126984,1,0,0:0:0:0:
512,132,127134,1,2,0:0:0:0:
361,0,127284,1,0,0:0:0:0:
312,198,127434,2,0,P|341:260|352:310,1,100,10|0,0:0|0:0,0:0:0:0:
108,56,127734,6,0,B|160:24|160:24|199:39|218:65|218:65|261:52|293:65,1,200,4|10,0:0|0:0,0:0:0:0:
87,158,128184,1,0,0:0:0:0:
233,13,128334,1,2,0:0:0:0:
193,264,128484,1,0,0:0:0:0:
94,68,128634,2,0,B|48:75|48:75|42:82|42:82|0:90,1,100,10|0,0:0|0:0,0:0:0:0:
31,330,128934,6,0,B|69:341|110:306|110:306|110:293|110:293|156:254|213:291,1,200,4|10,0:0|0:0,0:0:0:0:
7,219,129384,1,0,0:0:0:0:
197,373,129534,1,2,0:0:0:0:
0,206,129684,1,0,0:0:0:0:
236,119,129834,2,0,B|241:148|241:148|211:236,1,100,10|0,0:0|0:0,0:0:0:0:
21,67,130134,6,0,B|44:25|44:25|126:0|193:66,1,200,4|10,0:0|0:0,0:0:0:0:
87,251,130584,1,0,0:0:0:0:
116,104,130734,5,8,0:0:0:0:
287,267,130884,1,8,0:0:0:0:
112,97,131034,1,8,0:0:0:0:
203,374,131184,1,8,0:0:0:0:
203,374,131259,1,0,0:0:0:0:
203,374,131334,6,0,B|284:353|284:353|290:345|290:345|369:327,1,150,4|0,0:0|0:0,0:0:0:0:
354,297,131634,2,0,B|393:325|393:325|380:386,1,100,10|0,0:0|0:0,0:0:0:0:
217,271,131934,2,0,B|231:223|231:223|237:217|237:217|252:159,1,100,2|0,0:0|0:0,0:0:0:0:
405,123,132234,2,0,B|401:95|401:95|301:71,1,100,10|0,3:0|3:0,3:0:0:0:
79,7,132534,6,0,B|112:27|112:27|137:100|141:215,1,200,2|10,0:0|0:0,0:0:0:0:
236,7,132984,1,0,0:0:0:0:
47,135,133134,1,2,0:0:0:0:
209,234,133284,1,0,0:0:0:0:
84,353,133434,2,0,P|67:280|41:223,1,100,10|0,0:0|0:0,0:0:0:0:
37,227,133659,1,0,0:0:0:0:
37,227,133734,5,2,0:0:0:0:
178,354,133884,2,0,P|229:331|285:319,1,100,0|10,0:0|0:0,0:0:0:0:
381,150,134184,2,0,B|278:146|326:235|190:234,1,200,0|0,0:0|3:0,3:0:0:0:
134,76,134634,2,0,P|184:99|189:152,1,100,10|0,0:0|0:0,0:0:0:0:
57,347,134934,6,0,B|40:317|5:316|5:316|150:285,1,200,2|10,0:0|0:0,0:0:0:0:
232,258,135384,1,0,0:0:0:0:
414,361,135534,6,0,P|457:329|445:286,1,100,4|0,0:0|0:0,0:0:0:0:
289,96,135834,6,0,P|246:115|248:162,1,100,12|0,0:2|0:0,0:0:0:0:
218,358,136134,6,0,B|278:369|278:369|347:236,1,200,4|10,0:0|0:0,0:0:0:0:
304,80,136584,1,0,0:0:0:0:
462,256,136734,1,2,0:0:0:0:
240,259,136884,1,0,0:0:0:0:
423,116,137034,2,0,B|485:141|485:141|512:188,1,100,10|0,0:0|0:0,0:0:0:0:
236,268,137334,6,0,B|173:239|173:239|157:180|157:180|74:142,1,200,4|10,0:0|0:0,0:0:0:0:
253,110,137784,1,0,0:0:0:0:
77,255,137934,1,2,0:0:0:0:
161,71,138084,1,0,0:0:0:0:
285,200,138234,2,0,B|339:181|339:181|340:175|340:175|381:161,1,100,10|0,0:0|0:0,0:0:0:0:
111,2,138534,6,0,B|93:30|66:38|66:38|103:109|56:188,1,200,4|10,0:0|0:0,0:0:0:0:
119,317,138984,1,0,0:0:0:0:
187,61,139134,1,2,0:0:0:0:
0,225,139284,1,0,0:0:0:0:
198,162,139434,2,0,P|215:225|220:272,1,100,10|0,0:0|0:0,0:0:0:0:
31,328,139734,6,0,B|57:293|57:293|216:269,1,179.999994506836,2|0,0:0|0:0,0:0:0:0:
289,347,140034,5,8,3:0:0:0:
264,295,140109,1,8,3:0:0:0:
274,242,140184,1,8,3:0:0:0:
319,211,140259,1,8,3:0:0:0:
374,213,140334,2,8,P|381:240|375:287,1,50,8|8,3:0|3:0,3:0:0:0:
253,153,140484,5,8,3:0:0:0:
205,138,140559,1,8,3:0:0:0:
162,153,140634,2,0,P|131:183|122:210,1,50,8|8,3:0|3:0,3:0:0:0:
367,45,140784,5,8,3:0:0:0:
416,54,140859,1,8,3:0:0:0:
443,94,140934,6,0,L|146:51,1,300.000011444092,4|0,2:0|2:0,0:0:0:0:
146,51,142434,5,8,0:0:0:0:
147,58,142509,1,8,0:0:0:0:
148,65,142584,1,8,0:0:0:0:
149,72,142659,1,8,0:0:0:0:
151,79,142734,2,0,L|160:131,1,37.5000014305115,8|8,0:0|0:0,0:0:0:0:
260,152,142884,5,8,0:0:0:0:
259,159,142959,1,8,0:0:0:0:
258,166,143034,1,8,0:0:0:0:
257,173,143109,1,8,0:0:0:0:
255,180,143184,2,0,L|246:232,1,37.5000014305115,8|8,0:0|0:0,0:0:0:0:
132,263,143334,5,12,0:0:0:0:
359,122,143484,1,0,0:0:0:0:
290,365,143634,1,8,0:0:0:0:
218,85,143784,5,0,0:0:0:0:
417,262,143934,1,10,0:2:0:0:
168,334,144084,1,0,0:0:0:0:
328,102,144234,6,0,B|355:85|355:85|465:121,1,119.999996337891,10|0,0:2|0:0,0:0:0:0:
313,274,144534,2,0,B|260:307|197:256|229:221|154:175|92:223,1,239.999992675781,10|10,0:2|0:2,0:0:0:0:
290,195,144984,1,0,0:0:0:0:
124,334,145134,6,0,P|58:303|6:287,1,119.999996337891,10|0,0:2|0:0,0:0:0:0:
174,89,145434,1,10,0:2:0:0:
34,126,145584,1,0,0:0:0:0:
34,126,145659,1,0,0:0:0:0:
34,126,145734,5,12,0:0:0:0:
288,304,145884,1,0,0:0:0:0:
104,38,146034,1,10,0:2:0:0:
110,361,146184,5,0,0:0:0:0:
269,80,146334,1,10,0:2:0:0:
215,384,146484,1,0,0:0:0:0:
93,160,146634,6,0,B|121:169|121:169|156:283,1,119.999996337891,10|0,0:2|0:0,0:0:0:0:
359,30,146934,5,10,0:2:0:0:
222,282,147084,1,0,0:0:0:0:
496,203,147234,1,10,0:2:0:0:
206,122,147384,5,0,0:0:0:0:
469,49,147534,1,10,0:2:0:0:
346,314,147684,1,0,0:0:0:0:
233,40,147834,6,0,B|183:29|183:29|166:38|166:38|107:26,1,119.999996337891,10|0,0:2|0:0,0:0:0:0:
265,316,148134,5,10,0:2:0:0:
348,37,148284,1,0,0:0:0:0:
114,226,148434,5,10,0:2:0:0:
372,275,148584,1,0,0:0:0:0:
160,35,148734,5,10,0:2:0:0:
199,329,148884,1,0,0:0:0:0:
372,115,149034,5,10,0:2:0:0:
289,381,149184,1,0,0:0:0:0:
108,118,149334,5,10,0:2:0:0:
286,202,149484,1,0,0:0:0:0:
89,253,149634,5,10,0:2:0:0:
241,128,149784,1,0,0:0:0:0:
43,47,149934,5,8,0:0:0:0:
0,89,150009,1,8,0:0:0:0:
6,147,150085,2,0,P|24:171|50:186,1,59.9999981689454
156,309,150234,5,12,0:2:0:0:
151,320,150309,1,0,0:0:0:0:
129,342,150384,1,0,0:0:0:0:
83,354,150459,1,0,0:0:0:0:
26,321,150534,5,12,0:0:0:0:
200,98,150684,1,0,0:0:0:0:
246,377,150834,1,10,0:2:0:0:
96,80,150984,5,0,0:0:0:0:
261,305,151134,1,10,0:2:0:0:
278,12,151284,1,0,0:0:0:0:
117,228,151434,6,0,P|140:278|167:353,1,119.999996337891,10|0,0:2|0:0,0:0:0:0:
372,71,151734,2,0,B|363:106|319:125|319:125|281:110|281:110|271:110|271:110|237:102|237:102|206:131|152:123,1,239.999992675781,10|10,0:2|0:2,0:0:0:0:
296,33,152184,1,0,0:0:0:0:
259,244,152334,1,10,0:2:0:0:
175,22,152484,1,0,0:0:0:0:
394,184,152634,2,0,B|376:231|376:231|380:242|380:242|354:301,1,119.999996337891,10|0,0:2|0:0,0:0:0:0:
60,104,152934,5,10,0:2:0:0:
262,220,153084,1,0,0:0:0:0:
53,311,153234,1,10,0:2:0:0:
289,95,153384,5,0,0:0:0:0:
100,232,153534,1,10,0:2:0:0:
170,0,153684,1,0,0:0:0:0:
316,172,153834,6,0,P|380:155|439:143,1,119.999996337891,10|0,0:2|0:0,0:0:0:0:
246,291,154134,2,0,B|222:262|186:256|186:256|152:156|152:156|117:158|83:137,1,239.999992675781,10|10,0:2|0:2,0:0:0:0:
249,183,154584,1,0,0:0:0:0:
89,335,154734,2,0,P|33:307|46:252,1,119.999996337891,10|0,0:2|0:0,0:0:0:0:
105,46,155034,2,0,P|70:92|54:164,1,119.999996337891,10|0,0:2|0:0,0:0:0:0:
181,343,155334,5,12,0:0:0:0:
281,280,155484,2,0,B|345:292|345:292|351:288|351:288|404:296,1,119.999996337891,0|10,0:0|0:2,0:0:0:0:
167,358,155784,5,0,0:0:0:0:
126,196,155934,2,0,B|62:208|62:208|56:204|56:204|3:212,1,119.999996337891,10|0,0:2|0:0,0:0:0:0:
246,24,156234,6,0,B|259:64|259:64|244:93|244:93|261:146,1,119.999996337891,10|0,0:2|0:0,0:0:0:0:
412,318,156534,5,10,0:2:0:0:
468,146,156684,2,0,P|477:205|499:286,1,119.999996337891,0|10,0:0|0:2,0:0:0:0:
346,352,156984,5,0,0:0:0:0:
275,100,157134,2,0,P|266:159|244:240,1,119.999996337891,10|0,0:2|0:0,0:0:0:0:
494,5,157434,6,0,P|451:62|418:46,1,119.999996337891,10|0,0:2|0:0,0:0:0:0:
355,202,157734,5,10,0:2:0:0:
480,90,157884,1,0,0:0:0:0:
306,33,158034,2,0,B|275:21|275:21|186:47,1,119.999996337891,10|0,0:2|0:0,0:0:0:0:
14,10,158334,5,10,0:2:0:0:
149,123,158484,1,0,0:0:0:0:
32,273,158634,2,0,P|19:208|-7:143,1,119.999996337891,10|0,0:2|0:0,0:0:0:0:
223,207,158934,5,10,0:2:0:0:
64,84,159084,1,0,0:0:0:0:
104,335,159234,2,0,B|163:317|163:317|167:310|167:310|236:293,1,119.999996337891,10|0,0:2|0:0,0:0:0:0:
301,53,159534,6,0,P|237:74|240:117,1,119.999996337891,4|0,0:1|0:0,0:0:0:0:
288,372,159834,6,0,P|302:293|328:236,1,119.999996337891,12|0,0:1|0:0,0:0:0:0:
154,50,160134,5,8,0:0:0:0:
305,173,160284,2,0,B|388:152|388:152|431:101,1,119.999996337891,0|10,0:0|0:2,0:0:0:0:
149,234,160584,5,0,0:0:0:0:
237,24,160734,2,0,B|320:44|320:44|363:95,1,119.999996337891,10|0,0:2|0:0,0:0:0:0:
76,152,161034,6,0,B|66:132|44:117|44:117|77:22,1,119.999996337891,10|0,0:2|0:0,0:0:0:0:
360,262,161334,5,8,0:0:0:0:
348,332,161409,1,8,0:0:0:0:
288,361,161484,1,8,0:0:0:0:
231,340,161559,1,8,0:0:0:0:
193,293,161634,1,0,0:0:0:0:
136,272,161709,1,0,0:0:0:0:
79,292,161784,5,8,0:0:0:0:
98,322,161859,1,8,0:0:0:0:
129,340,161934,1,0,0:0:0:0:
164,338,162009,1,0,0:0:0:0:
193,317,162084,1,8,0:0:0:0:
206,283,162159,1,8,0:0:0:0:
200,247,162234,5,8,0:0:0:0:
184,255,162309,1,8,0:0:0:0:
166,253,162384,1,8,0:0:0:0:
150,243,162459,1,8,0:0:0:0:
144,228,162534,6,0,B|117:248|117:248|33:221,1,89.9999972534181,4|0,0:0|0:0,0:0:0:0:
0,100,162834,2,0,B|40:75|40:75|87:91,1,89.9999972534181,2|0,0:2|0:0,0:0:0:0:
164,152,163134,1,10,0:2:0:0:
163,164,163284,1,0,0:0:0:0:
238,83,163434,1,2,0:2:0:0:
237,71,163584,1,0,0:0:0:0:
377,123,163734,6,0,L|362:225,1,89.9999972534181,2|0,0:2|0:0,0:0:0:0:
455,339,164034,2,0,B|455:316|455:316|371:304,1,89.9999972534181
267,212,164334,5,8,0:0:0:0:
311,378,164484,1,0,0:0:0:0:
189,282,164634,1,2,0:2:0:0:
134,373,164784,1,0,0:0:0:0:
15,281,164934,6,0,B|25:268|25:268|109:280,1,89.9999972534181,2|0,0:2|0:0,0:0:0:0:
112,144,165234,2,0,B|120:157|120:157|197:172,1,89.9999972534181,2|0,0:2|0:0,0:0:0:0:
265,300,165534,1,10,0:2:0:0:
249,305,165684,1,0,0:0:0:0:
314,206,165834,1,2,0:2:0:0:
330,211,165984,1,0,0:0:0:0:
271,19,166134,6,0,B|252:28|252:28|228:65|237:117,1,89.9999972534181,2|0,0:2|0:0,0:0:0:0:
414,165,166434,2,0,B|409:131|390:106|390:106|354:97,1,89.9999972534181,2|0,0:2|0:0,0:0:0:0:
152,283,166734,5,10,0:2:0:0:
359,221,166884,1,0,0:0:0:0:
163,132,167034,1,2,0:2:0:0:
284,167,167184,1,0,0:0:0:0:
69,270,167334,6,0,B|60:204|60:204|65:197|65:197|51:110,1,134.999995880127,6|0,0:2|0:0,0:0:0:0:
31,121,167634,2,0,B|62:85|62:85|116:96,1,89.9999972534181
202,7,167934,1,10,0:2:0:0:
199,22,168084,1,0,0:0:0:0:
270,110,168234,1,0,0:0:0:0:
268,94,168384,1,0,0:0:0:0:
364,24,168534,6,0,L|470:37,1,89.9999972534181,2|0,0:2|0:0,0:0:0:0:
381,208,168834,2,0,B|406:197|406:197|399:119,1,89.9999972534181,2|0,0:2|0:0,0:0:0:0:
196,73,169134,1,10,0:2:0:0:
303,238,169284,1,0,0:0:0:0:
307,39,169434,1,2,0:2:0:0:
216,157,169584,1,0,0:0:0:0:
93,7,169734,6,0,B|102:42|102:42|96:56|96:56|109:107,1,89.9999972534181,2|0,0:2|0:0,0:0:0:0:
197,146,170034,2,0,L|181:244,1,89.9999972534181,2|0,0:2|0:0,0:0:0:0:
47,262,170334,1,10,0:2:0:0:
44,247,170484,1,0,0:0:0:0:
115,331,170634,1,2,0:2:0:0:
112,346,170784,1,0,0:0:0:0:
198,259,170934,6,0,B|208:270|229:279|229:279|295:262,1,89.9999972534181,2|0,0:2|0:0,0:0:0:0:
298,365,171234,2,0,B|308:354|329:345|329:345|395:362,1,89.9999972534181,2|0,0:2|0:0,0:0:0:0:
499,163,171534,1,8,0:0:0:0:
268,259,171684,1,8,0:0:0:0:
490,291,171834,1,8,0:0:0:0:
361,184,171984,1,8,0:0:0:0:
467,29,172134,6,0,P|463:50|434:70,1,44.999998626709,4|0,0:2|0:0,0:0:0:0:
458,146,172284,2,0,P|437:153|405:137,1,44.999998626709,0|0,3:0|3:0,3:0:0:0:
352,196,172434,2,0,B|286:152|342:133|261:90,1,134.999995880127,0|0,3:0|3:0,3:0:0:0:
262,116,172734,6,0,P|301:95|351:77,1,89.9999972534181,8|0,0:0|0:0,0:0:0:0:
208,18,173034,1,0,0:0:0:0:
193,9,173184,1,0,0:0:0:0:
76,85,173334,6,0,P|96:136|128:239,1,134.999995880127,2|0,0:2|0:0,0:0:0:0:
93,228,173634,2,0,P|115:200|143:189,1,44.999998626709
176,136,173784,2,0,P|211:141|234:159,1,44.999998626709
297,253,173934,5,10,0:2:0:0:
211,179,174084,1,0,0:0:0:0:
118,363,174234,1,0,0:0:0:0:
206,331,174384,1,0,0:0:0:0:
27,206,174534,6,0,B|36:225|30:247|30:247|95:252|114:300,1,134.999995880127,2|0,0:2|0:0,0:0:0:0:
132,72,174834,2,0,B|120:89|97:95|97:95|126:153|94:194,1,134.999995880127
268,147,175134,2,0,B|251:138|244:126|244:126|217:141|171:134,1,89.9999972534181,10|0,0:2|0:0,0:0:0:0:
273,266,175434,1,0,0:0:0:0:
263,268,175584,6,0,L|195:279,1,44.999998626709
341,188,175734,2,0,L|365:124,1,44.999998626709,2|0,0:2|0:0,0:0:0:0:
371,295,175884,2,0,L|425:347,1,44.999998626709,0|0,3:0|3:0,3:0:0:0:
252,186,176034,2,0,L|145:90,1,134.999995880127
175,28,176334,5,10,0:2:0:0:
44,193,176484,1,0,0:0:0:0:
176,173,176634,1,0,0:0:0:0:
68,113,176784,1,0,0:0:0:0:
200,292,176934,6,0,P|177:292|150:270,1,44.999998626709,4|0,0:2|0:0,0:0:0:0:
84,314,177084,2,0,P|70:295|78:260,1,44.999998626709,0|0,3:0|3:0,3:0:0:0:
31,200,177234,2,0,B|75:134|93:189|137:109,1,134.999995880127,0|0,3:0|3:0,3:0:0:0:
98,98,177534,6,0,P|117:152|129:213,1,89.9999972534181,10|0,0:2|0:0,0:0:0:0:
228,43,177834,1,0,0:0:0:0:
215,29,177984,6,0,P|202:67|204:90,1,44.999998626709
196,243,178134,2,0,P|163:202|228:156,1,134.999995880127,2|0,0:2|0:0,0:0:0:0:
287,97,178434,2,0,P|292:149|371:135,1,134.999995880127
405,215,178734,6,0,P|339:196|302:190,1,89.9999972534181,10|0,0:2|0:0,0:0:0:0:
426,0,179034,2,0,P|418:21|403:42,1,44.999998626709
482,108,179184,2,0,P|481:131|488:156,1,44.999998626709
378,347,179334,6,0,L|413:174,1,134.999995880127,2|0,0:2|0:0,0:0:0:0:
313,219,179634,2,0,L|215:71,1,134.999995880127
87,155,179934,6,0,L|176:174,1,89.9999972534181,10|0,0:2|0:0,0:0:0:0:
205,18,180234,1,0,0:0:0:0:
191,22,180384,1,0,0:0:0:0:
22,81,180534,6,0,P|36:136|51:229,1,134.999995880127,2|0,0:2|0:0,0:0:0:0:
125,237,180834,2,0,P|111:292|96:385,1,134.999995880127
5,278,181134,5,10,0:2:0:0:
132,224,181284,1,0,0:0:0:0:
180,384,181434,1,8,0:0:0:0:
88,355,181584,1,8,0:0:0:0:
217,213,181734,6,0,P|222:233|253:250,1,44.999998626709,4|0,0:2|0:0,0:0:0:0:
236,328,181884,2,0,P|257:333|288:314,1,44.999998626709,0|0,3:0|3:0,3:0:0:0:
346,369,182034,2,0,B|407:319|350:305|427:255,1,134.999995880127,0|0,3:0|3:0,3:0:0:0:
426,283,182334,6,0,P|384:260|329:242,1,89.9999972534181,10|0,0:2|0:0,0:0:0:0:
490,152,182634,1,0,0:0:0:0:
475,157,182784,1,0,0:0:0:0:
340,9,182934,6,0,P|360:60|392:163,1,134.999995880127,2|0,0:2|0:0,0:0:0:0:
408,120,183234,2,0,P|390:106|368:99,1,44.999998626709,0|0,3:0|3:0,3:0:0:0:
288,85,183384,2,0,P|256:101|241:126,1,44.999998626709,0|0,3:0|3:0,3:0:0:0:
221,245,183534,5,10,0:2:0:0:
327,184,183684,1,0,0:0:0:0:
188,71,183834,1,0,0:0:0:0:
258,115,183984,1,0,0:0:0:0:
88,172,184134,6,0,B|47:124|63:80|63:80|78:102|112:111,1,134.999995880127,2|0,0:2|0:0,0:0:0:0:
147,225,184434,2,0,B|125:284|79:292|79:292|91:268|82:234,1,134.999995880127
164,148,184734,2,0,B|208:139|230:165|230:165|211:166|193:184,1,89.9999972534181,10|0,0:2|0:0,0:0:0:0:
22,222,185034,1,0,0:0:0:0:
9,215,185184,6,0,P|30:187|58:184,1,44.999998626709
21,310,185334,2,0,P|42:338|70:341,1,44.999998626709,2|0,0:2|0:0,0:0:0:0:
132,175,185484,2,0,P|166:179|183:201,1,44.999998626709
207,318,185634,2,0,P|136:279|75:255,1,134.999995880127
9,215,185934,5,10,0:2:0:0:
128,378,186084,1,0,0:0:0:0:
285,272,186234,1,0,0:0:0:0:
247,384,186384,1,0,0:0:0:0:
156,189,186534,6,0,P|176:180|209:192,1,44.999998626709,4|0,0:2|0:0,0:0:0:0:
247,117,186684,2,0,P|267:124|282:156,1,44.999998626709
350,187,186834,2,0,B|414:228|370:247|434:292,1,134.999995880127
446,271,187134,6,0,P|385:282|342:300,1,89.9999972534181,10|0,0:2|0:0,0:0:0:0:
248,370,187434,1,0,0:0:0:0:
233,363,187584,6,0,P|261:343|287:337,1,44.999998626709
236,175,187734,2,0,P|205:245|171:321,1,134.999995880127,2|0,0:2|0:0,0:0:0:0:
56,254,188034,2,0,P|83:325|113:403,1,134.999995880127
119,180,188334,6,0,P|83:219|50:209,1,89.9999972534181,10|0,0:2|0:0,0:0:0:0:
34,15,188634,2,0,P|65:31|99:33,1,44.999998626709
121,96,188784,2,0,P|152:80|186:78,1,44.999998626709
358,7,188934,6,0,L|197:33,1,134.999995880127,2|0,0:2|0:0,0:0:0:0:
274,108,189234,2,0,L|178:240,1,134.999995880127
298,326,189534,6,0,L|285:238,1,89.9999972534181,10|0,0:2|3:0,3:0:0:0:
479,144,189834,1,8,0:0:0:0:
393,384,189984,1,8,0:0:0:0:
242,98,190134,6,0,B|269:56|269:56|360:50|333:120|442:86,1,200,4|0,0:0|0:0,0:0:0:0:
490,22,190584,1,0,0:0:0:0:
256,207,190734,6,0,B|209:244|163:205|163:205|142:145|74:155,1,200,8|0,0:0|0:0,0:0:0:0:
59,82,191184,1,0,0:0:0:0:
405,183,191334,6,0,P|382:239|366:309,2,100,4|0|0,0:2|0:0|0:0,0:0:0:0:
484,130,191784,1,0,0:0:0:0:
472,344,191934,2,0,P|423:321|281:258,1,200,10|0,0:2|0:0,0:0:0:0:
269,181,192384,1,0,0:0:0:0:
151,338,192534,6,0,L|38:308,2,100,2|0|0,0:2|0:0|0:0,0:0:0:0:
228,293,192984,1,0,0:0:0:0:
71,92,193134,6,0,P|33:136|61:178,1,100,10|0,0:2|0:0,0:0:0:0:
215,6,193434,2,0,P|230:63|245:142,1,100
461,52,193734,6,0,B|436:79|415:90|415:90|434:157|434:157|396:180|387:216,1,200,4|0,0:0|0:0,0:0:0:0:
213,207,194184,2,0,P|283:213|316:341,1,200
432,353,194634,2,0,P|412:296|441:274,1,100
204,78,194934,5,8,0:0:0:0:
270,364,195084,1,8,0:0:0:0:
344,171,195234,1,8,0:0:0:0:
121,253,195384,5,8,0:0:0:0:
249,283,195534,1,8,0:0:0:0:
211,201,195684,1,8,0:0:0:0:
114,338,195834,5,8,0:0:0:0:
127,334,195984,1,8,0:0:0:0:
36,172,196134,6,0,B|9:155|9:155|30:234,1,104.999996795654,4|0,0:2|0:0,0:0:0:0:
204,78,196434,1,0,0:0:0:0:
55,17,196584,1,0,0:0:0:0:
176,196,196734,2,0,B|146:183|146:183|223:155,1,104.999996795654,10|0,3:2|0:0,0:0:0:0:
463,26,197034,1,0,0:0:0:0:
362,257,197184,1,0,0:0:0:0:
307,98,197334,6,0,B|328:103|353:81|353:81|333:107|337:135,1,104.999996795654,2|0,0:2|0:0,0:0:0:0:
315,343,197634,1,0,0:0:0:0:
478,232,197784,1,0,0:0:0:0:
245,298,197934,2,0,B|230:313|236:346|236:346|224:316|197:305,1,104.999996795654,10|0,3:2|3:0,0:0:0:0:
315,120,198234,1,0,0:0:0:0:
398,366,198384,1,0,0:0:0:0:
208,229,198534,6,0,B|199:199|167:191|167:191|188:213|180:248,1,104.999996795654,4|0,0:2|0:0,0:0:0:0:
46,367,198834,1,2,0:2:0:0:
201,307,198984,1,0,0:0:0:0:
61,169,199134,2,0,B|34:185|34:218|34:218|50:192|86:191,1,104.999996795654,10|0,3:2|3:0,3:0:0:0:
207,384,199434,1,2,0:2:0:0:
2,303,199584,1,0,0:0:0:0:
156,128,199734,6,0,B|173:136|196:130|196:130|178:156|135:165,1,104.999996795654,2|0,0:2|0:0,0:0:0:0:
21,90,200034,1,2,0:2:0:0:
187,20,200184,1,0,0:0:0:0:
71,192,200334,6,8,B|52:195|37:213|37:213|36:181|66:149,1,104.999996795654,10|0,0:2|0:0,0:0:0:0:
171,19,200634,1,2,0:2:0:0:
272,99,200784,1,0,0:0:0:0:
431,62,200934,6,0,B|420:44|402:37|396:15|396:15|384:41|385:75,1,104.999996795654,4|0,0:0|0:0,0:0:0:0:
405,269,201234,1,2,0:2:0:0:
286,113,201384,1,0,0:0:0:0:
478,242,201534,2,0,B|487:223|485:205|501:188|501:188|472:191|444:209,1,104.999996795654,10|0,3:2|0:0,0:0:0:0:
263,254,201834,1,2,0:2:0:0:
442,100,201984,1,0,0:0:0:0:
295,323,202134,6,0,B|281:344|229:350|229:350|254:328,1,104.999996795654,2|0,3:2|0:0,0:0:0:0:
122,169,202434,1,2,0:2:0:0:
310,200,202584,1,0,0:0:0:0:
126,344,202734,2,0,B|104:330|98:278|98:278|120:303,1,104.999996795654,10|0,3:2|0:0,0:0:0:0:
231,52,203034,1,2,0:2:0:0:
15,179,203184,1,0,0:0:0:0:
225,286,203334,6,0,B|234:271|251:263|251:263|215:233|233:177,1,104.999996795654,4|0,0:0|0:0,0:0:0:0:
102,26,203634,1,2,0:2:0:0:
157,243,203784,1,0,0:0:0:0:
265,29,203934,2,0,B|274:44|291:52|291:52|255:82|273:138,1,104.999996795654,10|0,0:2|0:0,0:0:0:0:
318,304,204234,1,2,0:2:0:0:
202,164,204384,1,0,0:0:0:0:
260,360,204534,5,2,0:2:0:0:
337,149,204684,1,0,0:0:0:0:
161,268,204834,5,2,0:2:0:0:
153,239,204984,1,0,0:0:0:0:
341,277,205134,6,0,L|305:290,1,34.9999989318848,8|8,0:0|0:0,0:0:0:0:
106,358,205284,1,0,0:0:0:0:
250,178,205434,5,8,0:0:0:0:
113,117,205584,1,8,0:0:0:0:
230,349,205734,6,0,B|288:378|341:334|299:307|373:248|438:306,1,209.999993591309,4|0,0:2|0:0,0:0:0:0:
387,359,206184,1,0,0:0:0:0:
224,169,206334,2,0,P|244:231|252:289,1,104.999996795654,10|0,0:2|0:0,0:0:0:0:
433,115,206634,6,0,P|411:146|416:170,1,52.4999983978272,2|0,0:2|0:0,0:0:0:0:
427,110,206784,2,0,P|405:141|410:165,1,52.4999983978272
326,29,206934,6,0,B|287:49|287:49|173:27|173:27|132:55,1,209.999993591309,2|2,0:2|0:2,0:0:0:0:
60,0,207384,1,0,0:0:0:0:
195,124,207534,2,0,B|184:172|184:172|189:183|189:183|178:233,1,104.999996795654,10|0,0:2|0:0,0:0:0:0:
43,280,207834,1,2,0:2:0:0:
38,262,207984,1,0,0:0:0:0:
209,358,208134,6,0,B|247:322|289:338|289:338|310:302|310:302|357:316|400:284,1,209.999993591309,4|0,0:2|0:0,0:0:0:0:
341,217,208584,1,0,0:0:0:0:
486,319,208734,2,0,L|446:84,1,209.999993591309,10|2,0:2|0:2,0:0:0:0:
289,28,209184,5,0,0:0:0:0:
289,28,209259,1,0,0:0:0:0:
289,28,209334,2,0,B|340:47|335:121|265:135|213:107|189:72,1,209.999993591309,2|2,0:2|0:2,0:0:0:0:
67,0,209784,1,0,0:0:0:0:
50,153,209934,2,0,B|161:116|75:42|180:1,1,209.999993591309,10|2,0:2|0:2,0:0:0:0:
40,73,210384,1,0,0:0:0:0:
204,226,210534,5,4,0:2:0:0:
219,198,210609,1,0,0:0:0:0:
211,167,210684,1,0,0:0:0:0:
35,265,210834,1,2,0:2:0:0:
201,363,210984,1,0,0:0:0:0:
136,185,211134,6,0,P|117:246|99:304,1,104.999996795654,10|0,0:2|0:0,0:0:0:0:
235,280,211434,2,0,P|242:332|251:384,1,104.999996795654,2|0,0:2|0:0,0:0:0:0:
398,218,211734,5,2,0:2:0:0:
279,92,211884,1,0,0:0:0:0:
371,9,212034,2,0,B|354:80|354:80|358:86|358:86|329:204,1,157.499995193482,2|0,0:2|0:0,0:0:0:0:
306,171,212334,2,0,B|319:192|319:192|416:192,1,104.999996795654,10|0,0:2|0:0,0:0:0:0:
281,8,212634,1,2,0:2:0:0:
206,250,212784,1,0,0:0:0:0:
41,96,212934,6,0,P|61:151|76:223,2,104.999996795654,6|0|2,0:2|0:0|0:2,0:0:0:0:
89,3,213384,1,0,0:0:0:0:
172,160,213534,2,0,P|134:237|83:366,1,209.999993591309,10|2,0:2|0:2,0:0:0:0:
35,269,213984,1,0,0:0:0:0:
219,353,214134,6,0,L|331:321,2,104.999996795654,2|0|2,0:2|0:0|0:2,0:0:0:0:
312,230,214584,1,0,0:0:0:0:
414,378,214734,5,8,0:0:0:0:
210,234,214884,1,8,0:0:0:0:
401,158,215034,1,8,0:0:0:0:
342,307,215184,1,8,0:0:0:0:
254,42,215334,5,4,0:2:0:0:
290,17,215409,1,0,0:0:0:0:
333,13,215484,1,0,0:0:0:0:
371,34,215559,1,0,0:0:0:0:
390,73,215634,2,0,P|391:113|370:133,1,55.0000016784668
334,265,215784,5,0,0:2:0:0:
290,257,215859,1,0,0:0:0:0:
257,229,215934,1,10,0:2:0:0:
245,187,216009,1,0,0:0:0:0:
258,144,216084,2,0,P|285:115|314:115,1,55.0000016784668
458,235,216234,5,0,0:0:0:0:
468,248,216309,1,0,0:0:0:0:
472,264,216384,1,0,0:0:0:0:
472,280,216459,1,0,0:0:0:0:
466,295,216534,5,2,0:2:0:0:
422,302,216609,1,0,0:0:0:0:
378,309,216684,1,0,0:0:0:0:
334,317,216759,1,0,0:0:0:0:
290,325,216834,2,0,L|198:340,1,55.0000016784668
134,177,216984,5,0,0:0:0:0:
178,184,217059,1,0,0:0:0:0:
222,191,217134,1,10,0:2:0:0:
266,199,217209,1,0,0:0:0:0:
310,207,217284,2,0,L|402:222,1,55.0000016784668
164,278,217434,5,0,0:0:0:0:
147,280,217509,1,0,0:0:0:0:
130,282,217584,1,0,0:0:0:0:
113,285,217659,1,0,0:0:0:0:
96,288,217734,5,4,0:2:0:0:
66,273,217809,1,0,0:0:0:0:
51,243,217884,1,0,0:0:0:0:
54,210,217959,1,0,0:0:0:0:
72,182,218034,2,0,P|91:170|135:169,1,55.0000016784668
255,137,218184,5,0,0:0:0:0:
274,110,218259,1,0,0:0:0:0:
279,77,218334,1,10,0:2:0:0:
267,45,218409,1,0,0:0:0:0:
240,25,218484,2,0,P|220:17|180:25,1,55.0000016784668
83,70,218634,6,0,P|60:54|34:46,3,55.0000016784668
197,190,218934,5,2,0:2:0:0:
191,222,219009,1,0,0:0:0:0:
185,254,219084,1,0,0:0:0:0:
178,286,219159,1,0,0:0:0:0:
171,318,219234,2,0,L|160:372,1,55.0000016784668
51,310,219384,5,0,0:0:0:0:
45,278,219459,1,0,0:0:0:0:
39,246,219534,1,10,0:2:0:0:
32,214,219609,1,0,0:0:0:0:
25,182,219684,2,0,L|14:127,1,55.0000016784668
120,246,219834,6,0,L|209:226,3,55.0000016784668
246,139,220134,5,4,0:2:0:0:
286,176,220209,1,0,0:0:0:0:
292,230,220284,1,0,0:0:0:0:
272,281,220359,1,0,0:0:0:0:
226,311,220434,2,0,P|196:318|149:301,1,55.0000016784668
281,195,220584,5,0,3:0:0:0:
327,165,220659,1,0,3:0:0:0:
381,170,220734,1,10,3:2:0:0:
423,204,220809,1,0,3:0:0:0:
440,256,220884,2,0,P|438:286|410:327,1,55.0000016784668,0|0,3:0|3:0,3:0:0:0:
262,297,221034,5,0,0:0:0:0:
262,325,221109,1,0,0:0:0:0:
272,351,221184,1,0,0:0:0:0:
292,371,221259,1,0,0:0:0:0:
318,378,221334,5,2,3:2:0:0:
323,320,221409,1,0,3:0:0:0:
330,266,221484,1,0,3:0:0:0:
337,211,221559,1,0,3:0:0:0:
344,155,221634,2,0,L|353:54,1,55.0000016784668,0|0,3:0|3:0,3:0:0:0:
162,0,221784,5,0,3:0:0:0:
167,58,221859,1,0,3:0:0:0:
174,112,221934,1,10,3:2:0:0:
181,167,222009,1,0,3:0:0:0:
188,223,222084,2,0,L|197:323,1,55.0000016784668,0|0,3:0|3:0,3:0:0:0:
274,86,222234,5,0,0:0:0:0:
246,82,222309,1,0,0:0:0:0:
218,78,222384,1,0,0:0:0:0:
190,74,222459,1,0,0:0:0:0:
162,70,222534,5,4,0:2:0:0:
270,246,222684,1,0,0:0:0:0:
106,210,222834,5,2,0:2:0:0:
229,154,222984,1,0,0:0:0:0:
223,349,223134,5,10,0:2:0:0:
192,277,223284,1,0,0:0:0:0:
390,178,223434,5,2,0:2:0:0:
325,348,223584,1,0,0:0:0:0:
389,41,223734,6,0,B|339:50|344:102|344:102|342:96|342:96|339:154|273:160,1,172.500003290176,2|0,3:2|3:0,3:0:0:0:
300,137,224034,2,0,P|371:145|392:190,1,115.000002193451,8|0,0:0|0:0,0:0:0:0:
276,356,224334,5,8,0:0:0:0:
204,112,224484,1,8,0:0:0:0:
403,249,224634,1,8,0:0:0:0:
427,116,224784,1,0,0:0:0:0:
177,277,224934,6,0,B|109:258|109:258|159:249,1,115.000002193451,4|0,0:2|0:0,0:0:0:0:
263,196,225234,1,0,0:0:0:0:
122,368,225384,1,0,0:0:0:0:
111,153,225534,2,0,B|129:86|129:86|139:132,1,115.000002193451,10|0,0:2|0:0,0:0:0:0:
271,383,225834,1,0,0:0:0:0:
108,245,225984,1,0,0:0:0:0:
318,146,226134,5,10,0:2:0:0:
337,224,226284,1,8,0:0:0:0:
275,275,226434,1,10,0:2:0:0:
247,51,226584,5,0,0:0:0:0:
307,8,226734,2,0,P|373:31|411:72,1,115.000002193451,12|0,0:1|0:0,0:0:0:0:
235,186,227034,2,0,P|186:155|195:106,1,115.000002193451,2|0,0:2|0:0,0:0:0:0:
488,192,227334,6,0,B|501:217|492:239|492:239|495:248|495:248|463:239|440:255,1,115.000002193451,4|0,0:2|0:0,0:0:0:0:
316,157,227634,1,0,0:0:0:0:
504,78,227784,1,0,0:0:0:0:
299,247,227934,6,10,B|273:260|251:251|251:251|242:254|242:254|251:222|235:199,1,115.000002193451,10|0,0:2|0:0,0:2:0:0:
339,0,228234,1,2,0:2:0:0:
416,248,228384,1,0,0:0:0:0:
181,96,228534,5,10,0:2:0:0:
143,192,228684,1,8,0:0:0:0:
199,278,228834,1,10,0:2:0:0:
323,165,228984,5,8,0:0:0:0:
293,97,229134,2,0,B|222:71|222:71|166:84,1,115.000002193451,12|0,0:1|0:0,0:0:0:0:
120,267,229434,1,2,0:2:0:0:
47,74,229584,1,0,0:0:0:0:
229,202,229734,6,0,B|215:226|234:255|234:255|196:264|187:307,1,115.000002193451,4|0,0:2|0:0,0:0:0:0:
16,384,230034,1,0,0:0:0:0:
141,190,230184,1,0,0:0:0:0:
274,353,230334,2,0,B|298:339|327:358|327:358|336:320|379:311,1,115.000002193451,10|0,0:2|0:0,0:0:0:0:
459,173,230634,1,0,0:0:0:0:
232,284,230784,1,0,0:0:0:0:
467,366,230934,6,0,B|476:354|476:354|463:294,1,57.5000010967255,2|0,0:2|0:0,0:0:0:0:
476,361,231084,2,0,B|485:349|485:349|472:289,1,57.5000010967255
384,169,231234,6,0,P|331:197|342:248,1,115.000002193451,0|0,3:0|3:0,3:0:0:0:
491,179,231534,2,0,P|461:112|455:55,1,115.000002193451,10|0,0:2|0:0,0:0:0:0:
213,157,231834,1,0,0:0:0:0:
461,302,231984,1,0,0:0:0:0:
299,38,232134,5,12,0:2:0:0:
246,93,232234,2,0,L|277:196,1,76.6666681289673,0|0,2:0|2:0,0:0:0:0:
356,223,232434,1,0,0:0:0:0:
370,240,232534,2,0,L|357:327,1,76.6666681289673,0|0,2:0|2:0,0:0:0:0:
187,350,232734,5,0,0:0:0:0:
210,278,232834,2,0,L|296:258,1,76.6666681289673,0|0,2:0|2:0,0:0:0:0:
425,157,233034,5,8,0:0:0:0:
419,130,233134,2,0,L|333:110,1,76.6666681289673,0|0,2:0|2:0,0:0:0:0:
62,0,233334,5,8,0:0:0:0:
124,44,233434,1,8,0:0:0:0:
115,120,233534,1,8,0:0:0:0:
35,178,233634,5,8,0:0:0:0:
59,130,233734,1,8,0:0:0:0:
109,113,233834,1,8,0:0:0:0:
177,62,233934,5,8,0:0:0:0:
224,122,234034,1,8,0:0:0:0:
300,122,234134,1,8,0:0:0:0:
295,39,234234,5,8,0:0:0:0:
246,61,234334,1,8,0:0:0:0:
232,113,234434,1,8,0:0:0:0:
289,237,234534,6,0,B|383:171|366:82|311:42|211:70|230:149|230:149|202:106|159:98|106:127|138:171|61:191|21:141,1,562.500021457673,4|0,0:0|0:0,0:0:0:0:
57,37,235734,6,0,B|81:57|109:44|109:44|136:92|101:135|101:135|68:169|62:215|84:250|125:281|182:253|182:253|219:230|266:236|283:271|284:309|284:309|273:285|230:279,1,562.500021457673,4|0,0:0|0:0,0:0:0:0:
220,380,236934,6,0,B|218:275|319:324|317:202|317:202|380:264|455:216|455:216|451:207|451:207|463:104|384:91|331:117,1,562.500021457673,4|0,0:0|0:0,3:0:0:0:
226,98,238134,6,0,B|275:147|260:212|260:212|422:262|422:262|372:310|370:378|370:378|371:302|322:250,1,562.500021457673,4|0,0:0|0:0,0:0:0:0:
315,89,239334,5,12,0:2:0:0:
73,187,239484,1,0,0:0:0:0:
290,335,239634,1,0,0:0:0:0:
53,71,239784,5,12,0:2:0:0:
143,355,239934,1,0,0:0:0:0:
213,103,240084,1,0,0:0:0:0:
9,230,240234,6,0,P|27:282|40:340,1,110.000003356934,12|0,0:2|0:0,0:0:0:0:
289,142,240534,5,8,0:0:0:0:
249,188,240609,1,8,0:0:0:0:
188,192,240684,1,8,0:0:0:0:
141,153,240759,1,8,0:0:0:0:
100,115,240834,1,0,0:0:0:0:
51,106,240909,1,0,0:0:0:0:
12,127,240984,5,8,3:0:0:0:
41,140,241059,1,8,3:0:0:0:
74,134,241134,1,0,3:0:0:0:
95,108,241209,1,0,3:0:0:0:
126,96,241284,1,8,3:0:0:0:
160,98,241359,1,8,3:0:0:0:
185,119,241434,5,8,3:0:0:0:
173,130,241509,1,8,0:0:0:0:
156,132,241584,1,0,0:0:0:0:
140,127,241659,1,0,0:0:0:0:
125,116,241734,5,12,0:0:0:0:
369,13,241884,1,0,0:0:0:0:
186,298,242034,5,10,0:2:0:0:
224,0,242184,1,0,0:0:0:0:
364,279,242334,5,10,0:2:0:0:
143,67,242484,1,0,0:0:0:0:
208,374,242634,5,10,0:2:0:0:
321,97,242784,1,0,0:0:0:0:
48,199,242934,5,10,0:2:0:0:
196,286,243084,1,0,0:0:0:0:
211,76,243234,5,10,0:2:0:0:
124,217,243384,1,0,0:0:0:0:
310,243,243534,5,10,0:2:0:0:
179,142,243684,1,0,0:0:0:0:
150,350,243834,5,12,0:2:0:0:
159,360,243909,1,0,0:0:0:0:
188,371,243984,1,0,0:0:0:0:
235,365,244059,1,0,0:0:0:0:
275,312,244134,5,12,0:0:0:0:
136,48,244284,1,0,0:0:0:0:
139,384,244434,1,10,0:2:0:0:
260,24,244584,5,0,0:0:0:0:
200,300,244734,1,10,0:2:0:0:
116,61,244884,1,0,0:0:0:0:
338,258,245034,6,0,B|321:310|321:310|325:320|325:320|305:378,1,119.999996337891,10|0,0:2|0:0,0:0:0:0:
94,144,245334,2,0,B|147:132|147:132|166:202|166:202|156:237|156:237|179:323,1,239.999992675781,10|10,0:2|0:2,0:0:0:0:
283,137,245784,1,0,0:0:0:0:
66,264,245934,1,10,0:2:0:0:
298,158,246084,1,0,0:0:0:0:
85,21,246234,2,0,P|26:49|35:106,1,119.999996337891,10|0,0:2|0:0,0:0:0:0:
56,122,246459,1,0,0:0:0:0:
56,122,246534,5,12,0:0:0:0:
270,20,246684,1,0,0:0:0:0:
0,69,246834,1,10,0:2:0:0:
227,232,246984,5,0,0:0:0:0:
103,33,247134,1,10,0:2:0:0:
55,311,247284,1,0,0:0:0:0:
296,134,247434,6,0,B|312:187|312:187|310:199|310:199|329:262,1,119.999996337891,10|0,0:2|0:0,0:0:0:0:
145,383,247734,2,0,B|156:298|181:230|181:230|131:217|137:148,1,239.999992675781,10|10,0:2|0:2,0:0:0:0:
44,289,248184,1,0,0:0:0:0:
213,165,248334,2,0,P|158:215|123:263,1,119.999996337891,10|0,0:2|3:0,3:0:0:0:
20,0,248634,2,0,P|37:66|25:121,1,119.999996337891,10|0,0:2|0:0,0:0:0:0:
34,139,248859,1,0,0:0:0:0:
34,139,248934,5,12,0:0:0:0:
134,79,249084,2,0,B|155:63|179:60|179:60|272:92,1,119.999996337891,0|10,0:0|0:2,0:0:0:0:
51,214,249384,5,0,0:0:0:0:
197,289,249534,2,0,B|218:305|242:308|242:308|335:276,1,119.999996337891,10|0,0:2|0:0,0:0:0:0:
381,103,249834,6,0,B|352:154|352:154|390:215,1,119.999996337891,10|0,0:2|0:0,0:0:0:0:
467,330,250134,5,10,0:2:0:0:
359,384,250284,2,0,B|347:331|347:331|351:324|351:324|338:260,1,119.999996337891,0|10,0:0|0:2,0:0:0:0:
137,69,250584,5,0,0:0:0:0:
246,209,250734,2,0,B|258:156|258:156|254:149|254:149|267:85,1,119.999996337891,10|0,0:2|0:0,0:0:0:0:
119,184,251034,6,0,B|100:196|100:196|-3:164,1,119.999996337891,10|0,0:2|0:0,0:0:0:0:
220,9,251334,5,10,3:2:0:0:
54,99,251484,1,0,3:0:0:0:
190,264,251634,2,0,L|223:119,1,119.999996337891,10|0,3:2|3:0,3:0:0:0:
331,10,251934,5,10,0:2:0:0:
239,175,252084,1,0,0:0:0:0:
110,37,252234,2,0,B|86:18|30:22|30:22|-17:56,1,119.999996337891,10|0,0:2|0:0,0:0:0:0:
130,299,252534,5,10,0:2:0:0:
193,71,252684,1,0,0:0:0:0:
23,184,252834,2,0,B|8:218|8:218|32:254|42:300,1,119.999996337891,10|0,0:2|0:0,0:0:0:0:
281,346,253134,6,0,P|235:304|269:238,1,119.999996337891,10|0,0:2|0:0,0:0:0:0:
456,29,253434,6,0,P|507:52|486:120,1,119.999996337891,4|0,0:1|0:0,0:0:0:0:
259,52,253734,5,12,0:0:0:0:
381,155,253884,2,0,B|392:206|392:206|386:214|386:214|364:283,1,119.999996337891,0|10,0:0|0:2,0:0:0:0:
271,21,254184,5,0,0:0:0:0:
113,162,254334,2,0,B|102:213|102:213|108:221|108:221|130:290,1,119.999996337891,10|0,0:2|0:0,0:0:0:0:
371,73,254634,6,0,B|361:50|361:50|304:27|304:27|267:40,1,119.999996337891,10|0,0:2|0:0,0:0:0:0:
186,351,254934,5,10,0:2:0:0:
291,132,255084,1,0,0:0:0:0:
132,247,255234,1,10,0:2:0:0:
295,340,255384,5,0,0:0:0:0:
149,83,255534,1,10,0:2:0:0:
109,384,255684,1,0,0:0:0:0:
380,151,255834,6,0,P|357:71|348:11,1,119.999996337891,10|0,0:2|0:0,0:0:0:0:
41,108,256134,5,8,0:0:0:0:
69,160,256209,1,8,0:0:0:0:
120,175,256284,1,8,0:0:0:0:
165,160,256359,1,8,0:0:0:0:
205,147,256434,1,0,0:0:0:0:
240,152,256509,1,0,0:0:0:0:
259,174,256584,5,8,0:0:0:0:
230,195,256659,1,8,0:0:0:0:
194,189,256734,1,0,0:0:0:0:
174,158,256809,1,0,0:0:0:0:
177,122,256884,5,8,0:0:0:0:
197,109,256959,1,8,0:0:0:0:
205,86,257034,1,8,0:0:0:0:
203,62,257109,1,8,0:0:0:0:
186,44,257184,2,0,P|164:38|127:59,1,59.9999981689454
86,291,257334,6,0,L|135:273,1,33.3333333333333,8|8,0:0|0:0,0:0:0:0:
316,201,257484,1,0,0:0:0:0:
171,131,257634,1,0,0:0:0:0:
224,362,257784,5,12,0:0:0:0:
306,84,257934,1,0,0:0:0:0:
150,211,258084,1,0,0:0:0:0:
150,211,258159,1,0,0:0:0:0:
150,211,258234,2,0,P|210:229|268:264,1,100,10|0,0:2|0:0,0:0:0:0:
467,82,258534,6,0,B|448:64|398:73|370:111|404:131|367:171|330:181|295:157,1,200,4|10,0:0|0:0,0:0:0:0:
462,167,258984,1,0,0:0:0:0:
306,84,259134,1,2,0:0:0:0:
481,184,259284,1,0,0:0:0:0:
344,277,259434,2,0,P|275:240|212:231,1,100,10|0,0:0|0:0,0:0:0:0:
203,105,259659,5,0,0:0:0:0:
193,119,259734,2,0,P|131:150|2:202,1,200,2|10,0:0|0:0,0:0:0:0:
176,236,260184,1,0,0:0:0:0:
53,78,260334,1,2,0:0:0:0:
168,228,260484,1,0,0:0:0:0:
237,15,260634,2,0,P|188:40|189:82,1,100,10|0,0:0|0:0,0:0:0:0:
319,314,260934,5,4,0:0:0:0:
349,316,261009,1,0,0:0:0:0:
372,298,261084,1,0,0:0:0:0:
254,177,261234,5,10,0:0:0:0:
223,314,261384,1,0,0:0:0:0:
344,121,261534,5,2,0:0:0:0:
407,329,261684,1,0,0:0:0:0:
244,71,261834,5,10,0:0:0:0:
132,365,261984,1,0,0:0:0:0:
462,164,262134,6,0,B|424:123|424:123|341:140|341:140|343:151|343:151|333:147|333:147|214:169,1,239.999992675781,2|10,0:0|0:0,0:0:0:0:
481,7,262584,2,0,P|463:29|443:66,1,59.9999981689454
322,250,262734,1,2,0:0:0:0:
371,54,262884,1,0,0:0:0:0:
462,249,263034,2,0,L|435:380,1,110.000003356934,10|0,0:0|0:0,0:0:0:0:
178,73,263334,5,4,0:1:0:0:
461,172,263484,1,0,0:0:0:0:
197,260,263634,1,10,0:0:0:0:
331,33,263784,1,0,0:0:0:0:
283,341,263934,5,2,0:0:0:0:
183,109,264084,1,0,0:0:0:0:
350,255,264234,1,10,0:0:0:0:
403,81,264384,1,0,0:0:0:0:
229,204,264534,5,2,0:0:0:0:
435,244,264684,1,0,0:0:0:0:
167,117,264834,1,10,0:0:0:0:
308,64,264984,1,0,0:0:0:0:
216,288,265134,5,2,0:0:0:0:
233,52,265284,1,0,0:0:0:0:
141,215,265434,1,10,0:0:0:0:
158,220,265584,1,0,0:0:0:0:
26,89,265734,6,0,P|47:166|65:310,1,209.999993591309,4|10,0:1|0:0,0:0:0:0:
273,167,266184,2,0,P|240:248|201:382,1,209.999993591309
177,39,266634,2,0,P|171:96|159:150,1,104.999996795654,10|0,0:0|0:0,0:0:0:0:
95,356,266934,6,0,B|77:339|53:338|53:338|96:284|175:295,1,165.000005035401,2|0,0:0|0:0,0:0:0:0:
188,275,267234,2,0,L|171:389,1,110.000003356934,10|0,0:0|0:0,0:0:0:0:
71,117,267534,5,8,0:0:0:0:
346,277,267684,1,8,0:0:0:0:
56,117,267834,1,8,0:0:0:0:
371,30,267984,1,8,0:0:0:0:
92,227,268134,6,0,B|59:206|59:206|37:119|112:50,1,200,4|10,0:2|0:0,0:0:0:0:
187,176,268584,1,0,0:0:0:0:
27,98,268734,1,2,0:0:0:0:
176,254,268884,1,0,0:0:0:0:
258,67,269034,2,0,B|306:55|306:55|312:59|312:59|372:45,1,100,10|0,0:0|0:0,0:0:0:0:
481,159,269334,6,0,B|449:172|439:199|439:199|377:145|302:172,1,200,2|10,0:0|0:0,0:0:0:0:
453,26,269784,6,0,P|434:61|440:92,1,50
462,33,269934,2,0,P|443:68|449:99,1,50,2|0,0:0|0:0,0:0:0:0:
471,40,270084,2,0,P|452:75|458:106,1,50
366,245,270234,6,0,P|385:296|401:365,1,100,10|0,0:0|0:0,0:0:0:0:
175,132,270534,5,4,0:0:0:0:
255,326,270684,1,0,0:0:0:0:
340,96,270834,1,10,0:0:0:0:
176,236,270984,2,0,B|155:253|155:253|69:228,1,100,0|2,0:0|0:0,0:0:0:0:
233,22,271284,5,0,0:0:0:0:
309,236,271434,1,10,0:0:0:0:
153,138,271584,2,0,B|168:117|168:117|237:102|237:102|263:113,1,119.999996337891,0|2,0:0|0:0,0:0:0:0:
154,359,271884,5,0,0:0:0:0:
47,119,272034,1,10,0:0:0:0:
236,280,272184,1,0,0:0:0:0:
32,349,272334,1,2,0:0:0:0:
157,165,272484,1,0,0:0:0:0:
267,358,272634,2,0,P|311:332|366:318,1,100,10|0,0:0|0:0,0:0:0:0:
502,117,272934,6,0,B|449:131|449:131|412:201|412:201|336:225,1,200,4|10,0:0|0:0,0:0:0:0:
443,50,273384,1,0,0:0:0:0:
499,229,273534,1,2,0:0:0:0:
370,37,273684,1,0,0:0:0:0:
258,168,273834,2,0,B|190:149|190:149|160:118,1,100,10|0,0:0|0:0,0:0:0:0:
89,35,274059,5,0,0:0:0:0:
73,40,274134,2,0,B|41:81|41:81|80:233,1,200,2|10,0:0|0:0,0:0:0:0:
185,99,274584,1,0,0:0:0:0:
18,156,274734,1,2,0:0:0:0:
151,260,274884,1,0,0:0:0:0:
50,358,275034,2,0,P|55:328|-6:301,1,100,10|0,0:0|0:0,0:0:0:0:
146,246,275334,6,0,B|194:216|236:258|236:258|254:323|328:307,1,200,2|10,3:0|3:0,3:0:0:0:
344,216,275784,1,0,0:0:0:0:
169,328,275934,1,2,0:0:0:0:
270,175,276084,1,0,0:0:0:0:
390,328,276234,2,0,L|493:299,1,100,10|0,0:0|0:0,0:0:0:0:
443,76,276534,6,0,B|418:52|422:25|422:25|396:151,1,165.000005035401,2|0,0:0|0:0,0:0:0:0:
381,158,276834,2,0,B|432:187|432:187|482:160,1,110.000003356934,10|0,0:0|0:0,0:0:0:0:
304,6,277134,5,8,0:0:0:0:
336,302,277284,1,8,0:0:0:0:
125,94,277434,1,8,0:0:0:0:
411,13,277584,1,8,0:0:0:0:
213,239,277734,6,0,P|163:211|25:159,1,179.999994506836,4|10,0:2|0:2,0:0:0:0:
219,27,278184,1,0,0:0:0:0:
141,114,278334,1,2,0:2:0:0:
113,0,278484,1,0,0:0:0:0:
238,159,278634,2,0,P|236:117|280:92,1,89.9999972534181,10|0,0:2|0:0,0:0:0:0:
476,12,278934,6,0,B|428:49|428:49|465:185,1,179.999994506836,2|10,0:2|0:2,0:0:0:0:
361,280,279384,1,0,0:0:0:0:
478,196,279534,1,2,0:2:0:0:
340,155,279684,1,0,0:0:0:0:
451,345,279834,2,0,L|426:223,1,89.9999972534181,10|0,0:2|0:0,0:0:0:0:
283,229,280134,6,0,B|257:237|239:233|239:233|188:302|188:302|162:288|133:297,1,179.999994506836,2|10,0:2|0:2,0:0:0:0:
21,263,280584,2,0,L|49:373,2,89.9999972534181,0|2|0,0:0|0:2|0:0,0:0:0:0:
108,211,281034,2,0,L|127:101,1,89.9999972534181,10|0,0:2|0:0,0:0:0:0:
30,0,281334,6,0,B|42:39|42:39|113:69|186:19,1,179.999994506836,2|10,0:2|0:2,0:0:0:0:
364,153,281784,1,0,3:0:0:0:
269,0,281934,1,2,3:2:0:0:
235,176,282084,1,0,3:0:0:0:
366,33,282234,2,0,B|379:14|379:14|414:-1|451:24,1,89.9999972534181,10|0,0:2|0:0,0:0:0:0:
472,184,282534,6,0,L|445:392,1,179.999994506836,4|10,0:2|0:2,0:0:0:0:
257,292,282984,1,0,0:0:0:0:
388,232,283134,1,2,0:2:0:0:
338,367,283284,1,0,0:0:0:0:
299,152,283434,2,0,L|311:241,1,89.9999972534181,10|0,0:2|0:0,0:0:0:0:
425,70,283734,6,0,B|426:31|384:13|384:13|253:41,1,179.999994506836,2|10,0:2|0:2,0:0:0:0:
124,98,284184,1,0,3:0:0:0:
210,22,284334,1,2,3:2:0:0:
228,136,284484,1,0,3:0:0:0:
60,47,284634,2,0,P|39:82|60:130,1,89.9999972534181,10|0,0:2|0:0,0:0:0:0:
64,349,284934,6,0,P|86:261|116:174,1,179.999994506836,2|10,0:2|0:2,0:0:0:0:
227,360,285384,2,0,P|185:318|143:309,2,89.9999972534181,0|2|0,0:0|0:2|0:0,0:0:0:0:
291,212,285834,2,0,P|258:232|272:278,1,89.9999972534181,10|0,0:2|0:0,0:0:0:0:
444,367,286134,6,0,B|433:323|433:323|436:318|436:318|425:271,1,89.9999972534181,2|0,0:2|0:0,0:0:0:0:
410,175,286434,1,10,0:2:0:0:
291,212,286584,2,0,B|302:168|302:168|299:163|299:163|310:116,1,89.9999972534181,0|2,0:0|0:2,0:0:0:0:
409,60,286884,5,8,0:0:0:0:
339,326,287034,1,8,0:0:0:0:
411,48,287184,1,8,0:0:0:0:
214,222,287334,6,0,B|160:238|133:190|133:190|89:172|45:208,1,179.999994506836,4|10,0:2|0:2,0:0:0:0:
191,47,287784,1,0,3:0:0:0:
74,104,287934,1,2,3:2:0:0:
199,142,288084,1,0,3:0:0:0:
67,15,288234,2,0,P|85:56|98:98,1,89.9999972534181,10|0,3:2|3:0,3:0:0:0:
171,308,288534,6,0,B|150:319|140:333|140:333|42:313|42:313|34:288|8:280,1,179.999994506836,2|10,0:2|0:2,0:0:0:0:
276,194,288984,1,0,0:0:0:0:
121,248,289134,1,2,0:2:0:0:
216,111,289284,1,0,0:0:0:0:
338,297,289434,2,0,B|327:302|322:309|322:309|273:299|273:299|269:286|260:284,1,89.9999972534181,10|0,0:2|0:0,0:0:0:0:
412,86,289734,6,0,B|425:103|436:113|436:113|431:115|431:115|421:165|421:165|407:179|407:179|419:258,1,179.999994506836,4|10,0:2|0:2,0:0:0:0:
299,131,290184,1,0,0:0:0:0:
324,42,290334,2,0,L|337:131,1,89.9999972534181,2|0,0:2|0:0,0:0:0:0:
210,177,290634,2,0,L|225:75,1,89.9999972534181,10|0,0:2|0:0,0:0:0:0:
106,5,290934,6,0,B|125:18|125:18|140:112,1,89.9999972534181,2|0,0:2|0:0,0:0:0:0:
113,195,291234,1,10,0:2:0:0:
29,86,291384,2,0,B|10:99|10:99|-5:193,1,89.9999972534181,0|2,0:0|0:2,0:0:0:0:
25,274,291684,1,0,0:0:0:0:
248,211,291834,6,0,P|237:166|181:158,1,89.9999972534181,10|0,0:2|0:0,0:0:0:0:
72,339,292134,6,0,B|106:348|106:348|145:305|145:305|151:304|151:304|184:270|184:270|240:285,1,179.999994506836,4|10,0:2|0:2,0:0:0:0:
79,205,292584,1,0,0:0:0:0:
216,355,292734,1,2,0:2:0:0:
25,274,292884,1,0,0:0:0:0:
144,122,293034,2,0,B|149:157|149:157|151:160|151:160|155:183|155:183|182:192,1,89.9999972534181,10|0,3:2|3:0,3:0:0:0:
401,342,293334,6,0,B|351:348|351:348|331:279|331:279|335:273|335:273|321:214,1,179.999994506836,2|10,3:2|3:2,3:0:0:0:
454,71,293784,1,0,0:0:0:0:
270,131,293934,1,2,0:2:0:0:
440,226,294084,1,0,0:0:0:0:
324,48,294234,2,0,B|302:29|302:29|267:35|267:35|265:37|265:37|235:44,1,89.9999972534181,10|0,3:2|0:0,0:0:0:0:
107,159,294534,5,8,0:0:0:0:
146,206,294609,1,8,0:0:0:0:
139,267,294684,1,8,0:0:0:0:
91,305,294759,1,8,0:0:0:0:
30,297,294834,1,8,0:0:0:0:
0,248,294909,1,8,0:0:0:0:
2,188,294984,5,8,0:0:0:0:
36,199,295059,1,8,0:0:0:0:
59,225,295134,1,8,0:0:0:0:
67,259,295209,1,8,0:0:0:0:
60,294,295284,1,8,0:0:0:0:
39,323,295359,1,8,0:0:0:0:
6,338,295434,5,8,0:0:0:0:
7,315,295509,1,8,0:0:0:0:
17,295,295584,1,8,0:0:0:0:
36,283,295659,1,8,0:0:0:0:
52,299,295734,6,0,P|126:281|226:268,1,150.000005722046,4|0,2:0|2:0,0:0:0:0:
491,266,296934,6,0,P|459:310|440:369,1,110.000003356934,4|10,0:2|0:2,0:0:0:0:
333,155,297234,2,0,P|354:185|365:222,1,55.0000016784668
344,272,297384,1,8,0:0:0:0:
498,51,297534,1,0,0:0:0:0:
481,70,297609,1,0,0:0:0:0:
458,79,297684,1,10,0:2:0:0:
434,77,297759,1,0,0:0:0:0:
417,98,297834,5,2,0:2:0:0:
386,68,297909,1,0,0:0:0:0:
343,65,297984,1,10,0:2:0:0:
253,7,298134,6,0,B|200:21|200:21|198:27|198:27|143:42,1,110.000003356934,2|10,0:2|0:2,0:0:0:0:
25,161,298434,2,0,L|41:90,1,55.0000016784668,2|0,0:2|0:0,0:0:0:0:
60,3,298584,1,10,0:2:0:0:
189,153,298734,6,0,P|186:173|158:190,1,55.0000016784668,2|0,0:2|0:0,0:0:0:0:
61,250,298884,2,0,P|85:261|92:286,1,55.0000016784668,10|0,0:2|0:0,0:0:0:0:
171,377,299034,1,2,0:2:0:0:
179,333,299109,1,0,0:0:0:0:
187,289,299184,1,8,0:0:0:0:
456,222,299334,6,0,B|495:268|495:268|317:298,1,220.000006713867,4|2,0:0|0:2,0:0:0:0:
311,307,299709,1,0,0:0:0:0:
311,307,299784,1,10,0:2:0:0:
361,182,299934,5,2,0:2:0:0:
361,182,300009,1,0,0:0:0:0:
361,182,300084,2,0,L|345:112,1,55.0000016784668,10|0,0:2|0:0,0:0:0:0:
275,65,300234,1,0,0:0:0:0:
279,37,300309,1,0,0:0:0:0:
284,9,300384,1,10,0:2:0:0:
495,37,300534,6,0,P|441:32|415:88,1,110.000003356934,2|10,0:2|0:2,0:0:0:0:
223,128,300834,2,0,P|259:155|277:192,1,55.0000016784668,2|0,0:2|0:0,0:0:0:0:
293,234,300984,1,10,0:2:0:0:
311,42,301134,6,0,B|299:33|299:33|251:49,1,55.0000016784668,2|0,0:2|0:0,0:0:0:0:
200,0,301284,2,0,B|185:2|185:2|162:47,1,55.0000016784668,10|0,3:2|3:0,3:0:0:0:
90,50,301434,1,2,0:2:0:0:
106,102,301509,1,0,0:0:0:0:
122,154,301584,1,8,0:0:0:0:
6,277,301734,6,0,B|16:250|16:250|114:226,1,110.000003356934,4|10,0:0|0:2,0:0:0:0:
232,121,302034,2,0,L|157:106,1,55.0000016784668,2|0,3:2|3:0,3:0:0:0:
88,90,302184,1,10,3:2:0:0:
191,199,302334,1,2,0:2:0:0:
188,220,302409,1,0,0:0:0:0:
186,241,302484,1,10,0:2:0:0:
184,262,302559,1,0,0:0:0:0:
157,293,302634,5,2,0:2:0:0:
163,336,302709,1,0,0:0:0:0:
169,379,302784,1,10,0:2:0:0:
369,246,302934,6,0,B|348:227|348:227|254:243,1,110.000003356934,2|10,0:2|0:2,0:0:0:0:
471,355,303234,2,0,L|486:278,1,55.0000016784668,2|0,0:2|0:0,0:0:0:0:
496,220,303384,1,10,0:2:0:0:
316,347,303534,6,0,B|273:358|273:358|249:342,1,55.0000016784668,2|0,0:2|0:0,0:0:0:0:
210,247,303684,2,0,B|253:258|253:258|277:242,1,55.0000016784668,10|0,0:2|0:0,0:0:0:0:
359,167,303834,1,2,0:2:0:0:
316,155,303909,1,0,0:0:0:0:
273,143,303984,1,8,0:0:0:0:
88,0,304134,6,0,B|68:25|35:38|35:38|84:112|75:202,1,220.000006713867,4|0,0:0|0:0,0:0:0:0:
69,217,304509,1,0,0:0:0:0:
69,217,304584,1,10,0:2:0:0:
158,75,304734,5,2,0:2:0:0:
158,75,304809,1,0,0:0:0:0:
158,75,304884,2,0,L|228:91,1,55.0000016784668,10|0,0:2|0:0,0:0:0:0:
291,166,305034,1,2,0:2:0:0:
319,162,305109,1,0,0:0:0:0:
347,157,305184,1,8,0:0:0:0:
484,15,305334,5,8,0:0:0:0:
431,44,305409,1,8,0:0:0:0:
417,97,305484,1,8,0:0:0:0:
437,142,305559,1,8,0:0:0:0:
455,137,305634,5,8,3:0:0:0:
498,178,305709,1,8,3:0:0:0:
502,232,305784,1,8,3:0:0:0:
471,270,305859,1,8,3:0:0:0:
456,267,305934,6,0,P|469:292|481:332,1,55.0000016784668
349,208,306084,2,0,P|362:183|374:143,1,55.0000016784668,8|8,0:0|0:0,0:0:0:0:
314,375,306234,2,0,P|338:355|381:338,1,55.0000016784668,8|8,0:0|0:0,0:0:0:0:
219,263,306384,2,0,P|167:238|137:221,1,55.0000016784668,8|8,0:0|0:0,0:0:0:0:
0,384,306534,5,4,0:1:0:0:
256,192,306609,12,0,316134,2:0:0:0:
