osu file format v14

[General]
AudioFilename: audio.mp3
AudioLeadIn: 0
PreviewTime: 289975
Countdown: 0
SampleSet: Drum
StackLeniency: 0.7
Mode: 0
LetterboxInBreaks: 0
WidescreenStoryboard: 0

[Editor]
DistanceSpacing: 0.7
BeatDivisor: 4
GridSize: 8
TimelineZoom: 3.500004

[Metadata]
Title:Infernus Ad Astra / Rise Of The Chaos Wizards
TitleUnicode:Infernus Ad Astra / Rise Of The Chaos Wizards
Artist:GLORYHAMMER
ArtistUnicode:GLORYHAMMER
Creator:nebuwua
Version:1992: The Astral Age of Triton and Zargothrax
Source:
Tags:Space 1992: Rise of the Chaos Wizards fantasy english symphonic power metal Napalm Records James Cartwright The Hootsman, Astral Demigod of Unst Ben Turk Ralathor, the Mysterious Submarine Commander of Cowdenbeath Paul Templing Ser Proletius, Grand Master of the Deathknights of Crail Christopher Bowes Zargothrax, Dark Emperor of Dundee Alcoa
BeatmapID:3310074
BeatmapSetID:1621226

[Difficulty]
HPDrainRate:5
CircleSize:4.3
OverallDifficulty:9.7
ApproachRate:9.7
SliderMultiplier:2
SliderTickRate:1

[Events]
//Background and Video events
0,0,"omer-tunc-manzar-copy.jpg",0,0
//Break Periods
2,11147,19071
//Storyboard Layer 0 (Background)
//Storyboard Layer 1 (Fail)
//Storyboard Layer 2 (Pass)
//Storyboard Layer 3 (Foreground)
//Storyboard Layer 4 (Overlay)
//Storyboard Sound Samples

[TimingPoints]
257,705.882352941176,4,3,1,30,1,0
257,-333.333333333333,4,3,1,30,0,0
1492,-333.333333333333,4,3,1,5,0,0
1668,-333.333333333333,4,3,1,45,0,0
2903,-333.333333333333,4,3,1,5,0,0
3080,-500,4,3,1,20,0,0
4315,-500,4,3,1,5,0,0
4492,-166.666666666667,4,3,1,50,0,0
5904,666.666666666667,4,3,1,50,1,0
9237,774.193548387097,4,3,1,50,1,0
9753,800,4,3,1,50,1,0
10286,857.142857142857,4,3,1,50,1,0
10857,870.953694295253,4,3,1,43,1,0
19566,666.666666666667,4,3,1,43,1,0
19566,-71.4285714285714,4,3,1,43,0,0
19732,666.666666666667,4,3,1,60,1,0
19732,-71.4285714285714,4,3,1,60,0,0
38398,-50,4,3,1,60,0,1
40398,-41.6666666666667,4,3,1,60,0,1
41065,-58.8235294117647,4,3,1,60,0,0
43398,-66.6666666666667,4,3,1,60,0,0
46232,-58.8235294117647,4,3,1,60,0,0
51620,-58.8235294117647,4,3,1,5,0,0
51732,669.269380925823,4,3,1,60,1,0
51732,-71.4285714285714,4,3,1,60,0,0
57086,666.666666666667,4,3,1,60,1,0
57086,-58.8235294117647,4,3,1,60,0,0
59752,676.056338028169,4,3,1,60,1,0
59752,-58.8235294117647,4,3,1,60,0,0
61104,679.886685552408,4,3,1,60,1,0
61104,-83.3333333333333,4,3,1,60,0,0
61783,-125,4,3,1,60,0,0
62463,681.818181818182,4,3,1,60,1,0
62463,-83.3333333333333,4,3,1,60,0,0
67917,680.272108843537,4,3,1,60,1,0
67917,-83.3333333333333,4,3,1,60,0,0
71998,705.882352941176,4,3,1,60,1,0
71998,-83.3333333333333,4,3,1,60,0,0
72703,-55.5555555555556,4,3,1,60,0,0
73409,681.044267877412,4,3,1,60,1,0
73409,-71.4285714285714,4,3,1,60,0,0
76133,669.082798996376,4,3,1,60,1,0
76133,-66.6666666666667,4,3,1,60,0,0
78809,333.333333333333,4,3,1,60,1,0
80975,-111.111111111111,4,3,1,60,0,0
85808,-86.9565217391304,4,3,1,60,0,0
89475,-86.9565217391304,4,3,2,60,0,0
93808,-86.9565217391304,4,3,1,60,0,0
94808,-86.9565217391304,4,3,2,60,0,0
99142,-86.9565217391304,4,3,1,60,0,0
100142,-86.9565217391304,4,3,2,60,0,0
104475,-86.9565217391304,4,3,1,60,0,0
105142,-86.9565217391304,4,3,2,60,0,0
105475,-76.9230769230769,4,3,2,60,0,0
105724,-76.9230769230769,4,3,2,5,0,0
105808,-76.9230769230769,4,3,1,60,0,0
106057,-76.9230769230769,4,3,1,5,0,0
106142,-76.9230769230769,4,3,2,60,0,0
106391,-76.9230769230769,4,3,2,5,0,0
106475,-76.9230769230769,4,3,2,60,0,0
107057,-76.9230769230769,4,3,2,5,0,0
107142,-76.9230769230769,4,3,1,60,0,0
107391,-76.9230769230769,4,3,1,5,0,0
107475,-76.9230769230769,4,3,1,60,0,0
107724,-76.9230769230769,4,3,1,5,0,0
107808,-76.9230769230769,4,3,1,60,0,0
108142,-76.9230769230769,4,3,2,60,0,0
108808,-76.9230769230769,4,3,3,60,0,0
108975,-76.9230769230769,4,3,1,60,0,0
109225,-76.9230769230769,4,3,1,5,0,0
109308,-76.9230769230769,4,3,1,60,0,0
109391,-76.9230769230769,4,3,1,5,0,0
109475,-76.9230769230769,4,3,1,60,0,0
109725,-76.9230769230769,4,3,2,60,0,0
109808,-76.9230769230769,4,3,3,60,0,0
109975,-76.9230769230769,4,3,1,60,0,0
111142,-100,4,3,4,60,0,0
113475,-100,4,3,2,60,0,0
113808,-100,4,3,4,60,0,0
115225,-100,4,3,4,5,0,0
115308,-100,4,3,4,60,0,0
115558,-100,4,3,4,5,0,0
115642,-100,4,3,4,60,0,0
115891,-100,4,3,4,5,0,0
115975,-100,4,3,4,60,0,0
116142,-100,4,3,1,60,0,0
116475,-100,4,3,4,60,0,0
118225,-100,4,3,4,5,0,0
118308,-100,4,3,4,60,0,0
118808,-100,4,3,1,60,0,0
119142,-100,4,3,4,60,0,0
120642,-100,4,3,2,60,0,0
120808,-100,4,3,3,60,0,0
120975,-100,4,3,1,60,0,0
121808,-100,4,3,4,60,0,0
124142,-100,4,3,2,60,0,0
124475,-100,4,3,4,60,0,0
125891,-100,4,3,4,5,0,0
125975,-100,4,3,4,60,0,0
126225,-100,4,3,4,5,0,0
126308,-100,4,3,4,60,0,0
126558,-100,4,3,4,5,0,0
126642,-100,4,3,4,60,0,0
126808,-100,4,3,1,60,0,0
127142,-100,4,3,4,60,0,0
127558,-100,4,3,4,5,0,0
127642,-100,4,3,4,60,0,0
128142,-100,4,3,1,60,0,0
128475,-100,4,3,4,60,0,0
129475,-100,4,3,1,60,0,0
129558,-100,4,3,1,5,0,0
129642,-100,4,3,1,60,0,0
129808,-100,4,3,4,60,0,0
130225,-100,4,3,4,5,0,0
130308,-100,4,3,4,60,0,0
130808,-100,4,3,2,60,0,0
131308,-100,4,3,1,60,0,0
131392,-100,4,3,2,60,0,0
131475,-100,4,3,3,60,0,0
131558,-100,4,3,1,60,0,0
131725,-100,4,3,3,60,0,0
131808,-100,4,3,1,60,0,0
131975,-100,4,3,3,60,0,0
132058,-100,4,3,1,60,0,0
132475,-100,4,3,4,60,0,0
133891,-100,4,3,4,5,0,0
133975,-100,4,3,4,60,0,0
134225,-100,4,3,4,5,0,0
134308,-100,4,3,4,60,0,0
134558,-100,4,3,4,5,0,0
134642,-100,4,3,4,60,0,0
134808,-100,4,3,2,60,0,0
135142,-100,4,3,4,60,0,0
136558,-100,4,3,4,5,0,0
136642,-100,4,3,4,60,0,0
136891,-100,4,3,4,5,0,0
136975,-100,4,3,4,60,0,0
137225,-100,4,3,4,5,0,0
137308,-100,4,3,4,60,0,0
137475,-100,4,3,1,60,0,0
137808,-100,4,3,4,60,0,0
138891,-100,4,3,4,5,0,0
138975,-100,4,3,4,60,0,0
140808,-100,4,3,1,60,0,0
142808,-100,4,3,3,60,0,1
143142,-100,4,3,2,60,0,1
144975,-83.3333333333333,4,3,2,60,0,1
153475,-83.3333333333333,4,3,1,60,0,1
162808,-83.3333333333333,4,3,2,60,0,0
163142,-83.3333333333333,4,3,1,60,0,0
163475,-83.3333333333333,4,3,2,60,0,0
163808,-83.3333333333333,4,3,1,60,0,0
164142,-83.3333333333333,4,3,2,60,0,0
165808,-86.9565217391304,4,3,2,60,0,0
169475,-86.9565217391304,4,3,1,60,0,0
174475,-86.9565217391304,4,3,2,60,0,0
174808,-86.9565217391304,4,3,1,60,0,0
177808,-100,4,3,4,60,0,0
180142,-100,4,3,2,60,0,0
180475,-100,4,3,4,60,0,0
181891,-100,4,3,4,5,0,0
181975,-100,4,3,4,60,0,0
182225,-100,4,3,4,5,0,0
182308,-100,4,3,4,60,0,0
182558,-100,4,3,4,5,0,0
182642,-100,4,3,4,60,0,0
182808,-100,4,3,1,60,0,0
183142,-100,4,3,4,60,0,0
184891,-100,4,3,4,5,0,0
184975,-100,4,3,4,60,0,0
185475,-100,4,3,1,60,0,0
185808,-100,4,3,4,60,0,0
187308,-100,4,3,2,60,0,0
187475,-100,4,3,3,60,0,0
187642,-100,4,3,1,60,0,0
188475,-100,4,3,4,60,0,0
190808,-100,4,3,2,60,0,0
191142,-100,4,3,4,60,0,0
192558,-100,4,3,4,5,0,0
192642,-100,4,3,4,60,0,0
192891,-100,4,3,4,5,0,0
192975,-100,4,3,4,60,0,0
193225,-100,4,3,4,5,0,0
193308,-100,4,3,4,60,0,0
193475,-100,4,3,1,60,0,0
193808,-100,4,3,4,60,0,0
194891,-100,4,3,4,5,0,0
194975,-100,4,3,4,60,0,0
196225,-100,4,3,4,5,0,0
196308,-100,4,3,4,60,0,0
196891,-100,4,3,4,5,0,0
196975,-100,4,3,4,60,0,0
197475,-100,4,3,2,60,0,0
197892,-100,4,3,3,60,0,0
197975,-100,4,3,1,60,0,0
198058,-100,4,3,2,60,0,0
198142,-100,4,3,3,60,0,0
198225,-100,4,3,1,60,0,0
198392,-100,4,3,3,60,0,0
198475,-100,4,3,1,60,0,0
198642,-100,4,3,3,60,0,0
198725,-100,4,3,1,60,0,0
199142,-100,4,3,4,60,0,0
200558,-100,4,3,4,5,0,0
200642,-100,4,3,4,60,0,0
200891,-100,4,3,4,5,0,0
200975,-100,4,3,4,60,0,0
201225,-100,4,3,4,5,0,0
201308,-100,4,3,4,60,0,0
203225,-100,4,3,4,5,0,0
203308,-100,4,3,4,60,0,0
203558,-100,4,3,4,5,0,0
203642,-100,4,3,4,60,0,0
203891,-100,4,3,4,5,0,0
203975,-100,4,3,4,60,0,0
204142,-100,4,3,2,60,0,0
204475,-100,4,3,4,60,0,0
205558,-100,4,3,4,5,0,0
205642,-100,4,3,4,60,0,0
206225,-100,4,3,4,5,0,0
206308,-100,4,3,4,60,0,0
208142,-100,4,3,2,60,0,0
208975,-100,4,3,3,60,0,0
209142,-100,4,3,1,60,0,0
209475,-100,4,3,3,60,0,1
209808,-100,4,3,2,60,0,1
211642,-83.3333333333333,4,3,2,60,0,1
220142,-83.3333333333333,4,3,1,60,0,1
229475,-83.3333333333333,4,3,2,60,0,0
229808,-83.3333333333333,4,3,1,60,0,0
230142,-83.3333333333333,4,3,2,60,0,0
230475,-83.3333333333333,4,3,1,60,0,0
230808,-83.3333333333333,4,3,2,60,0,0
231475,-100,4,3,4,60,0,0
233475,-100,4,3,2,60,0,0
234142,-100,4,3,1,60,0,0
235475,-100,4,3,4,60,0,0
236142,-100,4,3,2,60,0,0
236808,-100,4,3,1,60,0,0
238142,-100,4,3,4,60,0,0
239475,-100,4,3,2,60,0,0
240058,-100,4,3,2,5,0,0
240142,-100,4,3,4,60,0,0
240808,-100,4,3,2,60,0,0
241058,-100,4,3,2,5,0,0
241142,-100,4,3,2,60,0,0
242142,-100,4,3,1,60,0,0
243475,-100,4,3,4,60,0,0
244142,-100,4,3,2,60,0,0
244808,-100,4,3,1,60,0,0
246142,-100,4,3,4,60,0,0
246808,-100,4,3,2,60,0,0
247475,-100,4,3,1,60,0,0
248808,-100,4,3,4,60,0,0
250142,-100,4,3,1,60,0,0
250475,-100,4,3,4,60,0,0
250808,-100,4,3,2,60,0,0
251225,-100,4,3,3,60,0,0
251308,-100,4,3,2,60,0,0
251475,-100,4,3,3,60,0,0
251558,-100,4,3,1,60,0,0
251642,-100,4,3,3,60,0,0
251725,-100,4,3,1,60,0,0
252142,-86.9565217391304,4,3,2,60,0,0
254891,-86.9565217391304,4,3,2,5,0,0
254975,-86.9565217391304,4,3,2,60,0,0
255225,-86.9565217391304,4,3,2,5,0,0
255308,-86.9565217391304,4,3,2,60,0,0
257475,-86.9565217391304,4,3,1,60,0,0
260808,-86.9565217391304,4,3,2,60,0,0
261475,-86.9565217391304,4,3,1,60,0,0
263225,-86.9565217391304,4,3,1,5,0,0
263308,-86.9565217391304,4,3,1,60,0,0
263475,-86.9565217391304,4,3,2,60,0,0
263558,-86.9565217391304,4,3,2,5,0,0
263642,-86.9565217391304,4,3,2,60,0,0
263891,-86.9565217391304,4,3,2,5,0,0
263975,-86.9565217391304,4,3,2,60,0,0
264142,-86.9565217391304,4,3,1,60,0,0
266808,-86.9565217391304,4,3,2,60,0,0
268142,-86.9565217391304,4,3,1,60,0,0
269475,-86.9565217391304,4,3,2,60,0,0
270142,-86.9565217391304,4,3,1,60,0,0
270808,-86.9565217391304,4,3,1,60,0,1
272808,-86.9565217391304,4,3,2,60,0,1
273308,-86.9565217391304,4,3,3,60,0,1
273475,-71.4285714285714,4,3,3,60,0,0
273641,-71.4285714285714,4,3,3,5,0,0
274475,-133.333333333333,4,3,1,60,0,0
274725,-133.333333333333,4,3,1,5,0,0
274808,-71.4285714285714,4,3,3,60,0,0
274974,-71.4285714285714,4,3,3,5,0,0
275808,-71.4285714285714,4,3,1,60,0,0
275891,-71.4285714285714,4,3,1,5,0,0
275975,-71.4285714285714,4,3,1,60,0,0
276058,-71.4285714285714,4,3,1,5,0,0
276142,-71.4285714285714,4,3,3,60,0,0
276225,-71.4285714285714,4,3,3,5,0,0
277475,-71.4285714285714,4,3,1,60,0,0
278475,-71.4285714285714,4,3,3,60,0,0
278808,-71.4285714285714,4,3,2,60,0,0
278974,-71.4285714285714,4,3,2,5,0,0
279142,-71.4285714285714,4,3,1,60,0,0
279225,-71.4285714285714,4,3,1,5,0,0
279808,-71.4285714285714,4,3,2,60,0,0
279891,-71.4285714285714,4,3,2,5,0,0
280475,-71.4285714285714,4,3,1,60,0,0
280558,-71.4285714285714,4,3,1,5,0,0
281142,-71.4285714285714,4,3,1,60,0,0
281225,-71.4285714285714,4,3,1,5,0,0
281808,-71.4285714285714,4,3,1,60,0,0
281891,-71.4285714285714,4,3,1,5,0,0
282475,-71.4285714285714,4,3,2,60,0,0
282558,-71.4285714285714,4,3,2,5,0,0
282808,-71.4285714285714,4,3,1,60,0,0
283057,-71.4285714285714,4,3,1,5,0,0
283142,-71.4285714285714,4,3,1,60,0,0
283391,-71.4285714285714,4,3,1,5,0,0
283475,-71.4285714285714,4,3,2,60,0,0
283724,-71.4285714285714,4,3,2,5,0,0
283808,-76.9230769230769,4,3,2,60,0,0
284391,-76.9230769230769,4,3,2,5,0,0
284475,-76.9230769230769,4,3,1,60,0,0
284724,-76.9230769230769,4,3,1,5,0,0
284808,-76.9230769230769,4,3,1,60,0,0
285057,-76.9230769230769,4,3,1,5,0,0
285142,-76.9230769230769,4,3,1,60,0,0
285475,-76.9230769230769,4,3,2,60,0,0
285724,-76.9230769230769,4,3,2,5,0,0
285808,-76.9230769230769,4,3,2,60,0,0
286057,-76.9230769230769,4,3,2,5,0,0
286142,-76.9230769230769,4,3,1,60,0,0
286391,-76.9230769230769,4,3,1,5,0,0
286475,-76.9230769230769,4,3,1,60,0,0
286808,-76.9230769230769,4,3,2,60,0,0
287475,-76.9230769230769,4,3,3,60,0,0
287642,-76.9230769230769,4,3,1,60,0,0
287891,-76.9230769230769,4,3,1,5,0,0
287975,-76.9230769230769,4,3,1,60,0,0
288058,-76.9230769230769,4,3,1,5,0,0
288142,-76.9230769230769,4,3,1,60,0,0
288392,-76.9230769230769,4,3,2,60,0,0
288475,-76.9230769230769,4,3,3,60,0,0
288642,-76.9230769230769,4,3,1,60,0,0
289475,-76.9230769230769,4,3,3,60,0,0
290808,-76.9230769230769,4,3,3,60,0,1
291142,-76.9230769230769,4,3,2,60,0,1
292975,-73.5294117647059,4,3,2,60,0,1
300808,-73.5294117647059,4,3,1,60,0,1
301475,-73.5294117647059,4,3,2,60,0,1
306808,-73.5294117647059,4,3,1,60,0,1
310808,-73.5294117647059,4,3,2,60,0,1
311142,-73.5294117647059,4,3,1,60,0,1
311475,-73.5294117647059,4,3,2,60,0,1
311808,-73.5294117647059,4,3,1,60,0,1
312142,-100,4,3,2,60,0,0
312308,-100,4,3,4,60,0,0
313475,-100,4,3,2,60,0,0
313975,-100,4,3,3,60,0,0
314142,-100,4,3,1,60,0,0
314808,-100,4,3,2,60,0,0
316142,-100,4,3,2,5,0,0

[Colours]
Combo1 : 167,169,159
Combo2 : 212,211,203
Combo3 : 97,85,81
Combo4 : 127,127,118

[HitObjects]
125,328,257,6,0,P|149:289|145:221,1,104.999996795654,2|0,3:2|3:0,3:0:0:0:
0,148,1668,2,0,L|112:164,1,104.999996795654,2|0,3:2|3:0,3:0:0:0:
226,218,3080,2,0,L|300:207,1,70,2|0,3:2|3:0,3:0:0:0:
420,81,4492,6,0,P|426:172|483:101,1,209.999993591309,2|0,3:2|3:0,3:0:0:0:
487,109,5904,1,2,3:2:0:0:
256,192,6070,12,0,10857,3:0:0:0:
143,99,19566,6,0,L|139:126,2,23.3333326212565,0|0|0,3:0|3:0|3:0,3:0:0:0:
174,113,19732,6,0,L|187:191,2,69.9999978637696,0|0|0,3:0|3:0|3:0,3:0:0:0:
337,170,20232,2,0,L|324:248,2,69.9999978637696,0|0|0,3:0|3:0|3:0,3:0:0:0:
188,290,20732,2,0,L|201:368,2,69.9999978637696,0|0|0,3:0|3:0|3:0,3:0:0:0:
411,255,21232,2,0,L|398:333,2,69.9999978637696,0|0|0,3:0|3:0|3:0,3:0:0:0:
478,184,21648,1,0,3:0:0:0:
478,184,21732,6,0,P|432:169|406:124,1,69.9999978637696,8|8,3:2|3:2,3:0:0:0:
378,38,22065,1,8,3:2:0:0:
315,119,22232,1,8,3:2:0:0:
273,112,22315,1,8,3:2:0:0:
231,108,22398,6,0,L|152:97,2,69.9999978637696,8|0|0,3:2|3:0|3:0,3:0:0:0:
88,219,22898,2,0,L|167:208,2,69.9999978637696,0|0|0,3:0|3:0|3:0,3:0:0:0:
307,287,23398,2,0,L|228:276,2,69.9999978637696,0|0|0,3:0|3:0|3:0,3:0:0:0:
116,370,23898,2,0,L|195:359,2,69.9999978637696,0|0|0,3:0|3:0|3:0,3:0:0:0:
17,218,24398,6,0,P|6:256|20:299,1,69.9999978637696,0|0,3:0|3:0,3:0:0:0:
101,218,24648,1,0,3:0:0:0:
95,208,24732,5,8,3:2:0:0:
80,168,24815,1,8,3:2:0:0:
88,126,24898,1,8,3:2:0:0:
118,96,24982,1,8,3:2:0:0:
159,88,25065,6,0,P|209:104|231:136,2,69.9999978637696,8|0|0,3:2|3:0|3:0,3:0:0:0:
266,42,25565,2,0,P|301:80|304:119,2,69.9999978637696,0|0|0,3:0|3:0|3:0,3:0:0:0:
382,57,26065,2,0,P|393:108|376:143,2,69.9999978637696,0|0|0,3:0|3:0|3:0,3:0:0:0:
486,100,26565,1,0,3:0:0:0:
293,129,26732,1,8,3:2:0:0:
453,172,26898,2,0,L|460:216,2,23.3333326212565,8|0|0,3:2|3:0|3:0,3:0:0:0:
473,269,27065,5,8,3:2:0:0:
338,342,27232,1,8,3:2:0:0:
293,121,27398,1,8,3:2:0:0:
221,226,27565,1,8,3:2:0:0:
186,220,27648,1,8,3:2:0:0:
151,214,27732,6,0,L|66:197,2,69.9999978637696,8|0|0,3:2|3:0|3:0,3:0:0:0:
250,313,28232,2,0,L|335:296,2,69.9999978637696,0|0|0,3:0|3:0|3:0,3:0:0:0:
111,353,28732,1,0,3:0:0:0:
17,296,28898,2,0,L|-14:289,2,23.3333326212565,8|0|0,3:2|3:0|3:0,3:0:0:0:
76,241,29065,5,8,3:2:0:0:
196,185,29232,1,8,3:2:0:0:
207,218,29315,1,8,3:2:0:0:
200,252,29398,1,8,3:2:0:0:
114,153,29565,5,8,3:2:0:0:
290,243,29732,1,8,3:2:0:0:
285,277,29815,1,8,3:2:0:0:
267,307,29898,1,8,3:2:0:0:
237,80,30065,5,8,3:2:0:0:
394,171,30232,1,8,3:2:0:0:
402,137,30315,1,8,3:2:0:0:
397,102,30398,6,0,P|356:92|319:98,2,69.9999978637696,8|0|0,3:2|3:0|3:0,3:0:0:0:
229,175,30898,2,0,P|188:185|151:179,2,69.9999978637696,0|0|0,3:0|3:0|3:0,3:0:0:0:
436,254,31398,2,0,P|395:244|358:250,2,69.9999978637696,0|0|0,3:0|3:0|3:0,3:0:0:0:
249,342,31898,6,0,L|232:253,1,69.9999978637696,8|0,3:2|3:0,3:0:0:0:
69,219,32232,1,8,3:2:0:0:
69,219,32315,1,8,3:2:0:0:
69,219,32398,2,0,L|52:308,1,69.9999978637696,8|8,3:2|3:2,3:0:0:0:
169,363,32732,1,8,3:2:0:0:
136,169,32898,2,0,L|130:139,2,23.3333326212565,8|0|0,3:2|3:0|3:0,3:0:0:0:
65,97,33065,6,0,B|56:76|56:76|73:4,2,69.9999978637696,8|0|0,3:2|3:0|3:0,3:0:0:0:
235,179,33565,2,0,B|244:158|244:158|227:86,2,69.9999978637696,0|0|0,3:0|3:0|3:0,3:0:0:0:
170,260,34065,2,0,P|222:283|261:274,1,69.9999978637696,0|0,3:0|3:0,3:0:0:0:
271,276,34315,1,0,3:0:0:0:
271,276,34398,1,0,3:0:0:0:
378,126,34565,1,8,3:2:0:0:
382,160,34648,1,8,3:2:0:0:
386,194,34732,1,8,3:2:0:0:
318,49,34898,2,0,L|341:53,2,23.3333326212565,0|0|0,3:0|3:0|3:0,3:0:0:0:
433,70,35065,5,8,3:2:0:0:
301,196,35232,1,0,3:0:0:0:
207,66,35398,1,8,3:2:0:0:
179,43,35482,1,8,3:2:0:0:
146,31,35565,1,8,3:2:0:0:
111,33,35648,1,8,3:2:0:0:
79,48,35732,6,0,L|63:136,1,69.9999978637696,8|0,3:2|3:0,3:0:0:0:
132,255,36065,1,0,3:0:0:0:
267,155,36232,2,0,L|172:139,1,69.9999978637696,8|0,3:2|3:0,3:0:0:0:
30,209,36565,1,8,3:2:0:0:
21,242,36648,1,8,3:2:0:0:
25,276,36732,1,8,3:2:0:0:
233,214,36898,2,0,L|190:202,2,23.3333326212565,8|0|0,3:2|3:0|3:0,3:0:0:0:
129,248,37065,5,8,3:2:0:0:
226,345,37232,1,8,3:2:0:0:
260,345,37315,1,8,3:2:0:0:
292,331,37398,1,8,3:2:0:0:
366,150,37565,5,8,3:2:0:0:
264,225,37732,1,8,3:2:0:0:
230,225,37815,1,8,3:2:0:0:
198,211,37898,1,8,3:2:0:0:
161,67,38065,6,0,L|189:64,5,23.3333326212565,8|0|0|8|0|0,3:2|3:0|3:0|3:2|3:0|3:0,3:0:0:0:
98,154,38398,6,0,L|-32:133,1,100,8|0,3:2|3:0,3:0:0:0:
256,32,38732,1,0,3:0:0:0:
414,205,38898,6,0,L|544:184,1,100,8|0,3:2|3:0,3:0:0:0:
256,64,39232,1,0,3:0:0:0:
96,224,39398,6,0,P|75:302|106:344,1,100,8|0,3:2|3:0,3:0:0:0:
256,160,39732,1,0,3:0:0:0:
431,315,39898,6,0,P|439:267|416:224,1,100,8|0,3:2|3:0,3:0:0:0:
256,384,40232,1,0,3:0:0:0:
170,106,40398,6,0,B|256:78|256:78|341:106,2,179.999994506836,8|8|8,3:2|3:2|3:2,3:0:0:0:
50,197,41065,6,0,P|25:154|32:91,1,85.0000016212464,4|0,3:1|3:0,3:0:0:0:
249,209,41398,1,8,3:2:0:0:
249,209,41482,1,8,3:2:0:0:
249,209,41565,2,0,L|152:196,1,85.0000016212464,8|0,3:2|3:0,3:0:0:0:
51,358,41898,1,8,3:2:0:0:
51,358,41982,1,8,3:2:0:0:
51,358,42065,2,0,L|148:345,1,85.0000016212464,8|0,3:2|3:0,3:0:0:0:
239,287,42315,5,0,3:0:0:0:
239,287,42398,2,0,L|336:300,1,85.0000016212464,0|8,3:0|3:2,3:0:0:0:
428,365,42648,1,8,3:2:0:0:
428,365,42732,2,0,L|525:352,1,85.0000016212464,8|0,3:2|3:0,3:0:0:0:
344,159,43065,5,8,3:2:0:0:
446,284,43232,1,8,3:2:0:0:
512,76,43398,2,0,B|483:77|483:77|465:87|465:87|420:90,1,75.0000028610231,8|8,3:2|3:2,3:0:0:0:
261,28,43732,5,8,3:2:0:0:
172,192,43898,1,8,3:2:0:0:
206,217,43982,1,8,3:2:0:0:
248,220,44065,1,8,3:2:0:0:
266,17,44232,5,8,3:2:0:0:
162,198,44398,1,8,3:2:0:0:
202,228,44482,1,8,3:2:0:0:
251,231,44565,1,8,3:2:0:0:
41,85,44732,6,0,L|49:183,1,75.0000028610231,8|0,3:2|3:0,3:0:0:0:
337,269,45065,5,0,3:0:0:0:
93,250,45232,1,8,3:2:0:0:
84,295,45315,1,8,3:2:0:0:
101,338,45398,1,10,3:2:0:0:
411,318,45565,5,10,3:2:0:0:
209,215,45732,1,10,3:2:0:0:
284,384,45898,1,10,3:2:0:0:
383,164,46065,1,10,3:2:0:0:
309,242,46232,2,0,L|341:237,2,28.3333338737488,8|0|0,3:2|3:0|3:0,3:0:0:0:
437,230,46398,5,10,3:2:0:0:
332,74,46565,1,8,3:2:0:0:
372,60,46648,1,8,3:2:0:0:
414,66,46732,1,8,3:2:0:0:
438,243,46898,5,8,3:2:0:0:
322,64,47065,1,8,3:2:0:0:
362,50,47148,1,8,3:2:0:0:
404,56,47232,1,8,3:2:0:0:
247,212,47398,5,8,3:2:0:0:
133,101,47565,1,8,3:2:0:0:
93,87,47648,1,8,3:2:0:0:
51,93,47732,1,8,3:2:0:0:
106,265,47898,1,8,3:2:0:0:
146,279,47982,1,8,3:2:0:0:
188,273,48065,1,8,3:2:0:0:
31,172,48232,5,8,3:2:0:0:
275,236,48398,1,8,3:2:0:0:
52,81,48565,1,8,3:2:0:0:
193,285,48732,2,0,L|209:201,2,56.6666677474976,10|10|10,3:2|3:2|3:2,3:0:0:0:
178,124,49065,6,0,P|251:157|311:126,1,113.333335494995,4|0,3:1|3:0,3:0:0:0:
398,53,49398,5,10,3:2:0:0:
369,102,49509,1,2,3:2:0:0:
379,157,49620,1,10,3:2:0:0:
443,192,49732,2,0,L|300:177,1,113.333335494995,4|0,3:1|3:0,3:0:0:0:
218,276,50065,5,10,3:2:0:0:
162,285,50176,1,10,3:2:0:0:
106,294,50287,1,10,3:2:0:0:
54,338,50398,2,0,P|76:282|60:215,1,113.333335494995,4|0,3:1|3:0,3:0:0:0:
10,63,50732,5,10,3:2:0:0:
61,87,50843,1,10,3:2:0:0:
117,79,50954,1,10,3:2:0:0:
153,21,51065,2,0,P|90:123|222:198,1,283.333338737488,4|0,3:1|3:0,3:0:0:0:
244,170,51732,6,0,L|231:271,1,69.9999978637696,8|0,3:2|3:0,3:0:0:0:
264,183,52233,2,0,L|251:284,1,69.9999978637696,0|0,3:0|3:0,3:0:0:0:
289,197,52735,2,0,L|276:298,1,69.9999978637696,0|0,3:0|3:0,3:0:0:0:
309,210,53237,2,0,L|296:311,1,69.9999978637696,0|0,3:0|3:0,3:0:0:0:
401,165,53739,6,0,P|334:106|269:113,1,139.999995727539,2|2,3:2|3:2,3:0:0:0:
61,147,54409,5,2,3:2:0:0:
61,147,54743,2,0,B|92:198|63:255|46:245|11:307|52:363,1,209.999993591309,2|0,3:2|3:0,3:0:0:0:
147,202,55412,5,2,3:2:0:0:
318,280,55747,2,0,B|270:314|270:314|102:265,1,209.999993591309,2|0,3:2|3:0,3:0:0:0:
318,151,56416,2,0,L|324:192,11,23.3333326212565,10|0|8|0|8|0|8|0|8|0|8|0,3:2|3:0|3:2|3:0|3:2|3:0|3:2|3:0|3:2|3:0|3:2|3:0,3:0:0:0:
245,96,57086,6,0,L|265:-11,1,85.0000016212464,8|0,3:2|3:0,3:0:0:0:
177,154,57419,5,8,3:2:0:0:
124,177,57530,1,8,3:2:0:0:
68,164,57641,1,8,3:2:0:0:
28,109,57752,2,0,L|40:213,1,56.6666677474976,4|0,3:1|3:0,3:0:0:0:
133,313,57974,2,0,L|121:209,1,56.6666677474976,8|0,3:2|3:0,3:0:0:0:
240,57,58197,2,0,L|252:161,1,56.6666677474976,8|0,3:2|3:0,3:0:0:0:
379,203,58419,6,0,P|318:198|271:272,1,113.333335494995,8|8,3:2|3:2,3:0:0:0:
511,284,58752,1,8,3:2:0:0:
499,228,58863,1,8,3:2:0:0:
488,172,58974,1,8,3:2:0:0:
512,108,59086,2,0,P|471:136|401:127,1,113.333335494995,4|2,3:1|3:2,3:0:0:0:
353,42,59419,2,0,P|312:14|242:23,1,113.333335494995,2|2,3:2|3:2,3:0:0:0:
161,157,59752,6,0,L|179:35,1,113.333335494995,8|8,3:2|3:2,3:0:0:0:
239,230,60090,1,8,3:2:0:0:
290,252,60202,1,8,3:2:0:0:
345,240,60315,1,8,3:2:0:0:
388,187,60428,2,0,L|406:285,1,56.6666677474976,4|0,3:1|3:0,3:0:0:0:
229,362,60653,2,0,L|211:264,1,56.6666677474976,8|0,3:2|3:0,3:0:0:0:
278,109,60878,2,0,L|296:207,1,56.6666677474976,8|8,3:2|3:2,3:0:0:0:
70,232,61104,6,0,B|139:222|139:222|173:237|173:237|252:225,1,179.999994506836,8|0,3:2|3:0,3:0:0:0:
13,175,61783,2,0,P|-9:235|14:291,1,120,4|0,3:1|3:0,3:0:0:0:
121,71,62463,6,0,L|26:85,1,79.9999975585938,4|0,3:1|3:0,3:0:0:0:
193,114,62803,1,8,3:2:0:0:
224,119,62917,1,8,3:2:0:0:
255,124,63031,1,8,3:2:0:0:
286,129,63144,1,8,3:2:0:0:
205,120,64167,5,8,3:2:0:0:
236,125,64281,1,8,3:2:0:0:
267,130,64394,1,8,3:2:0:0:
298,135,64508,5,8,3:2:0:0:
335,98,64622,1,8,3:2:0:0:
386,100,64735,1,8,3:2:0:0:
424,135,64849,1,8,3:2:0:0:
413,185,64963,1,8,3:2:0:0:
367,211,65076,1,8,3:2:0:0:
347,259,65190,6,0,L|443:278,1,79.9999975585938,8|0,3:2|3:0,3:0:0:0:
208,321,65531,1,8,3:2:0:0:
176,326,65644,1,8,3:2:0:0:
144,331,65758,1,8,3:2:0:0:
112,338,65872,1,8,3:2:0:0:
189,327,66894,5,10,3:2:0:0:
157,332,67008,1,8,3:2:0:0:
125,337,67122,1,8,3:2:0:0:
93,344,67235,2,0,L|44:355,1,39.9999987792969,10|8,3:2|3:2,3:0:0:0:
258,250,67463,2,0,L|307:261,1,39.9999987792969,8|10,3:2|3:2,3:0:0:0:
116,189,67690,2,0,L|67:200,1,39.9999987792969,8|8,3:2|3:2,3:0:0:0:
230,117,67917,6,0,P|245:78|217:16,1,79.9999975585938,4|0,3:1|3:0,3:0:0:0:
58,88,68257,1,8,3:2:0:0:
89,83,68370,1,8,3:2:0:0:
120,79,68483,1,8,3:2:0:0:
151,75,68597,1,8,3:2:0:0:
75,88,69617,5,8,3:2:0:0:
106,83,69731,1,8,3:2:0:0:
137,79,69844,1,8,3:2:0:0:
168,75,69957,5,8,3:2:0:0:
205,111,70071,1,8,3:2:0:0:
189,160,70184,1,8,3:2:0:0:
144,187,70297,1,8,3:2:0:0:
124,235,70411,1,8,3:2:0:0:
144,282,70524,1,8,3:2:0:0:
193,298,70638,2,0,L|161:194,1,79.9999975585938,8|0,3:2|3:0,3:0:0:0:
343,109,70978,5,10,3:2:0:0:
334,139,71091,1,10,3:2:0:0:
326,170,71204,1,10,3:2:0:0:
318,201,71318,1,10,3:2:0:0:
455,37,71658,5,10,3:2:0:0:
464,67,71771,1,10,3:2:0:0:
472,98,71885,1,10,3:2:0:0:
481,130,71998,2,0,L|491:167,11,19.9999993896485,10|0|0|8|0|0|8|0|0|8|0|0,3:2|3:0|3:0|3:2|3:0|3:0|3:2|3:0|3:0|3:2|3:0|3:0,3:0:0:0:
453,274,72703,6,0,P|412:276|380:256,1,59.9999981689454,8|0,3:2|3:0,3:0:0:0:
268,327,72939,2,0,P|285:290|319:272,1,59.9999981689454,8|0,3:2|3:0,3:0:0:0:
316,139,73174,2,0,P|339:172|337:211,1,59.9999981689454,8|0,3:2|3:0,3:0:0:0:
189,252,73409,6,0,B|157:256|157:256|143:252|143:252|96:258,1,93.3333304850261,4|0,3:1|3:0,3:0:0:0:
19,160,73749,1,10,3:2:0:0:
54,129,73863,1,10,3:2:0:0:
63,83,73976,1,10,3:2:0:0:
45,39,74090,2,0,L|-19:27,1,46.6666652425131,4|0,3:1|3:0,3:0:0:0:
129,121,74317,1,0,3:0:0:0:
174,112,74430,2,0,L|238:100,2,46.6666652425131,2|2|2,3:2|3:2|3:2,3:0:0:0:
308,8,74771,5,8,3:2:0:0:
396,152,75111,5,8,3:2:0:0:
434,177,75225,2,0,L|505:168,1,46.6666652425131,8|8,3:2|3:2,3:0:0:0:
294,258,75452,1,8,3:2:0:0:
256,283,75565,2,0,L|185:274,1,46.6666652425131,8|8,3:2|3:2,3:0:0:0:
300,98,75792,1,8,3:2:0:0:
0,184,76133,6,0,B|29:167|29:167|99:184,1,100.000003814697,4|0,3:1|3:0,3:0:0:0:
123,335,76467,1,10,3:2:0:0:
126,285,76579,1,10,3:2:0:0:
161,249,76690,1,10,3:2:0:0:
220,245,76802,2,0,P|196:267|150:273,1,50.0000019073487,4|0,3:1|3:0,3:0:0:0:
242,153,77025,1,0,3:0:0:0:
294,181,77136,2,0,P|310:207|309:250,2,50.0000019073487,10|2|2,3:2|3:2|3:2,3:0:0:0:
340,43,77471,5,8,3:2:0:0:
74,34,77805,5,8,3:2:0:0:
66,57,77917,1,8,3:2:0:0:
68,81,78028,1,8,3:2:0:0:
107,112,78140,5,8,3:2:0:0:
125,147,78251,1,8,3:2:0:0:
122,186,78363,1,8,3:2:0:0:
76,239,78474,6,0,P|75:254|79:266,5,25.0000009536744,8|0|0|0|0|0,3:2|3:0|3:0|3:0|3:0|3:0,3:0:0:0:
154,314,78809,5,4,3:1:0:0:
254,187,78975,1,8,3:2:0:0:
284,179,79059,1,8,3:2:0:0:
315,182,79142,1,8,3:2:0:0:
144,319,79309,5,8,3:2:0:0:
261,173,79475,1,8,3:2:0:0:
291,165,79559,1,8,3:2:0:0:
322,168,79642,1,8,3:2:0:0:
406,293,79809,5,8,3:2:0:0:
491,156,79975,1,8,3:2:0:0:
499,125,80059,1,8,3:2:0:0:
492,94,80142,1,8,3:2:0:0:
393,296,80309,5,8,3:2:0:0:
288,154,80475,1,8,3:2:0:0:
280,123,80559,1,8,3:2:0:0:
287,92,80642,1,8,3:2:0:0:
267,263,80809,5,10,3:2:0:0:
240,279,80892,1,2,3:2:0:0:
208,280,80975,2,0,P|182:272|153:227,1,44.999998626709,10|8,3:2|3:2,3:0:0:0:
114,149,81142,5,10,3:2:0:0:
87,133,81225,1,2,3:2:0:0:
55,132,81309,2,0,P|29:140|0:185,1,44.999998626709,10|8,3:2|3:2,3:0:0:0:
34,252,81475,5,4,3:1:0:0:
173,92,81642,1,8,3:2:0:0:
190,50,81725,1,8,3:2:0:0:
179,5,81809,1,8,3:2:0:0:
86,124,81975,5,8,3:2:0:0:
199,244,82142,1,8,3:2:0:0:
216,286,82225,1,8,3:2:0:0:
205,331,82309,1,8,3:2:0:0:
27,326,82475,5,8,3:2:0:0:
99,177,82642,1,8,3:2:0:0:
141,163,82725,1,8,3:2:0:0:
185,170,82809,1,8,3:2:0:0:
304,90,82975,5,8,3:2:0:0:
373,230,83142,1,8,3:2:0:0:
415,244,83225,1,8,3:2:0:0:
459,237,83309,1,8,3:2:0:0:
485,50,83475,5,8,3:2:0:0:
443,22,83559,1,8,3:2:0:0:
393,17,83642,1,8,3:2:0:0:
348,37,83725,1,0,3:0:0:0:
325,76,83809,1,8,3:2:0:0:
324,116,83892,1,8,3:2:0:0:
339,148,83975,1,8,3:2:0:0:
365,165,84059,1,0,3:0:0:0:
391,166,84142,5,12,3:0:0:0:
369,112,84225,1,0,3:0:0:0:
315,91,84309,1,0,3:0:0:0:
257,94,84392,1,0,3:0:0:0:
216,134,84475,1,10,3:0:0:0:
164,158,84559,1,0,3:0:0:0:
108,141,84642,1,0,3:0:0:0:
77,92,84725,1,0,3:0:0:0:
86,35,84809,5,10,3:0:0:0:
141,52,84892,1,0,3:0:0:0:
172,99,84975,1,0,3:0:0:0:
171,156,85059,1,0,3:0:0:0:
147,208,85142,1,10,3:0:0:0:
101,243,85225,1,0,3:0:0:0:
83,297,85309,1,0,3:0:0:0:
103,351,85392,1,0,3:0:0:0:
154,375,85475,1,10,3:0:0:0:
207,355,85559,1,0,3:0:0:0:
231,302,85642,1,0,3:0:0:0:
217,246,85725,1,0,3:0:0:0:
168,215,85808,6,0,P|135:216|97:267,1,57.5000010967255,10|0,3:0|3:0,3:0:0:0:
294,347,85975,2,0,P|309:317|284:259,1,57.5000010967255,0|0,3:0|3:0,3:0:0:0:
265,167,86142,5,10,3:0:0:0:
239,115,86225,1,0,3:0:0:0:
254,59,86308,1,0,3:0:0:0:
303,29,86392,1,0,3:0:0:0:
359,36,86475,1,10,3:0:0:0:
400,75,86558,1,0,3:0:0:0:
404,132,86642,1,0,3:0:0:0:
371,179,86725,1,0,3:0:0:0:
316,197,86808,1,10,3:0:0:0:
275,238,86892,1,0,3:0:0:0:
271,295,86975,1,0,3:0:0:0:
303,341,87058,1,0,3:0:0:0:
358,357,87142,5,10,3:0:0:0:
377,335,87225,1,0,3:0:0:0:
385,307,87308,2,0,P|383:275|349:242,1,57.5000010967255,0|0,3:0|3:0,3:0:0:0:
121,197,87475,5,10,3:0:0:0:
130,224,87558,1,0,3:0:0:0:
150,245,87642,2,0,P|178:259|224:246,1,57.5000010967255,0|0,3:0|3:0,3:0:0:0:
325,81,87808,5,10,3:0:0:0:
287,53,87892,1,0,3:0:0:0:
241,50,87975,1,0,3:0:0:0:
199,70,88058,1,0,3:0:0:0:
169,105,88142,1,10,3:0:0:0:
126,121,88225,1,0,3:0:0:0:
81,110,88308,1,0,3:0:0:0:
52,73,88392,1,0,3:0:0:0:
52,27,88475,5,12,3:0:0:0:
76,11,88558,1,0,3:0:0:0:
104,12,88642,2,0,P|131:19|156:45,1,57.5000010967255,0|0,3:0|3:0,3:0:0:0:
227,179,88808,5,12,3:0:0:0:
251,195,88892,1,0,3:0:0:0:
279,194,88975,2,0,P|306:187|331:161,1,57.5000010967255,0|0,3:0|3:0,3:0:0:0:
296,3,89142,5,12,3:1:0:0:
270,15,89225,1,0,3:0:0:0:
257,40,89308,2,0,P|249:66|259:101,1,57.5000010967255,0|0,3:0|3:0,3:0:0:0:
359,267,89475,5,12,3:1:0:0:
407,296,89558,1,0,3:0:0:0:
464,289,89642,1,0,3:0:0:0:
499,244,89725,1,0,3:0:0:0:
504,186,89808,1,10,3:0:0:0:
471,138,89892,1,0,3:0:0:0:
416,120,89975,1,0,3:0:0:0:
363,142,90058,1,0,3:0:0:0:
334,192,90142,5,10,3:0:0:0:
384,218,90225,1,0,3:0:0:0:
439,202,90308,1,0,3:0:0:0:
470,153,90392,1,0,3:0:0:0:
468,95,90475,1,10,3:0:0:0:
427,54,90558,1,0,3:0:0:0:
369,46,90642,1,0,3:0:0:0:
320,76,90725,1,0,3:0:0:0:
302,130,90808,1,10,3:0:0:0:
281,184,90892,1,0,3:0:0:0:
233,216,90975,1,0,3:0:0:0:
175,217,91058,1,0,3:0:0:0:
132,177,91142,6,0,L|146:111,1,57.5000010967255,10|0,3:0|3:0,3:0:0:0:
312,268,91308,2,0,L|326:334,1,57.5000010967255,0|0,3:0|3:0,3:0:0:0:
141,329,91475,5,10,3:0:0:0:
87,349,91558,1,0,3:0:0:0:
32,329,91642,1,0,3:0:0:0:
8,276,91725,1,0,3:0:0:0:
23,220,91808,1,10,3:0:0:0:
71,189,91892,1,0,3:0:0:0:
126,205,91975,1,0,3:0:0:0:
182,197,92058,1,0,3:0:0:0:
218,153,92142,1,10,3:0:0:0:
222,95,92225,1,0,3:0:0:0:
188,48,92308,1,0,3:0:0:0:
131,39,92392,1,0,3:0:0:0:
81,69,92475,5,10,3:0:0:0:
89,96,92558,1,0,3:0:0:0:
108,116,92642,2,0,P|135:127|191:121,1,57.5000010967255,0|0,3:0|3:0,3:0:0:0:
378,7,92808,5,10,3:0:0:0:
350,0,92892,1,0,3:0:0:0:
323,6,92975,2,0,P|299:23|277:75,1,57.5000010967255,0|0,3:0|3:0,3:0:0:0:
251,189,93142,5,10,3:0:0:0:
274,228,93225,1,0,3:0:0:0:
313,250,93308,1,0,3:0:0:0:
358,250,93392,1,0,3:0:0:0:
395,222,93475,1,10,3:0:0:0:
437,205,93558,1,0,3:0:0:0:
481,215,93642,1,0,3:0:0:0:
510,250,93725,1,0,3:0:0:0:
510,295,93808,5,12,3:0:0:0:
485,309,93892,1,0,3:0:0:0:
456,311,93975,2,0,P|426:306|401:285,1,57.5000010967255,0|0,3:0|3:0,3:0:0:0:
349,6,94142,5,12,3:0:0:0:
373,20,94225,1,0,3:0:0:0:
389,44,94308,2,0,P|399:72|393:104,1,57.5000010967255,0|0,3:0|3:0,3:0:0:0:
191,272,94475,5,12,3:1:0:0:
191,244,94558,1,0,3:0:0:0:
203,218,94642,2,0,P|222:194|253:183,1,57.5000010967255,0|0,3:0|3:0,3:0:0:0:
343,330,94808,5,12,3:1:0:0:
299,366,94892,1,0,3:0:0:0:
241,366,94975,1,0,3:0:0:0:
194,332,95058,1,0,3:0:0:0:
184,275,95142,1,10,3:0:0:0:
155,224,95225,1,0,3:0:0:0:
102,201,95308,1,0,3:0:0:0:
47,219,95392,1,0,3:0:0:0:
17,268,95475,5,10,3:0:0:0:
62,302,95558,1,0,3:0:0:0:
118,292,95642,1,0,3:0:0:0:
155,248,95725,1,0,3:0:0:0:
177,195,95808,1,10,3:0:0:0:
218,155,95892,1,0,3:0:0:0:
275,146,95975,1,0,3:0:0:0:
326,170,96058,1,0,3:0:0:0:
349,222,96142,1,10,3:0:0:0:
339,279,96225,1,0,3:0:0:0:
292,312,96308,1,0,3:0:0:0:
235,317,96392,1,0,3:0:0:0:
187,283,96475,6,0,P|171:240|181:200,1,57.5000010967255,10|0,3:0|3:0,3:0:0:0:
403,309,96642,2,0,P|373:344|334:355,1,57.5000010967255,0|0,3:0|3:0,3:0:0:0:
332,159,96808,5,10,3:0:0:0:
307,107,96892,1,0,3:0:0:0:
253,84,96975,1,0,3:0:0:0:
197,96,97058,1,0,3:0:0:0:
166,144,97142,1,10,3:0:0:0:
114,170,97225,1,0,3:0:0:0:
57,159,97308,1,0,3:0:0:0:
24,111,97392,1,0,3:0:0:0:
28,53,97475,1,10,3:0:0:0:
68,12,97558,1,0,3:0:0:0:
124,4,97642,1,0,3:0:0:0:
172,35,97725,1,0,3:0:0:0:
191,88,97808,5,10,3:0:0:0:
162,92,97892,1,0,3:0:0:0:
133,97,97975,2,0,L|74:107,1,57.5000010967255,0|0,3:0|3:0,3:0:0:0:
305,8,98142,5,10,3:0:0:0:
334,12,98225,1,0,3:0:0:0:
363,17,98308,2,0,L|422:27,1,57.5000010967255,0|0,3:0|3:0,3:0:0:0:
369,198,98475,5,10,3:0:0:0:
335,229,98558,1,0,3:0:0:0:
289,230,98642,1,0,3:0:0:0:
246,210,98725,1,0,3:0:0:0:
212,179,98808,1,10,3:0:0:0:
166,174,98892,1,0,3:0:0:0:
125,197,98975,1,0,3:0:0:0:
108,239,99058,1,0,3:0:0:0:
120,283,99142,5,12,3:0:0:0:
148,283,99225,1,0,3:0:0:0:
174,271,99308,2,0,P|201:249|210:186,1,57.5000010967255,0|0,3:0|3:0,3:0:0:0:
105,17,99475,5,12,3:0:0:0:
91,41,99558,1,0,3:0:0:0:
88,69,99642,2,0,P|93:103|143:142,1,57.5000010967255,0|0,3:0|3:0,3:0:0:0:
358,162,99808,5,12,3:1:0:0:
344,137,99892,1,0,3:0:0:0:
321,121,99975,2,0,P|288:108|229:132,1,57.5000010967255,0|0,3:0|3:0,3:0:0:0:
235,290,100142,5,12,3:1:0:0:
275,331,100225,1,0,3:0:0:0:
331,340,100308,1,0,3:0:0:0:
384,320,100392,1,0,3:0:0:0:
418,273,100475,1,10,3:0:0:0:
413,215,100558,1,0,3:0:0:0:
386,164,100642,1,0,3:0:0:0:
331,143,100725,1,0,3:0:0:0:
275,157,100808,5,10,3:0:0:0:
295,210,100892,1,0,3:0:0:0:
347,234,100975,1,0,3:0:0:0:
403,223,101058,1,0,3:0:0:0:
438,178,101142,1,10,3:0:0:0:
438,120,101225,1,0,3:0:0:0:
402,74,101308,1,0,3:0:0:0:
348,54,101392,1,0,3:0:0:0:
293,74,101475,1,10,3:0:0:0:
264,123,101558,1,0,3:0:0:0:
212,147,101642,1,0,3:0:0:0:
154,136,101725,1,0,3:0:0:0:
124,86,101808,6,0,L|198:71,1,57.5000010967255,10|0,3:0|3:0,3:0:0:0:
230,313,101975,2,0,L|156:298,1,57.5000010967255,0|0,3:0|3:0,3:0:0:0:
349,143,102142,5,10,3:0:0:0:
398,112,102225,1,0,3:0:0:0:
454,117,102308,1,0,3:0:0:0:
497,154,102392,1,0,3:0:0:0:
507,210,102475,1,10,3:0:0:0:
481,261,102558,1,0,3:0:0:0:
432,290,102642,1,0,3:0:0:0:
375,278,102725,1,0,3:0:0:0:
339,233,102808,1,10,3:0:0:0:
333,175,102892,1,0,3:0:0:0:
307,122,102975,1,0,3:0:0:0:
254,99,103058,1,0,3:0:0:0:
198,113,103142,5,10,3:0:0:0:
193,141,103225,1,0,3:0:0:0:
200,168,103308,2,0,P|214:195|258:215,1,57.5000010967255,0|0,3:0|3:0,3:0:0:0:
384,27,103475,5,10,3:0:0:0:
362,8,103558,1,0,3:0:0:0:
335,1,103642,2,0,P|304:0|265:27,1,57.5000010967255,0|0,3:0|3:0,3:0:0:0:
126,119,103808,5,10,3:0:0:0:
86,141,103892,1,0,3:0:0:0:
40,134,103975,1,0,3:0:0:0:
9,99,104058,1,0,3:0:0:0:
1,53,104142,1,10,3:0:0:0:
27,14,104225,1,0,3:0:0:0:
70,0,104308,1,0,3:0:0:0:
114,9,104392,1,0,3:0:0:0:
142,45,104475,5,14,3:0:0:0:
119,63,104558,1,0,3:0:0:0:
91,69,104642,2,0,P|51:62|34:39,1,57.5000010967255,0|0,3:0|3:0,3:0:0:0:
233,38,104808,5,14,3:0:0:0:
260,48,104892,1,0,3:0:0:0:
279,70,104975,2,0,P|292:94|288:123,1,57.5000010967255,0|0,3:0|3:0,3:0:0:0:
166,254,105142,5,14,3:0:0:0:
161,225,105225,1,0,3:0:0:0:
170,198,105308,2,0,P|184:173|211:162,1,57.5000010967255,0|0,3:0|3:0,3:0:0:0:
419,333,105475,6,0,B|326:319|326:319|312:324|312:324|221:309,1,194.999991073609,4|0,3:1|3:0,3:0:0:0:
285,77,105808,2,0,B|378:63|378:63|392:68|392:68|483:53,1,194.999991073609,4|0,3:1|3:0,3:0:0:0:
237,230,106142,2,0,B|144:216|144:216|130:221|130:221|39:206,1,194.999991073609,4|0,3:1|3:0,3:0:0:0:
0,36,106475,2,0,L|8:83,1,43.3333313496908,8|0,3:0|3:0,3:0:0:0:
306,121,106808,6,0,P|234:161|214:290,1,194.999991073609,4|0,3:1|3:0,3:0:0:0:
463,285,107142,2,0,P|464:202|362:120,1,194.999991073609,4|0,3:0|3:0,3:0:0:0:
240,334,107475,2,0,P|310:376|432:329,1,194.999991073609,4|0,3:1|3:0,3:0:0:0:
333,244,107808,1,2,3:1:0:0:
424,20,108142,5,4,3:1:0:0:
297,113,108308,1,8,3:0:0:0:
226,105,108392,1,8,3:0:0:0:
154,97,108475,1,8,3:0:0:0:
83,89,108558,1,8,3:0:0:0:
32,29,108642,5,2,3:1:0:0:
83,57,108725,1,2,3:1:0:0:
110,101,108808,1,2,3:1:0:0:
105,139,108892,1,2,3:1:0:0:
86,165,108975,1,2,3:1:0:0:
62,175,109058,1,2,3:1:0:0:
42,172,109142,6,0,L|30:98,1,64.9999970245363,0|0,3:0|3:0,3:0:0:0:
247,11,109308,2,0,L|235:85,1,64.9999970245363,0|0,3:0|3:0,3:0:0:0:
146,272,109475,5,8,3:0:0:0:
196,330,109558,1,8,3:0:0:0:
266,340,109642,1,0,3:0:0:0:
326,314,109725,1,2,3:1:0:0:
360,266,109808,1,2,3:1:0:0:
408,248,109892,1,2,3:1:0:0:
453,253,109975,1,2,3:1:0:0:
485,274,110058,1,2,3:1:0:0:
500,302,110142,1,0,3:0:0:0:
503,327,110225,1,0,3:0:0:0:
496,345,110308,1,2,3:1:0:0:
481,358,110392,1,2,3:1:0:0:
462,363,110475,5,8,3:0:0:0:
436,289,110558,1,8,3:0:0:0:
411,215,110642,1,8,3:0:0:0:
385,140,110725,1,8,3:0:0:0:
360,66,110808,1,4,3:0:0:0:
200,198,110975,5,0,3:0:0:0:
217,215,111058,1,0,3:0:0:0:
240,223,111142,2,0,P|289:227|337:192,1,100,10|0,3:1|3:0,3:0:0:0:
79,137,111475,2,0,P|49:177|56:236,1,100,2|0,3:1|3:0,3:0:0:0:
252,67,111808,2,0,P|231:21|177:-2,1,100,10|0,3:1|3:0,3:0:0:0:
44,235,112142,6,0,B|74:256|74:256|161:243,1,100,2|0,3:1|3:0,3:0:0:0:
164,244,112392,1,0,3:0:0:0:
164,244,112475,1,10,3:1:0:0:
247,64,112642,6,0,B|292:32|351:67|333:99|380:133|451:87,1,200,0|0,3:0|3:0,3:0:0:0:
448,84,113058,1,0,3:0:0:0:
448,84,113142,1,10,3:1:0:0:
269,162,113308,1,0,3:0:0:0:
411,278,113475,6,0,P|424:222|400:167,1,100,4|0,3:1|3:0,3:0:0:0:
393,165,113725,1,0,3:0:0:0:
393,165,113808,1,10,3:1:0:0:
321,354,113975,1,0,3:0:0:0:
185,248,114142,6,0,B|132:252|132:252|129:255|129:255|73:260,1,100,2|0,3:1|3:0,3:0:0:0:
61,262,114392,1,0,3:0:0:0:
61,262,114475,1,10,3:1:0:0:
226,344,114642,1,0,3:0:0:0:
278,133,114808,5,2,3:1:0:0:
136,184,114975,5,0,3:0:0:0:
111,178,115058,1,0,3:0:0:0:
90,164,115142,2,0,P|69:138|68:81,1,50,10|0,3:1|3:0,3:0:0:0:
284,140,115308,5,0,3:0:0:0:
302,157,115392,1,0,3:0:0:0:
313,180,115475,2,0,P|318:213|290:262,1,50,2|0,3:1|3:0,3:0:0:0:
139,105,115642,5,0,3:0:0:0:
131,81,115725,1,0,3:0:0:0:
133,55,115808,2,0,P|145:23|193:-5,1,50,10|0,3:1|3:0,3:0:0:0:
241,206,115975,5,0,3:0:0:0:
235,230,116058,1,0,3:0:0:0:
221,252,116142,2,0,P|195:273|118:272,1,100,4|0,3:0|3:0,3:0:0:0:
17,141,116392,5,0,3:0:0:0:
20,165,116475,2,0,L|30:272,1,100,10|0,3:1|3:0,3:0:0:0:
297,366,116808,2,0,L|307:259,1,100,2|0,3:1|3:0,3:0:0:0:
139,62,117142,2,0,L|149:169,1,100,10|0,3:1|3:0,3:0:0:0:
417,159,117475,6,0,P|359:127|286:143,1,100,2|0,3:1|3:0,3:0:0:0:
226,199,117725,1,0,3:0:0:0:
215,221,117808,2,0,P|157:253|84:237,1,100,10|0,3:1|3:0,3:0:0:0:
207,31,118142,6,0,L|283:22,1,50,2|0,3:1|3:0,3:0:0:0:
329,91,118308,1,0,3:0:0:0:
329,91,118392,2,0,L|405:100,1,50,0|10,3:0|3:1,3:0:0:0:
463,39,118558,1,0,3:0:0:0:
463,39,118642,2,0,L|539:30,1,50,0|0,3:0|3:0,3:0:0:0:
494,186,118808,6,0,P|451:234|397:231,1,100,4|0,3:0|3:0,3:0:0:0:
394,230,119058,1,0,3:0:0:0:
394,230,119142,1,10,3:1:0:0:
237,168,119308,5,0,3:0:0:0:
212,172,119392,1,0,3:0:0:0:
187,176,119475,2,0,L|53:200,1,100,2|0,3:1|3:0,3:0:0:0:
225,307,119808,2,0,L|359:331,1,100,10|0,3:1|3:0,3:0:0:0:
47,101,120142,6,0,P|2:138|32:277,1,200,2|10,3:1|3:1,3:0:0:0:
246,251,120642,5,2,3:1:0:0:
266,216,120725,1,2,3:1:0:0:
269,176,120808,1,2,3:1:0:0:
251,140,120892,1,2,3:1:0:0:
223,110,120975,1,2,3:1:0:0:
218,70,121058,1,2,3:1:0:0:
236,34,121142,5,8,3:0:0:0:
487,201,121308,1,8,3:0:0:0:
427,196,121392,1,8,3:0:0:0:
367,192,121475,2,0,L|267:182,1,100,4|0,3:0|3:0,3:0:0:0:
122,231,121725,5,0,3:0:0:0:
140,214,121808,2,0,P|160:172|133:102,1,100,10|0,3:1|3:0,3:0:0:0:
18,298,122142,2,0,P|-2:256|25:186,1,100,2|0,3:1|3:0,3:0:0:0:
201,377,122475,2,0,P|221:335|194:265,1,100,10|0,3:1|3:0,3:0:0:0:
116,136,122808,6,0,B|163:130|163:130|181:134|181:134|230:127,1,100,2|0,3:1|3:0,3:0:0:0:
243,130,123058,1,0,3:0:0:0:
243,130,123142,1,10,3:1:0:0:
315,21,123308,6,0,B|375:-7|414:44|402:55|447:113|510:77,1,200,0|0,3:0|3:0,3:0:0:0:
512,76,123725,1,0,3:0:0:0:
512,76,123808,1,10,3:1:0:0:
321,165,123975,1,0,3:0:0:0:
441,247,124142,6,0,P|454:304|447:356,1,100,4|0,3:1|3:0,3:0:0:0:
442,370,124392,1,0,3:0:0:0:
442,370,124475,1,10,3:1:0:0:
319,177,124642,1,0,3:0:0:0:
176,263,124808,6,0,P|233:276|285:269,1,100,2|0,3:1|3:0,3:0:0:0:
300,265,125058,1,0,3:0:0:0:
300,265,125142,1,10,3:1:0:0:
121,345,125308,1,0,3:0:0:0:
44,168,125475,5,2,3:1:0:0:
240,167,125642,5,0,3:0:0:0:
216,174,125725,1,0,3:0:0:0:
192,180,125808,2,0,L|126:196,1,50,10|0,3:1|3:0,3:0:0:0:
75,67,125975,5,0,3:0:0:0:
99,74,126058,1,0,3:0:0:0:
123,80,126142,2,0,L|189:96,1,50,2|0,3:1|3:0,3:0:0:0:
312,228,126308,5,0,3:0:0:0:
288,235,126392,1,0,3:0:0:0:
264,241,126475,2,0,L|198:257,1,50,10|0,3:1|3:0,3:0:0:0:
292,66,126642,5,0,3:0:0:0:
446,138,126808,6,0,P|389:174|336:158,1,100,4|0,3:0|3:0,3:0:0:0:
336,159,127058,1,0,3:0:0:0:
336,159,127142,1,10,3:1:0:0:
215,30,127308,1,0,3:0:0:0:
120,113,127475,6,0,L|130:172,1,50,2|0,3:1|3:0,3:0:0:0:
209,212,127642,1,0,3:0:0:0:
209,212,127725,2,0,L|199:271,1,50,0|10,3:0|3:1,3:0:0:0:
138,318,127892,1,0,3:0:0:0:
138,318,127975,2,0,L|148:377,1,50,0|0,3:0|3:0,3:0:0:0:
324,277,128142,6,0,P|350:230|330:154,1,100,4|0,3:0|3:0,3:0:0:0:
332,165,128392,1,0,3:0:0:0:
332,165,128475,1,10,3:1:0:0:
444,307,128642,1,0,3:0:0:0:
228,141,128808,6,0,L|103:127,1,100,2|0,3:1|3:0,3:0:0:0:
103,126,129058,1,0,3:0:0:0:
103,126,129142,1,10,3:1:0:0:
223,272,129308,1,0,3:0:0:0:
224,48,129475,6,0,L|281:39,1,50,4|0,3:0|3:0,3:0:0:0:
340,112,129642,1,0,3:0:0:0:
340,112,129725,2,0,L|397:121,1,50,0|10,3:0|3:1,3:0:0:0:
463,42,129892,1,0,3:0:0:0:
463,42,129975,2,0,L|520:33,1,50,0|0,3:0|3:0,3:0:0:0:
507,158,130142,6,0,L|450:167,1,50,2|0,3:1|3:0,3:0:0:0:
385,268,130308,1,0,3:0:0:0:
385,268,130392,2,0,L|328:259,1,50,0|10,3:0|3:1,3:0:0:0:
276,189,130558,1,0,3:0:0:0:
276,189,130642,2,0,L|219:198,1,50,0|0,3:0|3:0,3:0:0:0:
66,294,130808,5,2,3:1:0:0:
119,330,130892,1,2,3:1:0:0:
183,319,130975,1,8,3:0:0:0:
228,272,131058,1,8,3:0:0:0:
230,207,131142,1,8,3:0:0:0:
184,159,131225,1,8,3:0:0:0:
159,110,131308,1,2,3:1:0:0:
165,65,131392,1,2,3:1:0:0:
189,40,131475,1,2,3:1:0:0:
218,36,131558,1,2,3:1:0:0:
246,44,131642,1,2,3:1:0:0:
262,62,131725,1,2,3:1:0:0:
265,86,131808,1,2,3:1:0:0:
251,100,131892,1,2,3:1:0:0:
231,97,131975,1,2,3:1:0:0:
224,83,132058,1,2,3:1:0:0:
232,69,132142,6,0,B|259:117|259:117|242:179,1,100,4|0,3:0|3:0,3:0:0:0:
243,188,132392,1,0,3:0:0:0:
243,188,132475,1,10,3:1:0:0:
94,76,132642,1,0,3:0:0:0:
175,259,132808,6,0,P|236:284|289:269,1,100,2|0,3:1|3:0,3:0:0:0:
291,270,133058,1,0,3:0:0:0:
291,270,133142,1,10,3:1:0:0:
392,86,133308,1,0,3:0:0:0:
474,288,133475,5,2,3:1:0:0:
263,113,133642,5,0,3:0:0:0:
238,107,133725,1,0,3:0:0:0:
214,116,133808,2,0,P|188:137|181:179,1,50,10|0,3:1|3:0,3:0:0:0:
379,322,133975,5,0,3:0:0:0:
396,303,134058,1,0,3:0:0:0:
400,278,134142,2,0,P|394:244|361:217,1,50,2|0,3:1|3:0,3:0:0:0:
148,301,134308,5,0,3:0:0:0:
155,325,134392,1,0,3:0:0:0:
175,341,134475,2,0,P|206:353|246:338,1,50,10|0,3:1|3:0,3:0:0:0:
98,161,134642,5,0,3:0:0:0:
19,314,134808,6,0,B|2:280|2:280|21:195,1,100,4|0,3:1|3:0,3:0:0:0:
26,198,135058,1,0,3:0:0:0:
26,198,135142,1,10,3:1:0:0:
156,286,135308,1,0,3:0:0:0:
222,123,135475,6,0,B|215:75|215:75|209:66|209:66|202:12,1,100,2|0,3:1|3:0,3:0:0:0:
201,0,135725,1,0,3:0:0:0:
201,0,135808,1,10,3:1:0:0:
116,127,135975,1,0,3:0:0:0:
318,20,136142,5,2,3:1:0:0:
278,206,136308,5,0,3:0:0:0:
255,216,136392,1,0,3:0:0:0:
229,214,136475,2,0,P|198:206|172:180,1,50,10|0,3:1|3:0,3:0:0:0:
380,261,136642,5,0,3:0:0:0:
368,283,136725,1,0,3:0:0:0:
347,298,136808,2,0,P|318:311|281:308,1,50,2|0,3:1|3:0,3:0:0:0:
505,233,136975,5,0,3:0:0:0:
509,257,137058,1,0,3:0:0:0:
503,282,137142,2,0,P|489:311|459:332,1,50,10|0,3:1|3:0,3:0:0:0:
377,136,137308,5,0,3:0:0:0:
201,233,137475,6,0,B|202:276|202:276|212:294|212:294|215:330,1,100,4|0,3:0|3:0,3:0:0:0:
221,358,137725,1,0,3:0:0:0:
221,358,137808,1,10,3:1:0:0:
81,235,137975,1,0,3:0:0:0:
206,112,138142,6,0,B|239:103|239:103|320:136,1,100,2|0,3:1|3:0,3:0:0:0:
326,141,138392,1,0,3:0:0:0:
326,141,138475,1,10,3:1:0:0:
181,237,138642,1,0,3:0:0:0:
76,102,138808,6,0,L|67:43,1,50,2|0,3:1|3:0,3:0:0:0:
216,0,138975,1,0,3:0:0:0:
216,0,139058,2,0,L|207:59,1,50,0|10,3:0|3:1,3:0:0:0:
160,150,139225,1,0,3:0:0:0:
160,150,139308,2,0,L|151:91,1,50,0|0,3:0|3:0,3:0:0:0:
293,49,139475,6,0,L|417:34,1,100,2|0,3:1|3:0,3:0:0:0:
469,221,139725,1,0,3:0:0:0:
469,221,139808,2,0,L|345:206,1,100,10|0,3:1|3:0,3:0:0:0:
190,73,140142,5,2,3:1:0:0:
279,256,140308,1,0,3:0:0:0:
289,233,140392,1,0,3:0:0:0:
298,209,140475,2,0,B|305:182|305:182|263:89,1,100,10|0,3:1|3:0,3:0:0:0:
29,231,140808,5,8,3:0:0:0:
54,301,140892,1,8,3:0:0:0:
120,336,140975,1,8,3:0:0:0:
194,327,141058,1,8,3:0:0:0:
247,274,141142,1,8,3:0:0:0:
293,214,141225,1,8,3:0:0:0:
366,200,141308,1,8,3:0:0:0:
435,227,141392,1,8,3:0:0:0:
471,293,141475,1,8,3:0:0:0:
471,293,142808,5,4,3:0:0:0:
421,326,142892,1,0,3:0:0:0:
360,320,142975,1,0,3:0:0:0:
316,278,143058,1,0,3:0:0:0:
308,218,143142,1,10,3:0:0:0:
336,164,143225,1,0,3:0:0:0:
392,145,143308,5,0,3:0:0:0:
396,204,143392,1,0,3:0:0:0:
360,252,143475,1,2,3:0:0:0:
301,262,143558,1,0,3:0:0:0:
245,239,143642,1,0,3:0:0:0:
220,183,143725,1,0,3:0:0:0:
240,126,143808,5,10,3:0:0:0:
261,154,143892,1,0,3:0:0:0:
264,190,143975,1,0,3:0:0:0:
250,223,144058,1,0,3:0:0:0:
219,241,144142,5,2,3:0:0:0:
196,198,144225,1,0,3:0:0:0:
211,152,144308,1,0,3:0:0:0:
253,130,144392,1,0,3:0:0:0:
301,134,144475,1,10,3:0:0:0:
342,156,144558,1,0,3:0:0:0:
389,150,144642,1,0,3:0:0:0:
418,111,144725,1,0,3:0:0:0:
415,63,144808,5,2,3:0:0:0:
385,60,144892,1,0,3:0:0:0:
356,69,144975,2,0,P|329:84|309:126,1,59.9999981689454,0|0,3:0|3:0,3:0:0:0:
453,282,145142,5,10,3:0:0:0:
470,257,145225,1,0,3:0:0:0:
477,227,145308,2,0,P|477:196|451:157,1,59.9999981689454,0|0,3:0|3:0,3:0:0:0:
280,142,145475,5,2,3:0:0:0:
226,167,145558,1,0,3:0:0:0:
198,220,145642,1,0,3:0:0:0:
209,279,145725,1,0,3:0:0:0:
252,319,145808,1,10,3:0:0:0:
311,325,145892,1,0,3:0:0:0:
360,289,145975,5,0,3:0:0:0:
321,243,146058,1,0,3:0:0:0:
261,233,146142,1,2,3:0:0:0:
205,256,146225,1,0,3:0:0:0:
178,309,146308,5,0,3:0:0:0:
207,309,146392,1,0,3:0:0:0:
234,296,146475,1,10,3:0:0:0:
254,274,146558,1,0,3:0:0:0:
261,245,146642,1,0,3:0:0:0:
255,215,146725,1,0,3:0:0:0:
233,193,146808,5,2,3:0:0:0:
188,232,146892,1,0,3:0:0:0:
194,292,146975,1,0,3:0:0:0:
242,327,147058,1,0,3:0:0:0:
301,323,147142,1,10,3:0:0:0:
339,276,147225,1,0,3:0:0:0:
381,233,147308,1,0,3:0:0:0:
440,226,147392,1,0,3:0:0:0:
491,257,147475,5,2,3:0:0:0:
478,284,147558,1,0,3:0:0:0:
454,301,147642,2,0,P|431:310|372:294,1,59.9999981689454,0|0,3:0|3:0,3:0:0:0:
307,62,147808,5,10,3:0:0:0:
336,59,147892,1,0,3:0:0:0:
363,72,147975,2,0,P|382:87|397:146,1,59.9999981689454,0|0,3:0|3:0,3:0:0:0:
245,278,148142,5,4,3:1:0:0:
182,301,148225,1,0,3:0:0:0:
119,280,148308,1,0,3:0:0:0:
85,223,148392,1,0,3:0:0:0:
93,156,148475,1,10,3:0:0:0:
137,107,148558,1,0,3:0:0:0:
202,99,148642,1,0,3:0:0:0:
261,129,148725,1,0,3:0:0:0:
290,187,148808,5,2,3:0:0:0:
232,204,148892,1,0,3:0:0:0:
178,175,148975,1,0,3:0:0:0:
154,120,149058,1,0,3:0:0:0:
172,61,149142,1,10,3:0:0:0:
222,28,149225,1,0,3:0:0:0:
281,33,149308,1,0,3:0:0:0:
328,68,149392,1,0,3:0:0:0:
340,127,149475,5,2,3:0:0:0:
271,147,149558,1,0,3:0:0:0:
206,115,149642,1,0,3:0:0:0:
158,59,149725,1,0,3:0:0:0:
87,47,149808,1,10,3:0:0:0:
22,77,149892,1,0,3:0:0:0:
1,146,149975,1,0,3:0:0:0:
25,213,150058,1,0,3:0:0:0:
89,243,150142,5,2,3:0:0:0:
129,234,150225,1,0,3:0:0:0:
169,225,150308,2,0,L|259:210,1,59.9999981689454,0|0,3:0|3:0,3:0:0:0:
385,384,150475,5,10,3:0:0:0:
343,378,150558,1,0,3:0:0:0:
301,371,150642,2,0,L|210:356,1,59.9999981689454,0|0,3:0|3:0,3:0:0:0:
177,89,150808,5,2,3:0:0:0:
228,39,150892,1,0,3:0:0:0:
300,35,150975,1,0,3:0:0:0:
360,73,151058,1,0,3:0:0:0:
377,142,151142,1,10,3:0:0:0:
346,207,151225,1,0,3:0:0:0:
278,232,151308,5,0,3:0:0:0:
258,162,151392,1,0,3:0:0:0:
295,99,151475,1,2,3:0:0:0:
364,79,151558,1,0,3:0:0:0:
429,107,151642,1,0,3:0:0:0:
459,172,151725,1,0,3:0:0:0:
434,239,151808,5,10,3:0:0:0:
391,206,151892,1,0,3:0:0:0:
387,151,151975,1,0,3:0:0:0:
415,105,152058,1,0,3:0:0:0:
467,93,152142,5,2,3:0:0:0:
460,165,152225,1,0,3:0:0:0:
403,209,152308,1,0,3:0:0:0:
331,205,152392,1,0,3:0:0:0:
274,159,152475,1,10,3:0:0:0:
224,106,152558,1,0,3:0:0:0:
153,94,152642,1,0,3:0:0:0:
95,137,152725,1,0,3:0:0:0:
75,206,152808,5,2,3:0:0:0:
102,218,152892,1,0,3:0:0:0:
132,216,152975,2,0,P|162:208|195:168,1,59.9999981689454,0|0,3:0|3:0,3:0:0:0:
292,59,153142,5,8,3:0:0:0:
357,27,153225,1,8,3:0:0:0:
427,42,153308,1,8,3:0:0:0:
470,99,153392,1,8,3:0:0:0:
459,170,153475,5,4,3:1:0:0:
399,168,153558,1,0,3:0:0:0:
350,133,153642,1,0,3:0:0:0:
318,81,153725,1,0,3:0:0:0:
270,50,153808,1,10,3:0:0:0:
210,48,153892,1,0,3:0:0:0:
163,87,153975,5,0,3:0:0:0:
200,133,154058,1,0,3:0:0:0:
258,145,154142,1,2,3:0:0:0:
313,122,154225,1,0,3:0:0:0:
348,73,154308,1,0,3:0:0:0:
405,56,154392,1,0,3:0:0:0:
461,78,154475,5,10,3:0:0:0:
436,104,154558,1,0,3:0:0:0:
400,107,154642,1,0,3:0:0:0:
370,86,154725,1,0,3:0:0:0:
355,53,154808,5,2,3:0:0:0:
402,60,154892,1,0,3:0:0:0:
432,97,154975,1,0,3:0:0:0:
433,144,155058,1,0,3:0:0:0:
402,181,155142,1,10,3:0:0:0:
362,209,155225,1,0,3:0:0:0:
347,254,155308,1,0,3:0:0:0:
366,297,155392,1,0,3:0:0:0:
408,319,155475,5,2,3:0:0:0:
428,297,155558,1,0,3:0:0:0:
433,267,155642,2,0,P|431:232|387:198,1,59.9999981689454,0|0,3:0|3:0,3:0:0:0:
196,240,155808,5,10,3:0:0:0:
205,268,155892,1,0,3:0:0:0:
228,287,155975,2,0,P|259:302|310:281,1,59.9999981689454,0|0,3:0|3:0,3:0:0:0:
279,148,156142,5,2,3:0:0:0:
240,101,156225,1,0,3:0:0:0:
180,93,156308,1,0,3:0:0:0:
127,121,156392,1,0,3:0:0:0:
107,178,156475,1,10,3:0:0:0:
122,235,156558,1,0,3:0:0:0:
168,272,156642,5,0,3:0:0:0:
201,221,156725,1,0,3:0:0:0:
188,162,156808,1,2,3:0:0:0:
142,122,156892,1,0,3:0:0:0:
81,123,156975,1,0,3:0:0:0:
38,164,157058,1,0,3:0:0:0:
26,222,157142,5,10,3:0:0:0:
56,202,157225,1,0,3:0:0:0:
71,169,157308,1,0,3:0:0:0:
68,133,157392,1,0,3:0:0:0:
41,108,157475,5,2,3:0:0:0:
34,155,157558,1,0,3:0:0:0:
58,196,157642,1,0,3:0:0:0:
104,209,157725,1,0,3:0:0:0:
148,192,157808,1,10,3:0:0:0:
185,161,157892,1,0,3:0:0:0:
232,151,157975,1,0,3:0:0:0:
276,168,158058,1,0,3:0:0:0:
296,211,158142,5,2,3:0:0:0:
261,236,158225,1,0,3:0:0:0:
219,233,158308,2,0,P|186:213|170:171,1,59.9999981689454,0|0,3:0|3:0,3:0:0:0:
314,26,158475,5,10,3:0:0:0:
353,43,158558,1,0,3:0:0:0:
371,81,158642,2,0,P|370:119|341:154,1,59.9999981689454,0|0,3:0|3:0,3:0:0:0:
207,258,158808,5,2,3:0:0:0:
144,293,158892,1,0,3:0:0:0:
75,268,158975,1,0,3:0:0:0:
38,206,159058,1,0,3:0:0:0:
54,136,159142,1,10,3:0:0:0:
115,96,159225,1,0,3:0:0:0:
186,105,159308,1,0,3:0:0:0:
231,160,159392,1,0,3:0:0:0:
231,232,159475,1,2,3:0:0:0:
219,302,159558,1,0,3:0:0:0:
254,364,159642,1,0,3:0:0:0:
323,384,159725,1,0,3:0:0:0:
385,349,159808,1,10,3:0:0:0:
405,280,159892,1,0,3:0:0:0:
370,216,159975,1,0,3:0:0:0:
300,197,160058,1,0,3:0:0:0:
234,227,160142,5,2,3:0:0:0:
291,271,160225,1,0,3:0:0:0:
361,259,160308,1,0,3:0:0:0:
393,195,160392,1,0,3:0:0:0:
376,124,160475,1,10,3:0:0:0:
311,91,160558,1,0,3:0:0:0:
241,109,160642,5,0,3:0:0:0:
276,172,160725,1,0,3:0:0:0:
345,189,160808,1,2,3:0:0:0:
408,154,160892,1,0,3:0:0:0:
433,85,160975,1,0,3:0:0:0:
394,24,161058,1,0,3:0:0:0:
324,6,161142,5,10,3:0:0:0:
324,52,161225,1,0,3:0:0:0:
359,83,161308,1,0,3:0:0:0:
406,90,161392,1,0,3:0:0:0:
449,69,161475,5,2,3:0:0:0:
386,33,161558,1,0,3:0:0:0:
314,41,161642,1,0,3:0:0:0:
259,89,161725,1,0,3:0:0:0:
234,156,161808,1,10,3:0:0:0:
173,194,161892,1,0,3:0:0:0:
100,200,161975,1,0,3:0:0:0:
37,165,162058,1,0,3:0:0:0:
24,94,162142,5,8,3:0:0:0:
99,43,162225,1,8,3:0:0:0:
188,52,162308,1,8,3:0:0:0:
257,109,162392,1,8,3:0:0:0:
275,197,162475,1,8,3:0:0:0:
237,278,162558,1,8,3:0:0:0:
163,329,162642,1,8,3:0:0:0:
72,320,162725,1,8,3:0:0:0:
9,255,162808,5,4,3:1:0:0:
511,188,163142,5,4,3:1:0:0:
177,7,163475,5,4,3:1:0:0:
339,371,163808,5,4,3:0:0:0:
60,140,164142,5,4,3:1:0:0:
20,182,164225,1,0,3:0:0:0:
19,239,164308,1,0,3:0:0:0:
53,284,164392,1,0,3:0:0:0:
108,301,164475,1,10,3:0:0:0:
162,282,164558,1,0,3:0:0:0:
190,232,164642,1,0,3:0:0:0:
183,174,164725,1,0,3:0:0:0:
140,135,164808,5,10,3:0:0:0:
104,179,164892,1,0,3:0:0:0:
104,236,164975,1,0,3:0:0:0:
145,275,165058,1,0,3:0:0:0:
202,277,165142,1,10,3:0:0:0:
247,240,165225,1,0,3:0:0:0:
265,185,165308,1,0,3:0:0:0:
317,161,165392,1,0,3:0:0:0:
374,164,165475,1,10,3:0:0:0:
417,201,165558,1,0,3:0:0:0:
430,256,165642,1,0,3:0:0:0:
409,310,165725,1,0,3:0:0:0:
359,338,165808,6,0,P|339:310|338:269,1,57.5000010967255,10|0,3:0|3:0,3:0:0:0:
506,172,165975,2,0,P|491:203|456:224,1,57.5000010967255,0|0,3:0|3:0,3:0:0:0:
300,229,166142,5,10,3:0:0:0:
242,227,166225,1,0,3:0:0:0:
196,192,166308,1,0,3:0:0:0:
168,141,166392,1,0,3:0:0:0:
115,116,166475,1,10,3:0:0:0:
58,126,166558,1,0,3:0:0:0:
24,172,166642,1,0,3:0:0:0:
20,229,166725,1,0,3:0:0:0:
51,276,166808,1,10,3:0:0:0:
104,297,166892,1,0,3:0:0:0:
159,279,166975,1,0,3:0:0:0:
194,233,167058,1,0,3:0:0:0:
197,175,167142,5,10,3:0:0:0:
169,183,167225,1,0,3:0:0:0:
142,193,167308,2,0,L|63:216,1,57.5000010967255,0|0,3:0|3:0,3:0:0:0:
325,78,167475,5,10,3:0:0:0:
353,86,167558,1,0,3:0:0:0:
380,96,167642,2,0,L|459:119,1,57.5000010967255,0|0,3:0|3:0,3:0:0:0:
512,240,167808,5,10,3:0:0:0:
480,273,167892,1,0,3:0:0:0:
435,285,167975,1,0,3:0:0:0:
390,274,168058,1,0,3:0:0:0:
357,242,168142,1,10,3:0:0:0:
330,204,168225,1,0,3:0:0:0:
286,188,168308,1,0,3:0:0:0:
240,191,168392,1,0,3:0:0:0:
206,223,168475,5,14,3:0:0:0:
220,247,168558,1,0,3:0:0:0:
245,260,168642,2,0,P|271:267|326:249,1,57.5000010967255,0|0,3:0|3:0,3:0:0:0:
164,96,168808,5,14,3:0:0:0:
136,96,168892,1,0,3:0:0:0:
112,111,168975,2,0,P|92:130|81:186,1,57.5000010967255,0|0,3:0|3:0,3:0:0:0:
319,116,169142,5,12,3:1:0:0:
333,91,169225,1,0,3:0:0:0:
332,63,169308,2,0,P|325:36|281:-1,1,57.5000010967255,0|0,3:0|3:0,3:0:0:0:
225,178,169475,5,12,3:0:0:0:
268,215,169558,1,0,3:0:0:0:
325,210,169642,1,0,3:0:0:0:
370,173,169725,1,0,3:0:0:0:
424,156,169808,1,10,3:0:0:0:
478,173,169892,1,0,3:0:0:0:
507,222,169975,1,0,3:0:0:0:
500,278,170058,1,0,3:0:0:0:
460,319,170142,5,10,3:0:0:0:
414,283,170225,1,0,3:0:0:0:
397,228,170308,1,0,3:0:0:0:
413,173,170392,1,0,3:0:0:0:
453,131,170475,1,10,3:0:0:0:
466,75,170558,1,0,3:0:0:0:
437,25,170642,1,0,3:0:0:0:
384,0,170725,1,0,3:0:0:0:
328,14,170808,1,10,3:0:0:0:
297,62,170892,1,0,3:0:0:0:
301,119,170975,1,0,3:0:0:0:
338,162,171058,1,0,3:0:0:0:
392,169,171142,6,0,L|374:73,1,57.5000010967255,10|0,3:0|3:0,3:0:0:0:
198,24,171308,2,0,L|180:120,1,57.5000010967255,0|0,3:0|3:0,3:0:0:0:
199,252,171475,5,10,3:0:0:0:
158,292,171558,1,0,3:0:0:0:
100,293,171642,1,0,3:0:0:0:
53,258,171725,1,0,3:0:0:0:
42,201,171808,1,10,3:0:0:0:
68,150,171892,1,0,3:0:0:0:
123,132,171975,1,0,3:0:0:0:
176,152,172058,1,0,3:0:0:0:
207,199,172142,1,10,3:0:0:0:
240,246,172225,1,0,3:0:0:0:
295,260,172308,1,0,3:0:0:0:
349,242,172392,1,0,3:0:0:0:
381,193,172475,5,10,3:0:0:0:
359,174,172558,1,0,3:0:0:0:
330,168,172642,2,0,P|294:170|261:201,1,57.5000010967255,0|0,3:0|3:0,3:0:0:0:
190,313,172808,5,10,3:0:0:0:
168,332,172892,1,0,3:0:0:0:
139,338,172975,2,0,P|103:336|70:305,1,57.5000010967255,0|0,3:0|3:0,3:0:0:0:
45,172,173142,5,10,3:0:0:0:
68,132,173225,1,0,3:0:0:0:
108,110,173308,1,0,3:0:0:0:
153,111,173392,1,0,3:0:0:0:
193,134,173475,1,10,3:0:0:0:
218,171,173558,1,0,3:0:0:0:
255,197,173642,1,0,3:0:0:0:
300,203,173725,1,0,3:0:0:0:
338,178,173808,5,12,3:1:0:0:
333,149,173892,1,0,3:0:0:0:
314,126,173975,2,0,P|286:110|245:107,1,57.5000010967255,0|0,3:0|3:0,3:0:0:0:
282,322,174142,5,12,3:1:0:0:
309,332,174225,1,0,3:0:0:0:
339,327,174308,2,0,P|366:310|389:276,1,57.5000010967255,0|0,3:0|3:0,3:0:0:0:
164,220,174475,5,12,3:1:0:0:
141,238,174558,1,0,3:0:0:0:
131,266,174642,2,0,P|131:298|149:335,1,57.5000010967255,0|0,3:0|3:0,3:0:0:0:
218,38,174808,5,12,3:0:0:0:
72,89,174975,1,0,3:0:0:0:
86,98,175058,1,0,3:0:0:0:
108,104,175142,1,0,3:0:0:0:
131,103,175225,1,0,3:0:0:0:
157,92,175308,1,0,3:0:0:0:
177,72,175392,1,0,3:0:0:0:
210,62,175475,1,0,3:0:0:0:
243,69,175558,1,0,3:0:0:0:
272,96,175642,1,0,3:0:0:0:
283,134,175725,1,0,3:0:0:0:
269,177,175808,1,0,3:0:0:0:
238,202,175892,1,0,3:0:0:0:
197,203,175975,1,0,3:0:0:0:
166,186,176058,1,0,3:0:0:0:
155,159,176142,5,0,3:0:0:0:
201,135,176225,1,0,3:0:0:0:
252,140,176308,1,0,3:0:0:0:
292,161,176392,1,0,3:0:0:0:
314,194,176475,1,0,3:0:0:0:
348,213,176558,1,0,3:0:0:0:
382,214,176642,1,0,3:0:0:0:
407,200,176725,1,0,3:0:0:0:
421,181,176808,5,8,3:0:0:0:
375,145,176892,1,8,3:0:0:0:
317,149,176975,1,0,3:0:0:0:
282,194,177058,1,0,3:0:0:0:
292,250,177142,5,8,3:0:0:0:
359,235,177225,1,8,3:0:0:0:
400,173,177308,1,8,3:0:0:0:
388,99,177392,1,8,3:0:0:0:
325,57,177475,1,4,3:0:0:0:
83,225,177642,5,0,3:0:0:0:
98,245,177725,1,0,3:0:0:0:
121,253,177808,2,0,P|162:256|232:207,1,100,10|0,3:1|3:0,3:0:0:0:
184,28,178142,2,0,P|160:62|168:147,1,100,2|0,3:1|3:0,3:0:0:0:
365,196,178475,2,0,P|347:158|269:122,1,100,10|0,3:1|3:0,3:0:0:0:
53,204,178808,6,0,B|37:181|37:181|64:78,1,100,2|0,3:1|3:0,3:0:0:0:
64,90,179058,1,0,3:0:0:0:
64,90,179142,1,10,3:1:0:0:
267,275,179308,6,0,B|220:313|171:294|172:264|113:247|58:290,1,200,0|0,3:0|3:0,3:0:0:0:
121,350,179725,1,0,3:0:0:0:
121,350,179808,2,0,B|130:299|130:299|136:287|136:287|146:215,1,100,10|0,3:1|3:0,3:0:0:0:
307,151,180142,6,0,B|336:136|336:136|439:174,1,100,4|0,3:1|3:0,3:0:0:0:
426,171,180392,1,0,3:0:0:0:
426,171,180475,1,10,3:1:0:0:
278,255,180642,1,0,3:0:0:0:
207,64,180808,6,0,B|178:49|178:49|75:87,1,100,2|0,3:1|3:0,3:0:0:0:
94,84,181058,1,0,3:0:0:0:
94,84,181142,1,10,3:1:0:0:
191,229,181308,1,0,3:0:0:0:
288,22,181475,5,2,3:1:0:0:
393,185,181642,5,0,3:0:0:0:
368,191,181725,1,0,3:0:0:0:
343,184,181808,2,0,P|311:165|295:132,1,50,10|0,3:1|3:0,3:0:0:0:
459,6,181975,5,0,3:0:0:0:
482,17,182058,1,0,3:0:0:0:
496,38,182142,2,0,P|508:73|499:108,1,50,2|0,3:1|3:0,3:0:0:0:
343,92,182308,5,0,3:0:0:0:
332,68,182392,1,0,3:0:0:0:
335,43,182475,2,0,P|348:8|377:-13,1,50,10|0,3:1|3:0,3:0:0:0:
480,216,182642,5,0,3:0:0:0:
472,241,182725,1,0,3:0:0:0:
454,258,182808,2,0,P|421:276|355:266,1,100,4|0,3:0|3:0,3:0:0:0:
144,221,183058,5,0,3:0:0:0:
144,221,183142,2,0,B|192:216|192:216|197:218|197:218|270:212,1,100,10|0,3:1|3:0,3:0:0:0:
153,107,183475,2,0,B|105:102|105:102|100:104|100:104|27:98,1,100,2|0,3:1|3:0,3:0:0:0:
132,340,183808,2,0,B|180:335|180:335|185:337|185:337|258:331,1,100,10|0,3:1|3:0,3:0:0:0:
428,242,184142,6,0,B|443:267|443:267|427:359,1,100,2|0,3:1|3:0,3:0:0:0:
230,165,184392,1,0,3:0:0:0:
230,165,184475,2,0,B|215:190|215:190|231:282,1,100,10|0,3:1|3:0,3:0:0:0:
438,48,184808,6,0,L|371:34,1,50,2|0,3:1|3:0,3:0:0:0:
310,81,184975,1,0,3:0:0:0:
310,81,185058,2,0,L|243:95,1,50,0|10,3:0|3:1,3:0:0:0:
196,29,185225,1,0,3:0:0:0:
196,29,185308,2,0,L|129:15,1,50,0|0,3:0|3:0,3:0:0:0:
84,190,185475,6,0,P|142:175|177:116,1,100,4|0,3:0|3:0,3:0:0:0:
174,124,185725,1,0,3:0:0:0:
174,124,185808,1,10,3:1:0:0:
0,124,185975,5,0,3:0:0:0:
2,148,186058,1,0,3:0:0:0:
6,172,186142,2,0,L|16:271,1,100,2|0,3:1|3:0,3:0:0:0:
243,234,186475,2,0,L|253:135,1,100,10|0,3:1|3:0,3:0:0:0:
180,339,186808,6,0,B|224:366|224:366|370:338,1,200,2|10,3:1|3:1,3:0:0:0:
341,130,187308,5,2,3:1:0:0:
315,160,187392,1,2,3:1:0:0:
310,200,187475,1,2,3:1:0:0:
326,236,187558,1,2,3:1:0:0:
359,258,187642,1,2,3:1:0:0:
399,260,187725,1,2,3:1:0:0:
434,242,187808,5,8,3:0:0:0:
241,108,187975,1,8,3:0:0:0:
181,115,188058,1,8,3:0:0:0:
121,123,188142,2,0,B|79:127|79:127|66:138|66:138|-19:147,1,100,4|0,3:0|3:0,3:0:0:0:
216,317,188392,5,0,3:0:0:0:
227,295,188475,2,0,P|237:241|202:192,1,100,10|0,3:1|3:0,3:0:0:0:
28,281,188808,2,0,P|69:316|129:310,1,100,2|0,3:1|3:0,3:0:0:0:
127,115,189142,2,0,P|75:133|50:188,1,100,10|0,3:1|3:0,3:0:0:0:
321,154,189475,6,0,B|376:148|376:148|380:150|380:150|428:145,1,100,2|0,3:1|3:0,3:0:0:0:
448,144,189725,1,0,3:0:0:0:
448,144,189808,1,10,3:1:0:0:
276,68,189975,6,0,P|221:133|277:239,1,200,0|0,3:0|3:0,3:0:0:0:
287,240,190392,1,0,3:0:0:0:
287,240,190475,1,10,3:1:0:0:
363,19,190642,1,0,3:0:0:0:
148,102,190808,6,0,P|87:108|42:56,1,100,4|0,3:1|3:0,3:0:0:0:
46,64,191058,1,0,3:0:0:0:
46,64,191142,1,10,3:1:0:0:
199,0,191308,1,0,3:0:0:0:
0,144,191475,6,0,B|4:190|4:190|0:197|0:197|6:253,1,100,2|0,3:1|3:0,3:0:0:0:
7,267,191725,1,0,3:0:0:0:
7,267,191808,1,10,3:1:0:0:
145,97,191975,1,0,3:0:0:0:
240,249,192142,5,2,3:1:0:0:
157,83,192308,5,0,3:0:0:0:
181,80,192392,1,0,3:0:0:0:
206,77,192475,2,0,L|295:66,1,50,10|0,3:1|3:0,3:0:0:0:
359,269,192642,5,0,3:0:0:0:
335,266,192725,1,0,3:0:0:0:
310,263,192808,2,0,L|220:252,1,50,2|0,3:1|3:0,3:0:0:0:
391,131,192975,5,0,3:0:0:0:
415,128,193058,1,0,3:0:0:0:
440,125,193142,2,0,L|529:114,1,50,10|0,3:1|3:0,3:0:0:0:
360,355,193308,5,0,3:0:0:0:
198,169,193475,6,0,P|142:181|112:222,1,100,4|0,3:0|3:0,3:0:0:0:
115,240,193725,1,0,3:0:0:0:
115,240,193808,1,10,3:1:0:0:
250,375,193975,1,0,3:0:0:0:
347,196,194142,6,0,B|398:203|398:203|407:200|407:200|465:207,1,100,2|0,3:1|3:0,3:0:0:0:
470,206,194392,1,0,3:0:0:0:
470,206,194475,1,10,3:1:0:0:
354,346,194642,1,0,3:0:0:0:
230,245,194808,6,0,L|220:189,1,50,2|0,3:1|3:0,3:0:0:0:
299,137,194975,1,0,3:0:0:0:
299,137,195058,2,0,L|309:81,1,50,0|10,3:0|3:1,3:0:0:0:
222,49,195225,1,0,3:0:0:0:
222,49,195308,2,0,L|212:-7,1,50,0|0,3:0|3:0,3:0:0:0:
137,132,195475,6,0,B|106:149|106:149|13:120,1,100,2|0,3:1|3:0,3:0:0:0:
20,121,195725,1,0,3:0:0:0:
20,121,195808,1,10,3:1:0:0:
159,286,195975,1,0,3:0:0:0:
242,119,196142,6,0,L|301:108,1,50,2|0,3:1|3:0,3:0:0:0:
352,190,196308,1,0,3:0:0:0:
352,190,196392,2,0,L|411:201,1,50,0|10,3:0|3:1,3:0:0:0:
463,132,196558,1,0,3:0:0:0:
463,132,196642,2,0,L|522:121,1,50,0|0,3:0|3:0,3:0:0:0:
451,304,196808,6,0,L|392:293,1,50,2|0,3:1|3:0,3:0:0:0:
305,249,196975,1,0,3:0:0:0:
305,249,197058,2,0,L|246:260,1,50,0|10,3:0|3:1,3:0:0:0:
193,328,197225,1,0,3:0:0:0:
193,328,197308,2,0,L|134:317,1,50,0|0,3:0|3:0,3:0:0:0:
31,222,197475,5,2,3:1:0:0:
48,164,197558,1,2,3:1:0:0:
94,126,197642,1,8,3:0:0:0:
154,126,197725,1,8,3:0:0:0:
201,162,197808,1,8,3:0:0:0:
233,184,197892,1,2,3:1:0:0:
270,186,197975,1,2,3:1:0:0:
313,165,198058,1,2,3:1:0:0:
340,112,198142,1,2,3:1:0:0:
320,54,198225,1,2,3:1:0:0:
275,31,198308,1,2,3:1:0:0:
235,33,198392,1,2,3:1:0:0:
217,57,198475,1,2,3:1:0:0:
221,81,198558,1,2,3:1:0:0:
239,88,198642,1,2,3:1:0:0:
250,78,198725,1,2,3:1:0:0:
244,62,198808,6,0,B|203:64|203:64|188:70|188:70|143:71,1,100,4|0,3:0|3:0,3:0:0:0:
120,73,199058,1,0,3:0:0:0:
120,73,199142,1,10,3:1:0:0:
225,193,199308,1,0,3:0:0:0:
359,17,199475,6,0,B|400:19|400:19|415:25|415:25|459:26,1,100,2|0,3:1|3:0,3:0:0:0:
483,28,199725,1,0,3:0:0:0:
483,28,199808,1,10,3:1:0:0:
321,138,199975,1,0,3:0:0:0:
506,211,200142,5,2,3:1:0:0:
274,61,200308,5,0,3:0:0:0:
253,75,200392,1,0,3:0:0:0:
238,95,200475,2,0,P|228:126|238:177,1,50,10|0,3:1|3:0,3:0:0:0:
412,246,200642,5,0,3:0:0:0:
419,221,200725,1,0,3:0:0:0:
417,196,200808,2,0,P|404:165|364:133,1,50,2|0,3:1|3:0,3:0:0:0:
145,165,200975,5,0,3:0:0:0:
155,188,201058,1,0,3:0:0:0:
173,206,201142,2,0,P|201:221|253:220,1,50,10|0,3:1|3:0,3:0:0:0:
352,41,201308,5,0,3:0:0:0:
422,204,201475,6,0,B|368:201|368:201|363:197|363:197|315:194,1,100,2|0,3:1|3:0,3:0:0:0:
298,191,201725,1,0,3:0:0:0:
298,191,201808,1,10,3:1:0:0:
464,308,201975,1,0,3:0:0:0:
190,317,202142,6,0,B|244:314|244:314|249:310|249:310|297:307,1,100,2|0,3:1|3:0,3:0:0:0:
314,304,202392,1,0,3:0:0:0:
314,304,202475,1,10,3:1:0:0:
136,384,202642,1,0,3:0:0:0:
240,238,202808,5,2,3:1:0:0:
106,200,202975,5,0,3:0:0:0:
90,219,203058,1,0,3:0:0:0:
84,243,203142,2,0,P|83:275|109:310,1,50,10|0,3:1|3:0,3:0:0:0:
104,102,203308,5,0,3:0:0:0:
79,101,203392,1,0,3:0:0:0:
56,112,203475,2,0,P|30:131|20:174,1,50,2|0,3:1|3:0,3:0:0:0:
195,37,203642,5,0,3:0:0:0:
179,17,203725,1,0,3:0:0:0:
156,6,203808,2,0,P|124:0|85:18,1,50,10|0,3:1|3:0,3:0:0:0:
215,174,203975,5,0,3:0:0:0:
291,20,204142,6,0,P|354:5|392:28,1,100,4|0,3:1|3:0,3:0:0:0:
398,39,204392,1,0,3:0:0:0:
398,39,204475,1,10,3:1:0:0:
310,193,204642,1,0,3:0:0:0:
167,106,204808,6,0,P|104:91|66:114,1,100,2|0,3:1|3:0,3:0:0:0:
60,125,205058,1,0,3:0:0:0:
60,125,205142,1,10,3:1:0:0:
158,296,205308,1,0,3:0:0:0:
331,108,205475,6,0,L|400:97,1,50,2|0,3:1|3:0,3:0:0:0:
469,193,205642,1,0,3:0:0:0:
469,193,205725,2,0,L|400:182,1,50,0|10,3:0|3:1,3:0:0:0:
347,271,205892,1,0,3:0:0:0:
347,271,205975,2,0,L|416:260,1,50,0|0,3:0|3:0,3:0:0:0:
251,223,206142,6,0,L|239:293,1,50,2|0,3:1|3:0,3:0:0:0:
112,166,206308,1,0,3:0:0:0:
112,166,206392,2,0,L|124:236,1,50,0|10,3:0|3:1,3:0:0:0:
227,83,206558,1,0,3:0:0:0:
227,83,206642,2,0,L|215:153,1,50,0|0,3:0|3:0,3:0:0:0:
119,38,206808,6,0,B|75:45|75:45|59:41|59:41|5:51,1,100,2|0,3:1|3:0,3:0:0:0:
197,208,207058,1,0,3:0:0:0:
197,208,207142,2,0,B|241:215|241:215|257:211|257:211|311:221,1,100,10|0,3:1|3:0,3:0:0:0:
407,52,207475,5,2,3:1:0:0:
441,239,207642,1,0,3:0:0:0:
463,227,207725,1,0,3:0:0:0:
477,205,207808,2,0,P|492:154|454:96,1,100,10|0,3:1|3:0,3:0:0:0:
156,137,208142,5,8,3:0:0:0:
103,184,208225,1,8,3:0:0:0:
97,253,208308,1,8,3:0:0:0:
135,311,208392,1,8,3:0:0:0:
186,330,208475,1,0,3:0:0:0:
230,323,208558,1,0,3:0:0:0:
262,292,208642,1,2,3:1:0:0:
277,249,208725,1,2,3:1:0:0:
308,224,208808,1,0,3:0:0:0:
342,221,208892,1,0,3:0:0:0:
369,232,208975,1,2,3:1:0:0:
389,254,209058,1,2,3:1:0:0:
395,278,209142,1,2,3:1:0:0:
391,302,209225,1,2,3:1:0:0:
379,318,209308,1,2,3:1:0:0:
366,326,209392,1,2,3:1:0:0:
353,326,209475,5,4,3:0:0:0:
309,284,209558,1,0,3:0:0:0:
304,224,209642,1,0,3:0:0:0:
337,173,209725,1,0,3:0:0:0:
393,152,209808,1,10,3:0:0:0:
451,163,209892,1,0,3:0:0:0:
490,209,209975,5,0,3:0:0:0:
445,248,210058,1,0,3:0:0:0:
385,247,210142,1,2,3:0:0:0:
337,209,210225,1,0,3:0:0:0:
328,149,210308,1,0,3:0:0:0:
349,93,210392,1,0,3:0:0:0:
402,64,210475,5,10,3:0:0:0:
396,93,210558,1,0,3:0:0:0:
374,113,210642,1,0,3:0:0:0:
344,120,210725,1,0,3:0:0:0:
315,111,210808,5,2,3:0:0:0:
349,78,210892,1,0,3:0:0:0:
397,77,210975,1,0,3:0:0:0:
438,101,211058,1,0,3:0:0:0:
451,146,211142,1,10,3:0:0:0:
433,190,211225,1,0,3:0:0:0:
407,230,211308,1,0,3:0:0:0:
410,277,211392,1,0,3:0:0:0:
443,311,211475,5,2,3:0:0:0:
468,294,211558,1,0,3:0:0:0:
480,266,211642,2,0,P|486:237|464:191,1,59.9999981689454,0|0,3:0|3:0,3:0:0:0:
246,278,211808,5,10,3:0:0:0:
248,308,211892,1,0,3:0:0:0:
266,332,211975,2,0,P|288:351|338:355,1,59.9999981689454,0|0,3:0|3:0,3:0:0:0:
335,159,212142,5,2,3:0:0:0:
290,118,212225,1,0,3:0:0:0:
230,109,212308,1,0,3:0:0:0:
174,130,212392,1,0,3:0:0:0:
128,169,212475,1,10,3:0:0:0:
68,167,212558,1,0,3:0:0:0:
23,127,212642,5,0,3:0:0:0:
59,79,212725,1,0,3:0:0:0:
118,70,212808,1,2,3:0:0:0:
174,91,212892,1,0,3:0:0:0:
193,147,212975,5,0,3:0:0:0:
166,159,213058,1,0,3:0:0:0:
135,155,213142,1,10,3:0:0:0:
112,135,213225,1,0,3:0:0:0:
103,106,213308,1,0,3:0:0:0:
108,76,213392,1,0,3:0:0:0:
133,60,213475,5,2,3:0:0:0:
178,74,213558,1,0,3:0:0:0:
210,110,213642,1,0,3:0:0:0:
206,157,213725,1,0,3:0:0:0:
182,198,213808,1,10,3:0:0:0:
146,231,213892,1,0,3:0:0:0:
131,276,213975,1,0,3:0:0:0:
149,320,214058,1,0,3:0:0:0:
192,341,214142,5,2,3:0:0:0:
219,328,214225,1,0,3:0:0:0:
233,300,214308,2,0,P|245:270|230:220,1,59.9999981689454,0|0,3:0|3:0,3:0:0:0:
2,154,214475,5,10,3:0:0:0:
0,186,214558,1,0,3:0:0:0:
12,212,214642,2,0,P|31:236|83:250,1,59.9999981689454,0|0,3:0|3:0,3:0:0:0:
184,85,214808,5,4,3:1:0:0:
215,27,214892,1,0,3:0:0:0:
278,5,214975,1,0,3:0:0:0:
341,20,215058,1,0,3:0:0:0:
383,69,215142,1,10,3:0:0:0:
385,135,215225,1,0,3:0:0:0:
352,193,215308,1,0,3:0:0:0:
290,216,215392,1,0,3:0:0:0:
227,192,215475,5,2,3:0:0:0:
265,146,215558,1,0,3:0:0:0:
323,135,215642,1,0,3:0:0:0:
377,161,215725,1,0,3:0:0:0:
405,213,215808,1,10,3:0:0:0:
392,271,215892,1,0,3:0:0:0:
347,312,215975,1,0,3:0:0:0:
287,315,216058,1,0,3:0:0:0:
236,283,216142,5,2,3:0:0:0:
272,220,216225,1,0,3:0:0:0:
342,208,216308,1,0,3:0:0:0:
406,240,216392,1,0,3:0:0:0:
475,219,216475,1,10,3:0:0:0:
508,155,216558,1,0,3:0:0:0:
486,86,216642,1,0,3:0:0:0:
419,57,216725,1,0,3:0:0:0:
351,81,216808,5,2,3:0:0:0:
385,122,216892,1,0,3:0:0:0:
438,131,216975,2,0,P|479:120|505:77,1,59.9999981689454,0|0,3:0|3:0,3:0:0:0:
273,0,217142,5,10,3:0:0:0:
220,8,217225,1,0,3:0:0:0:
186,50,217308,2,0,P|175:91|199:135,1,59.9999981689454,0|0,3:0|3:0,3:0:0:0:
242,292,217475,5,2,3:0:0:0:
307,321,217558,1,0,3:0:0:0:
373,295,217642,1,0,3:0:0:0:
397,226,217725,1,0,3:0:0:0:
365,161,217808,1,10,3:0:0:0:
296,140,217892,1,0,3:0:0:0:
233,176,217975,5,0,3:0:0:0:
287,222,218058,1,0,3:0:0:0:
358,213,218142,1,2,3:0:0:0:
404,157,218225,1,0,3:0:0:0:
399,85,218308,1,0,3:0:0:0:
342,40,218392,1,0,3:0:0:0:
270,50,218475,5,10,3:0:0:0:
297,95,218558,1,0,3:0:0:0:
347,112,218642,1,0,3:0:0:0:
397,90,218725,1,0,3:0:0:0:
420,41,218808,5,2,3:0:0:0:
351,18,218892,1,0,3:0:0:0:
286,52,218975,1,0,3:0:0:0:
255,116,219058,1,0,3:0:0:0:
205,167,219142,1,10,3:0:0:0:
134,184,219225,1,0,3:0:0:0:
69,153,219308,1,0,3:0:0:0:
46,84,219392,1,0,3:0:0:0:
72,16,219475,5,2,3:0:0:0:
101,23,219558,1,0,3:0:0:0:
123,42,219642,2,0,P|139:69|127:126,1,59.9999981689454,0|0,3:0|3:0,3:0:0:0:
10,261,219808,5,10,3:0:0:0:
1,232,219892,1,0,3:0:0:0:
7,203,219975,2,0,P|22:175|77:157,1,59.9999981689454,0|0,3:0|3:0,3:0:0:0:
209,168,220142,5,4,3:1:0:0:
252,210,220225,1,0,3:0:0:0:
256,269,220308,1,0,3:0:0:0:
225,320,220392,1,0,3:0:0:0:
168,342,220475,1,10,3:0:0:0:
112,321,220558,1,0,3:0:0:0:
84,267,220642,5,0,3:0:0:0:
136,236,220725,1,0,3:0:0:0:
195,243,220808,1,2,3:0:0:0:
240,281,220892,1,0,3:0:0:0:
298,294,220975,1,0,3:0:0:0:
351,267,221058,1,0,3:0:0:0:
373,211,221142,5,10,3:0:0:0:
346,225,221225,1,0,3:0:0:0:
336,253,221308,1,0,3:0:0:0:
339,282,221392,1,0,3:0:0:0:
360,303,221475,5,2,3:0:0:0:
384,261,221558,1,0,3:0:0:0:
369,215,221642,1,0,3:0:0:0:
332,183,221725,1,0,3:0:0:0:
284,184,221808,1,10,3:0:0:0:
245,212,221892,1,0,3:0:0:0:
196,217,221975,1,0,3:0:0:0:
158,187,222058,1,0,3:0:0:0:
148,140,222142,5,2,3:0:0:0:
177,134,222225,1,0,3:0:0:0:
206,128,222308,2,0,L|316:109,1,59.9999981689454,0|0,3:0|3:0,3:0:0:0:
138,357,222475,5,10,3:0:0:0:
109,351,222558,1,0,3:0:0:0:
80,345,222642,2,0,L|-30:326,1,59.9999981689454,0|0,3:0|3:0,3:0:0:0:
271,235,222808,5,2,3:0:0:0:
321,202,222892,1,0,3:0:0:0:
380,210,222975,1,0,3:0:0:0:
424,249,223058,1,0,3:0:0:0:
428,308,223142,1,10,3:0:0:0:
393,357,223225,1,0,3:0:0:0:
335,373,223308,5,0,3:0:0:0:
315,316,223392,1,0,3:0:0:0:
339,260,223475,1,2,3:0:0:0:
393,235,223558,1,0,3:0:0:0:
451,245,223642,1,0,3:0:0:0:
494,287,223725,1,0,3:0:0:0:
501,346,223808,5,10,3:0:0:0:
477,327,223892,1,0,3:0:0:0:
464,299,223975,1,0,3:0:0:0:
466,269,224058,1,0,3:0:0:0:
484,245,224142,5,2,3:0:0:0:
500,303,224225,1,0,3:0:0:0:
467,353,224308,1,0,3:0:0:0:
408,366,224392,1,0,3:0:0:0:
356,334,224475,1,10,3:0:0:0:
324,283,224558,1,0,3:0:0:0:
267,263,224642,1,0,3:0:0:0:
210,285,224725,1,0,3:0:0:0:
190,341,224808,5,2,3:0:0:0:
215,357,224892,1,0,3:0:0:0:
244,360,224975,2,0,P|277:358|309:324,1,59.9999981689454,0|0,3:0|3:0,3:0:0:0:
131,197,225142,5,10,3:0:0:0:
104,210,225225,1,0,3:0:0:0:
87,234,225308,2,0,P|72:263|85:308,1,59.9999981689454,0|0,3:0|3:0,3:0:0:0:
271,204,225475,5,4,3:1:0:0:
316,148,225558,1,0,3:0:0:0:
312,76,225642,1,0,3:0:0:0:
255,29,225725,1,0,3:0:0:0:
183,36,225808,1,10,3:0:0:0:
142,94,225892,1,0,3:0:0:0:
154,165,225975,1,0,3:0:0:0:
212,206,226058,1,0,3:0:0:0:
282,194,226142,1,2,3:0:0:0:
329,138,226225,1,0,3:0:0:0:
398,122,226308,1,0,3:0:0:0:
458,160,226392,1,0,3:0:0:0:
473,230,226475,1,10,3:0:0:0:
431,288,226558,1,0,3:0:0:0:
362,308,226642,1,0,3:0:0:0:
301,268,226725,1,0,3:0:0:0:
283,198,226808,5,2,3:0:0:0:
353,208,226892,1,0,3:0:0:0:
389,271,226975,1,0,3:0:0:0:
374,341,227058,1,0,3:0:0:0:
311,377,227142,1,10,3:0:0:0:
242,354,227225,1,0,3:0:0:0:
214,287,227308,5,0,3:0:0:0:
283,270,227392,1,0,3:0:0:0:
345,306,227475,1,2,3:0:0:0:
405,344,227558,1,0,3:0:0:0:
474,325,227642,1,0,3:0:0:0:
506,260,227725,1,0,3:0:0:0:
478,193,227808,5,10,3:0:0:0:
440,223,227892,1,0,3:0:0:0:
433,270,227975,1,0,3:0:0:0:
450,314,228058,1,0,3:0:0:0:
493,334,228142,5,2,3:0:0:0:
484,261,228225,1,0,3:0:0:0:
425,219,228308,1,0,3:0:0:0:
353,214,228392,1,0,3:0:0:0:
296,259,228475,1,10,3:0:0:0:
225,274,228558,1,0,3:0:0:0:
168,229,228642,1,0,3:0:0:0:
157,157,228725,1,0,3:0:0:0:
199,99,228808,1,2,3:0:0:0:
269,86,228892,1,0,3:0:0:0:
331,122,228975,1,0,3:0:0:0:
402,118,229058,1,0,3:0:0:0:
449,64,229142,5,8,3:0:0:0:
354,43,229225,1,8,3:0:0:0:
268,85,229308,1,8,3:0:0:0:
252,179,229392,1,8,3:0:0:0:
296,264,229475,5,4,3:1:0:0:
67,56,229808,5,4,3:1:0:0:
455,61,230142,5,4,3:1:0:0:
68,337,230475,5,4,3:0:0:0:
439,225,230808,5,4,3:1:0:0:
184,181,230975,1,0,3:0:0:0:
176,186,231308,5,0,3:0:0:0:
401,77,231475,2,0,B|400:138|331:180|272:137|268:85|268:85|258:12|170:-17|106:36|88:112|128:178|219:198|262:124,1,600,10|0,3:1|3:0,3:0:0:0:
24,20,232808,1,10,3:1:0:0:
335,361,233475,5,4,3:1:0:0:
285,95,233642,1,0,3:0:0:0:
275,96,233975,5,0,3:0:0:0:
147,349,234142,2,0,B|95:284|16:264|16:264|81:212|101:133|101:133|152:197|231:217|231:217|167:268|157:317,1,600,12|0,3:0|3:0,3:0:0:0:
296,67,235475,1,10,3:1:0:0:
362,111,235642,1,0,3:0:0:0:
440,93,235808,1,0,3:0:0:0:
445,85,236142,5,4,3:1:0:0:
396,332,236308,1,0,3:0:0:0:
404,339,236642,5,0,3:0:0:0:
233,115,236808,2,0,B|181:81|103:136|143:234|229:248|271:178|247:125|247:125|221:70|255:-1|331:-8|393:41|400:104|358:161|307:156,1,600,12|0,3:0|3:0,3:0:0:0:
68,61,238142,1,10,3:1:0:0:
30,131,238308,1,0,3:0:0:0:
50,208,238475,1,0,3:0:0:0:
43,217,238808,5,2,3:1:0:0:
353,159,238975,1,0,3:0:0:0:
356,147,239308,5,0,3:0:0:0:
240,348,239475,2,0,P|176:383|235:275,1,350,12|0,3:1|3:0,3:0:0:0:
180,315,240142,5,2,3:1:0:0:
132,72,240308,1,0,3:0:0:0:
126,82,240642,5,0,3:0:0:0:
312,214,240808,2,0,B|357:234|357:234|466:177,1,150,12|0,3:1|3:0,3:0:0:0:
454,138,241142,5,8,3:0:0:0:
234,331,241308,1,8,3:0:0:0:
159,184,241475,5,4,3:1:0:0:
355,384,241642,1,0,3:0:0:0:
361,373,241975,5,0,3:0:0:0:
454,126,242142,2,0,B|515:92|586:185|495:276|401:243|369:124|369:124|345:171|288:181|238:165|238:165|300:215|354:195,1,600,12|0,3:0|3:0,3:0:0:0:
152,322,243475,5,10,3:1:0:0:
125,246,243808,1,0,3:0:0:0:
157,170,244142,5,4,3:1:0:0:
437,267,244308,1,0,3:0:0:0:
444,250,244642,5,0,3:0:0:0:
79,178,244808,2,0,B|80:116|134:60|226:75|259:163|213:218|213:218|171:270|164:348|261:411|334:393|377:293,1,600,12|0,3:0|3:0,3:0:0:0:
280,283,245975,1,0,3:0:0:0:
40,374,246142,1,10,3:1:0:0:
76,302,246475,1,0,3:0:0:0:
44,228,246808,5,4,3:1:0:0:
277,47,246975,1,0,3:0:0:0:
268,35,247308,5,0,3:0:0:0:
386,197,247475,2,0,B|456:204|482:148|482:148|504:211|451:251|451:251|412:234|373:256|373:256|335:236|343:175|343:175|313:242|241:246|241:246|281:233|299:185,1,600,12|0,3:0|3:0,3:0:0:0:
345,356,248808,1,10,3:1:0:0:
420,329,248975,1,0,3:0:0:0:
495,354,249142,1,0,3:0:0:0:
500,365,249475,5,2,3:1:0:0:
438,88,249642,1,0,3:0:0:0:
434,80,249975,5,0,3:0:0:0:
332,275,250142,1,12,3:0:0:0:
257,62,250308,5,0,3:0:0:0:
121,229,250475,2,0,B|166:220|166:220|188:229|188:229|247:216,1,100,2|0,3:1|3:0,3:0:0:0:
77,104,250808,5,8,3:0:0:0:
26,144,250892,1,8,3:0:0:0:
11,207,250975,1,2,3:1:0:0:
38,265,251058,1,2,3:1:0:0:
95,295,251142,1,8,3:0:0:0:
159,283,251225,1,2,3:1:0:0:
198,231,251308,1,2,3:1:0:0:
236,179,251392,1,2,3:1:0:0:
299,162,251475,1,2,3:1:0:0:
361,178,251558,1,2,3:1:0:0:
398,224,251642,1,2,3:1:0:0:
407,278,251725,1,2,3:1:0:0:
389,324,251808,1,8,3:0:0:0:
353,351,251892,1,2,3:1:0:0:
312,352,251975,1,2,3:1:0:0:
283,331,252058,1,0,3:0:0:0:
273,302,252142,6,0,B|325:248|384:283|379:305|431:331|483:287,1,230.000004386902,4|10,3:1|3:0,3:0:0:0:
421,148,252642,1,0,3:0:0:0:
426,176,252725,1,0,3:0:0:0:
431,204,252808,1,2,3:0:0:0:
470,71,252975,6,0,P|412:53|349:94,1,115.000002193451,0|10,3:0|3:0,3:0:0:0:
222,148,253308,1,0,3:0:0:0:
194,156,253392,1,0,3:0:0:0:
166,148,253475,2,0,B|140:149|123:118|123:118|154:321,1,230.000004386902,2|10,3:0|3:0,3:0:0:0:
332,359,253975,5,0,3:0:0:0:
337,330,254058,1,0,3:0:0:0:
342,301,254142,1,2,3:0:0:0:
129,242,254308,5,0,3:0:0:0:
390,172,254475,1,10,3:0:0:0:
221,119,254642,1,0,3:0:0:0:
344,34,254808,6,0,L|359:103,1,57.5000010967255,2|0,3:0|3:0,3:0:0:0:
195,183,254975,2,0,L|210:114,1,57.5000010967255,0|0,3:0|3:0,3:0:0:0:
365,47,255142,6,0,L|380:116,1,57.5000010967255,10|0,3:0|3:0,3:0:0:0:
179,159,255308,2,0,L|194:90,1,57.5000010967255,0|0,3:0|3:0,3:0:0:0:
387,60,255475,6,0,B|399:117|399:117|396:127|396:127|408:178,1,115.000002193451,2|0,3:0|3:0,3:0:0:0:
416,199,255725,1,0,3:0:0:0:
416,199,255808,1,10,3:0:0:0:
380,325,255975,6,0,B|416:351|459:341|485:321|485:321|436:377|356:373|308:308|308:308|271:258|205:250|164:316,1,460.000008773804,0|0,3:0|3:0,3:0:0:0:
48,353,256808,5,2,3:0:0:0:
101,309,256892,1,0,3:0:0:0:
115,240,256975,1,0,3:0:0:0:
78,181,257058,1,0,3:0:0:0:
13,157,257142,2,0,L|-5:259,2,76.6666681289673,10|0|0,3:0|3:0|3:0,3:0:0:0:
169,126,257475,6,0,P|186:76|154:3,1,115.000002193451,4|0,3:0|3:0,3:0:0:0:
145,0,257725,1,0,3:0:0:0:
145,0,257808,1,10,3:0:0:0:
73,107,257975,2,0,B|163:97|163:97|208:57|208:57|300:48,1,230.000004386902,0|0,3:0|3:0,3:0:0:0:
315,45,258392,1,0,3:0:0:0:
315,45,258475,1,10,3:0:0:0:
431,245,258642,6,0,B|393:186|435:141|435:141|418:127|418:127|454:83|418:32,1,230.000004386902,0|0,3:0|3:0,3:0:0:0:
400,22,259058,1,0,3:0:0:0:
400,22,259142,1,10,3:0:0:0:
255,186,259308,1,0,3:0:0:0:
283,182,259392,1,0,3:0:0:0:
311,178,259475,1,2,3:0:0:0:
161,136,259642,5,0,3:0:0:0:
105,119,259725,1,0,3:0:0:0:
65,142,259808,1,10,3:0:0:0:
51,179,259892,1,0,3:0:0:0:
55,213,259975,1,0,3:0:0:0:
73,234,260058,1,0,3:0:0:0:
95,239,260142,5,4,3:0:0:0:
130,200,260225,1,0,3:0:0:0:
130,148,260308,1,0,3:0:0:0:
99,106,260392,1,0,3:0:0:0:
98,53,260475,1,10,3:0:0:0:
125,9,260558,1,0,3:0:0:0:
175,0,260642,1,0,3:0:0:0:
222,21,260725,1,0,3:0:0:0:
236,70,260808,5,4,3:1:0:0:
209,91,260892,1,0,3:0:0:0:
174,96,260975,1,0,3:0:0:0:
141,85,261058,1,0,3:0:0:0:
114,63,261142,1,10,3:0:0:0:
79,60,261225,1,0,3:0:0:0:
49,77,261308,1,0,3:0:0:0:
33,107,261392,1,0,3:0:0:0:
45,139,261475,6,0,B|92:66|172:127|149:202|63:217|63:217|123:264|193:211|170:182|246:132|327:143|373:234,1,575.000010967255,4|0,3:0|3:0,3:0:0:0:
371,251,262392,1,0,3:0:0:0:
371,251,262475,1,10,3:0:0:0:
196,98,262642,1,0,3:0:0:0:
269,261,262808,5,4,3:0:0:0:
383,98,262975,5,0,3:0:0:0:
392,71,263058,1,0,3:0:0:0:
386,42,263142,2,0,P|374:15|312:-2,1,57.5000010967255,10|0,3:0|3:0,3:0:0:0:
264,264,263308,5,0,3:0:0:0:
282,285,263392,1,0,3:0:0:0:
310,294,263475,2,0,P|339:297|385:251,1,57.5000010967255,4|0,3:1|3:0,3:0:0:0:
178,25,263642,5,0,3:0:0:0:
150,30,263725,1,0,3:0:0:0:
129,49,263808,2,0,P|111:72|127:135,1,57.5000010967255,10|0,3:0|3:0,3:0:0:0:
303,177,263975,5,0,3:0:0:0:
125,236,264142,6,0,B|66:239|38:187|52:136|52:136|122:143|151:193|142:247|142:247|136:298|181:342|248:337|280:289|280:289|253:318|211:319|177:285,1,575.000010967255,4|0,3:0|3:0,3:0:0:0:
193,296,265058,1,0,3:0:0:0:
193,296,265142,1,10,3:0:0:0:
367,355,265308,1,0,3:0:0:0:
233,185,265475,5,4,3:0:0:0:
219,166,265558,1,0,3:0:0:0:
211,144,265642,1,0,3:0:0:0:
212,120,265725,1,0,3:0:0:0:
223,99,265808,1,10,3:0:0:0:
229,76,265892,1,0,3:0:0:0:
226,52,265975,1,0,3:0:0:0:
214,32,266058,1,0,3:0:0:0:
194,20,266142,1,2,3:0:0:0:
170,17,266225,1,0,3:0:0:0:
148,25,266308,1,0,3:0:0:0:
133,43,266392,1,0,3:0:0:0:
130,66,266475,1,10,3:0:0:0:
139,87,266558,1,0,3:0:0:0:
158,99,266642,1,0,3:0:0:0:
181,98,266725,1,0,3:0:0:0:
201,88,266808,5,4,3:1:0:0:
222,61,266892,1,0,3:0:0:0:
253,46,266975,1,0,3:0:0:0:
287,45,267058,1,0,3:0:0:0:
320,54,267142,1,10,3:0:0:0:
345,77,267225,1,0,3:0:0:0:
356,109,267308,1,0,3:0:0:0:
382,131,267392,1,0,3:0:0:0:
414,143,267475,6,0,B|481:149|492:66|432:26|364:64|335:105|335:105|297:142|243:146|209:95,1,345.000006580353,2|0,3:0|3:0,3:0:0:0:
48,57,268142,5,4,3:0:0:0:
84,39,268225,1,0,3:0:0:0:
124,40,268308,1,0,3:0:0:0:
156,62,268392,1,0,3:0:0:0:
167,100,268475,1,10,3:0:0:0:
156,138,268558,1,0,3:0:0:0:
128,167,268642,1,0,3:0:0:0:
118,206,268725,1,0,3:0:0:0:
134,242,268808,5,2,3:0:0:0:
173,265,268892,1,0,3:0:0:0:
219,260,268975,1,0,3:0:0:0:
244,221,269058,1,0,3:0:0:0:
239,175,269142,1,10,3:0:0:0:
207,141,269225,1,0,3:0:0:0:
191,98,269308,1,0,3:0:0:0:
205,54,269392,1,0,3:0:0:0:
245,32,269475,5,4,3:1:0:0:
296,35,269558,1,0,3:0:0:0:
336,67,269642,1,0,3:0:0:0:
342,118,269725,1,0,3:0:0:0:
313,160,269808,1,10,3:0:0:0:
280,207,269892,1,0,3:0:0:0:
294,263,269975,1,0,3:0:0:0:
342,292,270058,1,0,3:0:0:0:
398,282,270142,5,4,3:1:0:0:
422,222,270225,1,0,3:0:0:0:
392,166,270308,1,0,3:0:0:0:
331,147,270392,1,0,3:0:0:0:
273,175,270475,1,10,3:0:0:0:
242,233,270558,1,0,3:0:0:0:
190,279,270642,1,0,3:0:0:0:
118,271,270725,1,0,3:0:0:0:
68,210,270808,5,4,3:0:0:0:
113,142,270892,1,0,3:0:0:0:
194,128,270975,1,0,3:0:0:0:
258,178,271058,1,0,3:0:0:0:
315,236,271142,1,10,3:0:0:0:
397,240,271225,1,0,3:0:0:0:
455,183,271308,1,0,3:0:0:0:
452,101,271392,1,0,3:0:0:0:
396,40,271475,1,2,3:0:0:0:
314,45,271558,1,0,3:0:0:0:
257,103,271642,1,0,3:0:0:0:
218,175,271725,1,0,3:0:0:0:
140,198,271808,1,10,3:0:0:0:
64,167,271892,1,0,3:0:0:0:
30,91,271975,1,0,3:0:0:0:
71,21,272058,1,0,3:0:0:0:
153,0,272142,5,2,3:0:0:0:
173,71,272225,1,0,3:0:0:0:
127,130,272308,1,0,3:0:0:0:
53,142,272392,1,0,3:0:0:0:
5,200,272475,1,10,3:0:0:0:
28,270,272558,1,0,3:0:0:0:
94,303,272642,1,0,3:0:0:0:
158,263,272725,1,0,3:0:0:0:
173,190,272808,5,2,3:1:0:0:
82,178,272892,1,2,3:1:0:0:
18,245,272975,1,2,3:1:0:0:
33,335,273058,1,2,3:1:0:0:
117,369,273142,1,8,3:0:0:0:
199,326,273225,1,8,3:0:0:0:
235,242,273308,1,2,3:1:0:0:
309,189,273392,1,2,3:1:0:0:
393,232,273475,6,0,B|350:259|350:259|248:229,1,139.999995727539,4|0,3:1|3:0,3:0:0:0:
141,102,274475,6,0,L|262:89,1,112.500004291535,4|0,1:3|3:0,3:0:0:0:
257,55,274808,2,0,B|233:91|233:91|289:195,1,139.999995727539,4|0,1:0|3:0,3:0:0:0:
102,322,275808,6,0,L|85:239,1,69.9999978637696,4|0,1:3|3:0,3:0:0:0:
314,195,275975,2,0,L|297:278,1,69.9999978637696,4|0,1:3|3:0,3:0:0:0:
84,338,276142,2,0,L|67:255,1,69.9999978637696,4|0,1:0|3:0,3:0:0:0:
512,140,277475,5,4,1:0:0:0:
288,88,277642,1,4,1:0:0:0:
51,80,278475,5,2,3:1:0:0:
92,105,278558,1,2,3:1:0:0:
140,102,278642,1,2,3:1:0:0:
174,66,278725,1,2,3:1:0:0:
109,31,278808,6,0,B|100:86|100:86|111:112|111:112|100:177,1,139.999995727539,4|0,1:0|3:0,3:0:0:0:
416,49,279142,6,0,L|324:34,1,69.9999978637696,4|0,1:3|3:0,3:0:0:0:
325,44,279808,2,0,L|394:55,1,69.9999978637696,4|0,1:0|3:0,3:0:0:0:
373,64,280475,2,0,L|303:52,1,69.9999978637696,4|0,1:3|3:0,3:0:0:0:
281,58,281142,2,0,L|350:69,1,69.9999978637696,4|0,1:0|3:0,3:0:0:0:
150,222,281808,6,0,L|80:233,1,69.9999978637696,4|0,1:3|3:0,3:0:0:0:
102,239,282475,2,0,L|171:227,1,69.9999978637696,4|0,1:0|3:0,3:0:0:0:
318,140,282808,6,0,B|303:225|303:225|280:252|280:252|262:354,1,209.999993591309,4|0,1:3|3:0,3:0:0:0:
247,344,283142,2,0,B|262:257|262:257|285:230|285:230|300:145,1,209.999993591309,4|0,1:0|3:0,3:0:0:0:
284,151,283475,2,0,B|269:236|269:236|246:263|246:263|230:349,1,209.999993591309,4|0,1:0|3:0,3:0:0:0:
321,327,283808,2,0,L|330:277,1,43.3333313496908,8|0,3:0|3:0,3:0:0:0:
74,45,284142,6,0,B|169:35|169:35|177:38|177:38|286:27,1,194.999991073609,4|0,3:1|3:0,3:0:0:0:
195,228,284475,2,0,B|100:218|100:218|92:221|92:221|-17:210,1,194.999991073609,4|0,3:0|3:0,3:0:0:0:
311,106,284808,2,0,B|406:96|406:96|414:99|414:99|523:88,1,194.999991073609,4|0,3:1|3:0,3:0:0:0:
255,26,285142,2,0,L|211:22,1,43.3333313496908,8|0,3:0|3:0,3:0:0:0:
49,354,285475,6,0,P|138:335|229:385,1,194.999991073609,4|0,3:1|3:0,3:0:0:0:
131,133,285808,2,0,P|102:219|14:273,1,194.999991073609,4|0,3:1|3:0,3:0:0:0:
286,313,286142,2,0,P|225:245|222:141,1,194.999991073609,4|0,3:0|3:0,3:0:0:0:
156,266,286475,1,2,3:1:0:0:
464,345,286808,5,4,3:1:0:0:
323,263,286975,5,8,3:0:0:0:
311,192,287058,1,8,3:0:0:0:
299,121,287142,1,8,3:0:0:0:
287,49,287225,1,8,3:0:0:0:
349,2,287308,5,2,3:1:0:0:
382,41,287392,1,2,3:1:0:0:
380,93,287475,1,2,3:1:0:0:
349,134,287558,1,2,3:1:0:0:
298,144,287642,1,2,3:1:0:0:
253,117,287725,1,2,3:1:0:0:
237,67,287808,6,0,L|306:77,1,64.9999970245363,4|0,3:0|3:0,3:0:0:0:
407,259,287975,2,0,L|338:269,1,64.9999970245363,4|0,3:0|3:0,3:0:0:0:
150,194,288142,5,8,3:0:0:0:
72,178,288225,1,8,3:0:0:0:
10,213,288308,1,0,3:0:0:0:
0,277,288392,1,2,3:1:0:0:
27,336,288475,1,2,3:1:0:0:
80,358,288558,1,2,3:1:0:0:
129,343,288642,1,2,3:1:0:0:
157,307,288725,1,2,3:1:0:0:
193,294,288808,1,0,3:0:0:0:
223,303,288892,1,0,3:0:0:0:
239,323,288975,1,2,3:1:0:0:
241,342,289058,1,2,3:1:0:0:
235,353,289142,5,8,3:0:0:0:
199,292,289225,1,8,3:0:0:0:
166,230,289308,1,8,3:0:0:0:
131,169,289392,1,8,3:0:0:0:
103,108,289475,1,4,3:1:0:0:
103,108,290808,5,4,3:0:0:0:
166,85,290892,1,0,3:0:0:0:
230,105,290975,1,0,3:0:0:0:
260,166,291058,1,0,3:0:0:0:
248,232,291142,1,10,3:0:0:0:
194,273,291225,1,0,3:0:0:0:
125,269,291308,5,0,3:0:0:0:
139,202,291392,1,0,3:0:0:0:
199,169,291475,1,2,3:0:0:0:
266,175,291558,1,0,3:0:0:0:
312,224,291642,1,0,3:0:0:0:
309,292,291725,1,0,3:0:0:0:
266,344,291808,5,10,3:0:0:0:
265,303,291892,1,0,3:0:0:0:
287,268,291975,1,0,3:0:0:0:
324,253,292058,1,0,3:0:0:0:
363,263,292142,5,2,3:0:0:0:
336,311,292225,1,0,3:0:0:0:
282,316,292308,1,0,3:0:0:0:
235,287,292392,1,0,3:0:0:0:
212,237,292475,1,10,3:0:0:0:
169,203,292558,1,0,3:0:0:0:
114,201,292642,1,0,3:0:0:0:
70,234,292725,1,0,3:0:0:0:
58,286,292808,5,2,3:0:0:0:
88,301,292892,1,0,3:0:0:0:
122,300,292975,2,0,P|160:283|183:250,1,68.0000004150391,0|0,3:0|3:0,3:0:0:0:
72,39,293142,5,10,3:0:0:0:
44,57,293225,1,0,3:0:0:0:
27,87,293308,2,0,P|22:128|39:164,1,68.0000004150391,0|0,3:0|3:0,3:0:0:0:
305,226,293475,5,2,3:0:0:0:
354,190,293558,1,0,3:0:0:0:
371,131,293642,1,0,3:0:0:0:
349,73,293725,1,0,3:0:0:0:
297,40,293808,1,10,3:0:0:0:
236,43,293892,1,0,3:0:0:0:
192,86,293975,5,0,3:0:0:0:
244,116,294058,1,0,3:0:0:0:
304,112,294142,1,2,3:0:0:0:
348,69,294225,1,0,3:0:0:0:
357,8,294308,5,0,3:0:0:0:
327,23,294392,1,0,3:0:0:0:
304,49,294475,1,10,3:0:0:0:
296,82,294558,1,0,3:0:0:0:
305,114,294642,1,0,3:0:0:0:
329,138,294725,1,0,3:0:0:0:
361,148,294808,5,2,3:0:0:0:
355,87,294892,1,0,3:0:0:0:
301,55,294975,1,0,3:0:0:0:
241,67,295058,1,0,3:0:0:0:
210,119,295142,1,10,3:0:0:0:
163,159,295225,1,0,3:0:0:0:
102,156,295308,1,0,3:0:0:0:
62,109,295392,1,0,3:0:0:0:
63,47,295475,5,2,3:0:0:0:
95,38,295558,1,0,3:0:0:0:
128,41,295642,2,0,P|164:53|193:88,1,68.0000004150391,0|0,3:0|3:0,3:0:0:0:
65,351,295808,5,10,3:0:0:0:
41,327,295892,1,0,3:0:0:0:
27,297,295975,2,0,P|19:259|35:217,1,68.0000004150391,0|0,3:0|3:0,3:0:0:0:
351,119,296142,5,4,3:1:0:0:
398,177,296225,1,0,3:0:0:0:
398,251,296308,1,0,3:0:0:0:
350,308,296392,1,0,3:0:0:0:
276,325,296475,1,10,3:0:0:0:
211,288,296558,1,0,3:0:0:0:
191,216,296642,1,0,3:0:0:0:
217,145,296725,1,0,3:0:0:0:
282,110,296808,5,2,3:0:0:0:
324,162,296892,1,0,3:0:0:0:
328,230,296975,1,0,3:0:0:0:
288,285,297058,1,0,3:0:0:0:
223,305,297142,1,10,3:0:0:0:
162,272,297225,1,0,3:0:0:0:
129,212,297308,1,0,3:0:0:0:
63,194,297392,1,0,3:0:0:0:
2,224,297475,5,2,3:0:0:0:
47,294,297558,1,0,3:0:0:0:
134,306,297642,1,0,3:0:0:0:
193,240,297725,1,0,3:0:0:0:
207,153,297808,1,10,3:0:0:0:
259,82,297892,1,0,3:0:0:0:
344,56,297975,1,0,3:0:0:0:
427,83,298058,1,0,3:0:0:0:
472,158,298142,5,2,3:0:0:0:
429,179,298225,1,0,3:0:0:0:
381,175,298308,2,0,P|342:152|320:107,1,68.0000004150391,0|0,3:0|3:0,3:0:0:0:
168,33,298475,5,10,3:0:0:0:
124,13,298558,1,0,3:0:0:0:
76,16,298642,2,0,P|37:39|15:84,1,68.0000004150391,0|0,3:0|3:0,3:0:0:0:
148,308,298808,5,2,3:0:0:0:
226,330,298892,1,0,3:0:0:0:
300,294,298975,1,0,3:0:0:0:
330,218,299058,1,0,3:0:0:0:
297,143,299142,1,10,3:0:0:0:
222,108,299225,1,0,3:0:0:0:
147,139,299308,5,0,3:0:0:0:
194,205,299392,1,0,3:0:0:0:
273,224,299475,1,2,3:0:0:0:
341,180,299558,1,0,3:0:0:0:
369,103,299642,1,0,3:0:0:0:
338,26,299725,1,0,3:0:0:0:
260,7,299808,5,10,3:0:0:0:
260,61,299892,1,0,3:0:0:0:
305,102,299975,1,0,3:0:0:0:
365,112,300058,1,0,3:0:0:0:
421,88,300142,5,2,3:0:0:0:
355,38,300225,1,0,3:0:0:0:
274,48,300308,1,0,3:0:0:0:
228,115,300392,1,0,3:0:0:0:
175,178,300475,1,10,3:0:0:0:
94,189,300558,1,0,3:0:0:0:
29,139,300642,1,0,3:0:0:0:
19,57,300725,1,0,3:0:0:0:
73,7,300808,5,4,3:0:0:0:
109,26,300892,1,0,3:0:0:0:
129,61,300975,2,0,P|133:96|113:138,1,68.0000004150391,0|0,3:0|3:0,3:0:0:0:
6,263,301142,5,12,3:0:0:0:
23,252,301225,1,0,3:0:0:0:
43,248,301308,1,0,3:0:0:0:
63,249,301392,1,0,3:0:0:0:
82,254,301475,5,4,3:1:0:0:
113,313,301558,1,0,3:0:0:0:
174,341,301642,1,0,3:0:0:0:
240,325,301725,1,0,3:0:0:0:
272,265,301808,1,10,3:0:0:0:
257,198,301892,1,0,3:0:0:0:
199,160,301975,5,0,3:0:0:0:
163,217,302058,1,0,3:0:0:0:
182,281,302142,1,2,3:0:0:0:
239,317,302225,1,0,3:0:0:0:
306,309,302308,1,0,3:0:0:0:
347,255,302392,1,0,3:0:0:0:
340,186,302475,5,10,3:0:0:0:
310,202,302558,1,0,3:0:0:0:
291,230,302642,1,0,3:0:0:0:
285,263,302725,1,0,3:0:0:0:
292,296,302808,5,2,3:0:0:0:
345,303,302892,1,0,3:0:0:0:
391,274,302975,1,0,3:0:0:0:
413,224,303058,1,0,3:0:0:0:
408,169,303142,1,10,3:0:0:0:
374,125,303225,1,0,3:0:0:0:
371,70,303308,1,0,3:0:0:0:
402,26,303392,1,0,3:0:0:0:
455,15,303475,5,2,3:0:0:0:
449,48,303558,1,0,3:0:0:0:
426,73,303642,2,0,P|393:91|339:83,1,68.0000004150391,0|0,3:0|3:0,3:0:0:0:
92,12,303808,5,10,3:0:0:0:
123,0,303892,1,0,3:0:0:0:
156,8,303975,2,0,P|188:27|208:78,1,68.0000004150391,0|0,3:0|3:0,3:0:0:0:
236,226,304142,5,2,3:0:0:0:
188,265,304225,1,0,3:0:0:0:
127,269,304308,1,0,3:0:0:0:
75,236,304392,1,0,3:0:0:0:
55,177,304475,1,10,3:0:0:0:
70,118,304558,1,0,3:0:0:0:
119,82,304642,5,0,3:0:0:0:
161,126,304725,1,0,3:0:0:0:
166,186,304808,1,2,3:0:0:0:
133,237,304892,1,0,3:0:0:0:
103,291,304975,1,0,3:0:0:0:
118,349,305058,1,0,3:0:0:0:
173,374,305142,5,10,3:0:0:0:
165,340,305225,1,0,3:0:0:0:
136,321,305308,1,0,3:0:0:0:
102,315,305392,1,0,3:0:0:0:
72,332,305475,5,2,3:0:0:0:
125,360,305558,1,0,3:0:0:0:
182,340,305642,1,0,3:0:0:0:
214,287,305725,1,0,3:0:0:0:
258,245,305808,1,10,3:0:0:0:
318,238,305892,1,0,3:0:0:0:
375,260,305975,1,0,3:0:0:0:
403,313,306058,1,0,3:0:0:0:
396,373,306142,5,2,3:0:0:0:
355,372,306225,1,0,3:0:0:0:
321,348,306308,2,0,P|299:319|296:267,1,68.0000004150391,0|0,3:0|3:0,3:0:0:0:
478,102,306475,5,10,3:0:0:0:
500,135,306558,1,0,3:0:0:0:
503,175,306642,2,0,P|488:208|445:237,1,68.0000004150391,0|0,3:0|3:0,3:0:0:0:
225,111,306808,5,4,3:1:0:0:
190,37,306892,1,0,3:0:0:0:
112,8,306975,1,0,3:0:0:0:
34,33,307058,1,0,3:0:0:0:
1,107,307142,1,10,3:0:0:0:
22,186,307225,1,0,3:0:0:0:
88,234,307308,1,0,3:0:0:0:
169,227,307392,1,0,3:0:0:0:
222,164,307475,1,2,3:0:0:0:
282,109,307558,1,0,3:0:0:0:
363,105,307642,1,0,3:0:0:0:
428,155,307725,1,0,3:0:0:0:
441,235,307808,1,10,3:0:0:0:
398,304,307892,1,0,3:0:0:0:
318,325,307975,1,0,3:0:0:0:
246,286,308058,1,0,3:0:0:0:
213,211,308142,5,2,3:0:0:0:
287,176,308225,1,0,3:0:0:0:
362,207,308308,1,0,3:0:0:0:
395,281,308392,1,0,3:0:0:0:
371,359,308475,1,10,3:0:0:0:
293,384,308558,1,0,3:0:0:0:
220,347,308642,5,0,3:0:0:0:
265,278,308725,1,0,3:0:0:0:
346,272,308808,1,2,3:0:0:0:
422,243,308892,1,0,3:0:0:0:
453,167,308975,1,0,3:0:0:0:
415,94,309058,1,0,3:0:0:0:
334,79,309142,5,10,3:0:0:0:
343,132,309225,1,0,3:0:0:0:
385,165,309308,1,0,3:0:0:0:
438,171,309392,1,0,3:0:0:0:
482,138,309475,5,2,3:0:0:0:
413,82,309558,1,0,3:0:0:0:
325,78,309642,1,0,3:0:0:0:
254,132,309725,1,0,3:0:0:0:
223,214,309808,1,10,3:0:0:0:
166,281,309892,1,0,3:0:0:0:
77,288,309975,1,0,3:0:0:0:
16,225,310058,1,0,3:0:0:0:
16,136,310142,5,8,3:0:0:0:
124,118,310225,1,8,3:0:0:0:
216,174,310308,1,8,3:0:0:0:
256,274,310392,1,8,3:0:0:0:
356,317,310475,1,8,3:0:0:0:
459,285,310558,1,8,3:0:0:0:
505,187,310642,1,8,3:0:0:0:
477,80,310725,1,8,3:0:0:0:
377,36,310808,5,4,3:1:0:0:
249,384,311142,5,4,3:1:0:0:
0,73,311475,5,4,3:1:0:0:
512,288,311808,5,4,3:0:0:0:
121,116,312142,6,0,L|131:173,3,50,4|0|2|0,3:1|3:0|3:1|3:0,3:0:0:0:
285,151,312475,2,0,L|275:208,3,50,2|0|2|0,3:1|3:0|3:1|3:0,3:0:0:0:
68,267,312808,2,0,L|78:324,3,50,2|0|2|0,3:1|3:0|3:1|3:0,3:0:0:0:
219,323,313142,2,0,L|209:380,3,50,2|0|2|0,3:1|3:0|3:1|3:0,3:0:0:0:
156,157,313475,5,8,3:0:0:0:
229,123,313558,1,8,3:0:0:0:
294,140,313642,1,2,3:1:0:0:
330,181,313725,1,2,3:1:0:0:
339,227,313808,1,0,3:0:0:0:
323,264,313892,1,0,3:0:0:0:
290,274,313975,5,2,3:1:0:0:
256,222,314058,1,2,3:1:0:0:
266,168,314142,1,2,3:1:0:0:
303,137,314225,1,2,3:1:0:0:
343,130,314308,1,0,3:0:0:0:
374,143,314392,1,0,3:0:0:0:
391,164,314475,5,8,3:0:0:0:
317,224,314558,1,8,3:0:0:0:
222,218,314642,1,8,3:0:0:0:
166,139,314725,1,8,3:0:0:0:
184,46,314808,1,4,3:1:0:0:
256,192,314892,12,0,316142,3:0:0:0:
