osu file format v14

[General]
AudioFilename: audio.mp3
AudioLeadIn: 0
PreviewTime: 62912
Countdown: 0
SampleSet: Soft
StackLeniency: 0.3
Mode: 0
LetterboxInBreaks: 0
WidescreenStoryboard: 1

[Editor]
DistanceSpacing: 0.8
BeatDivisor: 4
GridSize: 4
TimelineZoom: 2.615999

[Metadata]
Title:Sora ga Aozora de Aru Tame ni (TV Size)
TitleUnicode:空が青空であるために (TV Size)
Artist:GLAY
ArtistUnicode:GLAY
Creator:Dino99
Version:Home Run!
Source:ダイヤのA -SECOND SEASON-
Tags:12BARRY21 EmPao KoldNoodl Ace of Diamond OP Opening Japanese Anime Male Vocalist j-rock jrock rock High School Baseball Club Team Sport TAKURO TERU HISASHI JIRO G4・Ⅳ
BeatmapID:3383922
BeatmapSetID:1657861

[Difficulty]
HPDrainRate:6
CircleSize:4.4
OverallDifficulty:8.7
ApproachRate:9.4
SliderMultiplier:1.76
SliderTickRate:1

[Events]
//Background and Video events
Video,-166,"Video.mp4"
0,0,"Miyuki BG.jpg",0,0
//Break Periods
//Storyboard Layer 0 (Background)
//Storyboard Layer 1 (Fail)
//Storyboard Layer 2 (Pass)
//Storyboard Layer 3 (Foreground)
//Storyboard Layer 4 (Overlay)
//Storyboard Sound Samples

[TimingPoints]
-20,300,4,2,1,30,1,0
-20,-142.857142857143,4,2,1,30,0,0
555,285.714285714286,4,2,1,30,1,0
555,-142.857142857143,4,2,1,30,0,0
840,340.909090909091,4,2,1,40,1,0
840,-142.857142857143,4,2,1,40,0,0
1180,300,4,2,1,60,1,0
1180,-142.857142857143,4,2,1,60,0,0
1930,-142.857142857143,4,2,1,5,0,0
2080,-142.857142857143,4,2,1,45,0,0
2305,-142.857142857143,4,2,1,5,0,0
2380,-142.857142857143,4,2,1,45,0,0
3505,-142.857142857143,4,2,1,5,0,0
3580,-142.857142857143,4,2,1,45,0,0
3730,-142.857142857143,4,2,1,5,0,0
3880,-142.857142857143,4,2,1,55,0,0
4030,-142.857142857143,4,2,1,5,0,0
4180,-142.857142857143,4,2,1,55,0,0
4330,-142.857142857143,4,2,1,5,0,0
4480,-142.857142857143,4,2,1,55,0,0
4630,-142.857142857143,4,2,1,5,0,0
4780,-142.857142857143,4,2,1,55,0,0
4930,-142.857142857143,4,2,1,50,0,0
5980,-142.857142857143,4,2,1,45,0,0
6055,-142.857142857143,4,2,1,5,0,0
6130,-142.857142857143,4,2,1,45,0,0
6273,300,4,2,1,55,1,0
6273,-142.857142857143,4,2,1,45,0,0
7173,300,4,2,1,55,1,0
7173,-142.857142857143,4,2,1,55,0,0
7248,-142.857142857143,4,2,1,5,0,0
7323,-142.857142857143,4,2,1,55,0,0
8215,300,4,2,1,55,1,0
8215,-142.857142857143,4,2,1,55,0,0
8362,306.122448979592,4,2,1,70,1,0
8362,-142.857142857143,4,2,1,70,0,0
9280,-142.857142857143,4,2,1,5,0,0
9572,300,4,2,1,70,1,0
9572,-100,4,2,1,70,0,0
10772,-83.3333333333333,4,2,1,70,0,1
10847,-83.3333333333333,4,2,1,70,0,0
10989,-83.3333333333333,4,2,1,5,0,0
11064,-83.3333333333333,4,2,1,70,0,0
11672,286.396181384248,4,2,1,50,1,0
11672,-83.3333333333333,4,2,1,70,0,0
11883,-83.3333333333333,4,2,1,5,0,0
11958,300,4,2,1,70,1,0
11958,-83.3333333333333,4,2,1,70,0,0
13008,-83.3333333333333,4,2,1,5,0,0
13158,-83.3333333333333,4,2,1,70,0,0
13683,-83.3333333333333,4,2,1,5,0,0
13758,-83.3333333333333,4,2,1,70,0,0
14058,298.507462686567,4,2,1,50,1,0
14058,-83.3333333333333,4,2,1,50,0,0
14283,-83.3333333333333,4,2,1,5,0,0
14356,300,4,2,1,70,1,0
14356,-83.3333333333333,4,2,1,70,0,0
15256,-83.3333333333333,4,2,1,70,0,0
15481,-83.3333333333333,4,2,1,5,0,0
15556,-83.3333333333333,4,2,1,70,0,0
15781,-83.3333333333333,4,2,1,5,0,0
15856,-83.3333333333333,4,2,1,70,0,0
16081,-83.3333333333333,4,2,1,5,0,0
16156,-83.3333333333333,4,2,1,70,0,0
16681,-83.3333333333333,4,2,1,5,0,0
16756,-83.3333333333333,4,2,1,70,0,0
17881,-83.3333333333333,4,2,1,5,0,0
17956,-83.3333333333333,4,2,1,70,0,0
19081,-83.3333333333333,4,2,1,5,0,0
19156,-83.3333333333333,4,2,1,70,0,0
19456,302.267002518892,4,2,1,50,1,0
19456,-83.3333333333333,4,2,1,50,0,0
19758,300,4,2,1,70,1,0
19758,-83.3333333333333,4,2,1,70,0,0
20036,300,4,2,1,70,1,0
20036,-83.3333333333333,4,2,1,70,0,0
20340,300,4,2,1,70,1,0
20340,-95.2380952380952,4,2,1,70,0,0
20658,300,4,2,1,70,1,0
20658,-95.2380952380952,4,2,1,70,0,0
21558,300,4,2,1,70,1,0
21558,-95.2380952380952,4,2,1,70,0,0
22283,350.877192982456,4,2,1,70,1,0
22283,-95.2380952380952,4,2,1,70,0,0
22458,300,4,2,1,70,1,0
22458,-95.2380952380952,4,2,1,70,0,0
22608,-95.2380952380952,4,2,1,50,0,0
22758,300,4,2,1,70,1,0
22758,-95.2380952380952,4,2,1,70,0,0
24563,307.692307692308,4,2,1,70,1,0
24563,-83.3333333333333,4,2,1,50,0,0
24860,307.692307692308,4,2,1,50,1,0
24860,-83.3333333333333,4,2,1,50,0,0
25182,298.879202988792,4,2,1,50,1,0
25182,-125,4,2,1,40,0,0
26825,-125,4,2,1,5,0,0
26975,-125,4,2,1,40,0,0
27423,-125,4,2,1,5,0,0
27573,-125,4,2,1,40,0,0
31607,-125,4,2,1,5,0,0
31757,-125,4,2,1,40,0,0
32205,-125,4,2,1,5,0,0
32355,-125,4,2,1,40,0,0
34671,-125,4,2,1,5,0,0
34746,-125,4,2,1,40,0,0
37062,-125,4,2,1,5,0,0
37137,-80,4,2,1,40,0,0
37211,-80,4,2,1,60,0,0
37304,298.879202988792,4,2,1,60,1,0
37304,-80,4,2,1,60,0,0
37435,298.879202988792,4,2,1,60,1,0
37435,-80,4,2,1,60,0,0
38331,298.879202988792,4,2,1,60,1,0
38331,-80,4,2,1,60,0,0
39079,-100,4,2,1,60,0,0
39543,329.67032967033,4,2,1,60,1,0
39543,-105.263157894737,4,2,1,60,0,0
39872,300,4,2,1,60,1,0
39872,-105.263157894737,4,2,1,60,0,0
40772,300,4,2,1,60,1,0
40772,-105.263157894737,4,2,1,60,0,0
41502,300,4,2,1,60,1,0
41502,-105.263157894737,4,2,1,60,0,0
41652,300,4,2,1,60,1,0
41652,-105.263157894737,4,2,1,60,0,0
41952,300,4,2,1,60,1,0
41952,-105.263157894737,4,2,1,60,0,0
43888,312.5,4,2,1,60,1,0
43888,-105.263157894737,4,2,1,60,0,0
44044,300,4,2,1,60,1,0
44044,-105.263157894737,4,2,1,60,0,0
44269,-105.263157894737,4,2,1,5,0,0
44344,300,4,2,1,60,1,0
44344,-105.263157894737,4,2,1,60,0,0
44569,-105.263157894737,4,2,1,5,0,0
44644,-105.263157894737,4,2,1,60,0,0
46669,-105.263157894737,4,2,1,5,0,0
46744,-105.263157894737,4,2,1,60,0,0
48844,318.302387267905,4,2,1,60,1,0
48844,-105.263157894737,4,2,1,60,0,0
49069,-105.263157894737,4,2,1,5,0,0
49162,300,4,2,1,60,1,0
49162,-105.263157894737,4,2,1,60,0,0
50352,300,4,2,1,50,1,0
50352,-105.263157894737,4,2,1,50,0,0
51477,-105.263157894737,4,2,1,5,0,0
51544,297.029702970297,4,2,1,60,1,0
51544,-80,4,2,1,60,0,0
51618,-80,4,2,1,70,0,0
53330,313.31592689295,4,2,1,70,1,0
53330,-90.9090909090909,4,2,1,70,0,0
53486,-100,4,2,1,60,0,0
53643,300,4,2,1,60,1,0
53643,-100,4,2,1,70,0,0
53960,300,4,2,1,60,1,0
53960,-71.4285714285714,4,2,1,70,0,1
54035,-71.4285714285714,4,2,1,70,0,0
54185,-71.4285714285714,4,2,1,5,0,0
54260,-71.4285714285714,4,2,1,70,0,0
54410,286.396181384248,4,2,1,50,1,0
54410,-71.4285714285714,4,2,1,40,0,0
54479,-71.4285714285714,4,2,1,70,0,0
54621,-71.4285714285714,4,2,1,5,0,0
54696,300,4,2,1,70,1,0
54696,-71.4285714285714,4,2,1,70,0,0
54846,-133.333333333333,4,2,1,70,0,0
55071,-133.333333333333,4,2,1,5,0,0
55146,300,4,2,1,40,1,0
55146,-71.4285714285714,4,2,1,40,0,0
55221,-71.4285714285714,4,2,1,70,0,0
55371,-71.4285714285714,4,2,1,5,0,0
55446,-71.4285714285714,4,2,1,70,0,0
55596,-71.4285714285714,4,2,1,40,0,0
55671,-71.4285714285714,4,2,1,70,0,0
55821,-71.4285714285714,4,2,1,5,0,0
55896,-80,4,2,1,70,0,0
55971,-80,4,2,1,5,0,0
56046,-80,4,2,1,70,0,0
56121,-80,4,2,1,5,0,0
56196,-80,4,2,1,70,0,0
56271,-80,4,2,1,5,0,0
56346,-125,4,2,1,55,0,0
56421,-125,4,2,1,70,0,0
56571,-125,4,2,1,5,0,0
56646,-125,4,2,1,70,0,0
58671,-125,4,2,1,5,0,0
58746,-71.4285714285714,4,2,1,70,0,0
58971,-71.4285714285714,4,2,1,5,0,0
59046,-71.4285714285714,4,2,1,70,0,0
59196,-71.4285714285714,4,2,1,40,0,0
59271,-71.4285714285714,4,2,1,70,0,0
59421,-71.4285714285714,4,2,1,5,0,0
59496,-71.4285714285714,4,2,1,70,0,0
59646,-133.333333333333,4,2,1,70,0,0
59871,-71.4285714285714,4,2,1,5,0,0
59946,-71.4285714285714,4,2,1,40,0,0
60021,-71.4285714285714,4,2,1,70,0,0
60171,-71.4285714285714,4,2,1,5,0,0
60246,-71.4285714285714,4,2,1,70,0,0
60396,-71.4285714285714,4,2,1,50,0,0
60471,-71.4285714285714,4,2,1,70,0,0
60621,-71.4285714285714,4,2,1,5,0,0
60676,300,4,2,1,70,1,0
60676,-80,4,2,1,70,0,0
60751,-80,4,2,1,5,0,0
60826,-80,4,2,1,70,0,0
60901,-80,4,2,1,5,0,0
60976,-80,4,2,1,70,0,0
61051,-80,4,2,1,5,0,0
61135,300,4,2,1,70,1,0
61135,-71.4285714285714,4,2,1,70,0,0
61210,-71.4285714285714,4,2,1,55,0,0
61360,-71.4285714285714,4,2,1,5,0,0
61435,-71.4285714285714,4,2,1,40,0,0
61660,-71.4285714285714,4,2,1,5,0,0
61735,-100,4,2,1,60,0,0
62035,-100,4,2,1,55,0,0
62351,320.855614973262,4,2,1,45,1,0
62351,-125,4,2,1,45,0,0
62431,-125,4,2,1,45,0,0
62912,-125,4,2,1,5,0,0
62998,298.507462686567,4,2,1,40,1,0
62998,-125,4,2,1,40,0,0
63296,-125,4,2,1,5,0,0
63542,316.622691292876,4,2,1,70,1,1
63542,-90.9090909090909,4,2,1,70,0,1
63779,-90.9090909090909,4,2,1,5,0,1
63858,300.375469336671,4,2,1,70,1,1
63858,-90.9090909090909,4,2,1,70,0,1
64684,-90.9090909090909,4,2,1,5,0,1
64759,300.375469336671,4,2,1,70,1,1
64759,-90.9090909090909,4,2,1,70,0,1
65885,-90.9090909090909,4,2,1,5,0,1
65960,-66.6666666666667,4,2,1,70,0,1
66186,-90.9090909090909,4,2,1,5,0,1
66260,-90.9090909090909,4,2,1,70,0,1
67162,-90.9090909090909,4,2,1,70,0,1
67387,-90.9090909090909,4,2,1,5,0,1
67462,-90.9090909090909,4,2,1,70,0,1
68364,-90.9090909090909,4,2,1,70,0,1
68588,-90.9090909090909,4,2,1,5,0,1
68663,-90.9090909090909,4,2,1,70,0,1
69490,-90.9090909090909,4,2,1,5,0,1
69563,-90.9090909090909,4,2,1,70,0,1
70691,-90.9090909090909,4,2,1,5,0,1
70767,-90.9090909090909,4,2,1,60,0,1
70842,-90.9090909090909,4,2,1,70,0,1
72569,-90.9090909090909,4,2,1,60,0,1
73094,-90.9090909090909,4,2,1,60,0,0
73162,300.375469336671,4,2,1,65,1,1
73162,-83.3333333333333,4,2,1,65,0,1
73237,-83.3333333333333,4,2,1,75,0,1
73387,-83.3333333333333,4,2,1,5,0,1
73462,-83.3333333333333,4,2,1,75,0,1
74288,-83.3333333333333,4,2,1,5,0,1
74363,-83.3333333333333,4,2,1,75,0,1
76991,-83.3333333333333,4,2,1,5,0,1
77066,-83.3333333333333,4,2,1,75,0,1
77968,-83.3333333333333,4,2,1,65,0,1
78043,-83.3333333333333,4,2,1,75,0,1
78493,-83.3333333333333,4,2,1,5,0,1
78568,-83.3333333333333,4,2,1,75,0,1
79169,-83.3333333333333,4,2,1,75,0,1
80371,-83.3333333333333,4,2,1,65,0,1
80446,-83.3333333333333,4,2,1,75,0,1
80596,-83.3333333333333,4,2,1,5,0,1
80671,-83.3333333333333,4,2,1,75,0,1
81572,292.682926829268,4,2,1,50,1,1
81718,297.029702970297,4,2,1,50,1,1
81718,-83.3333333333333,4,2,1,50,0,1
81790,-83.3333333333333,4,2,1,40,0,1
81862,-83.3333333333333,4,2,1,55,0,1
81934,-83.3333333333333,4,2,1,5,0,1
82006,-83.3333333333333,4,2,1,55,0,1
82150,-83.3333333333333,4,2,1,65,0,1
82222,-83.3333333333333,4,2,1,5,0,1
82294,-83.3333333333333,4,2,1,65,0,1
82439,-83.3333333333333,4,2,1,60,0,1
82511,-83.3333333333333,4,2,1,5,0,1
82583,-83.3333333333333,4,2,1,60,0,1
82766,300,4,2,1,65,1,1
82766,-95.2380952380952,4,2,1,65,0,0
82991,-95.2380952380952,4,2,1,5,0,0
83066,-95.2380952380952,4,2,1,40,0,0
83216,-95.2380952380952,4,2,1,65,0,0
85766,-66.6666666666667,4,2,1,60,0,0
86050,324.324324324324,4,2,1,60,1,0
86050,-66.6666666666667,4,2,1,60,0,0
86370,300,4,2,1,40,1,0
86370,-126.582278481013,4,2,1,40,0,0
86966,-126.582278481013,4,2,1,45,0,0
87566,-126.582278481013,4,2,1,40,0,0
88166,-126.582278481013,4,2,1,35,0,0
88466,-126.582278481013,4,2,1,25,0,0
88766,-126.582278481013,4,2,1,10,0,0

[Colours]
Combo1 : 0,242,255
Combo2 : 0,0,255
Combo3 : 228,228,228
Combo4 : 89,89,89

[HitObjects]
218,57,555,21,2,0:0:0:0:
119,134,840,1,2,0:0:0:0:
164,228,1180,6,0,B|160:193|188:171|188:171|155:131|93:151|57:223|90:286|140:301,1,307.999990600586,2|0,0:0|0:0,0:0:0:0:
214,353,2080,2,0,P|254:326|295:336,1,92.3999971801759,2|0,0:0|0:0,0:0:0:0:
312,351,2380,38,0,P|349:313|339:245,2,123.199996240234,2|2|2,0:0|0:0|0:0,0:0:0:0:
212,256,3280,2,0,L|220:160,1,92.3999971801759,2|0,0:0|0:0,0:0:0:0:
236,148,3580,6,0,L|228:84,1,61.5999981201172,2|0,0:0|0:0,0:0:0:0:
332,20,3880,2,0,L|324:81,1,61.5999981201172,2|0,0:0|0:0,0:0:0:0:
236,148,4180,38,0,L|176:128,1,61.5999981201172,2|0,0:0|0:0,0:0:0:0:
72,228,4480,2,0,L|130:208,1,61.5999981201172,2|0,0:0|0:0,0:0:0:0:
264,296,4780,6,0,B|216:276|180:300|184:328|132:344|92:316,2,184.799994360352,2|2|2,0:0|0:0|0:0,0:0:0:0:
279,309,5980,37,2,0:0:0:0:
170,159,6273,1,2,0:0:0:0:
344,216,6573,1,2,0:0:0:0:
170,273,6873,1,2,0:0:0:0:
279,124,7173,6,0,P|285:86|237:17,2,123.199996240234,2|2|2,0:0|0:0|0:0,0:0:0:0:
393,82,8073,1,2,0:0:0:0:
347,204,8215,5,0,3:0:0:0:
346,211,8290,1,0,3:0:0:0:
345,218,8362,2,0,B|373:262|429:258|461:226|461:142|393:98|289:154|369:230|305:226|265:230|233:226|205:194,1,369.599988720703,6|0,0:0|0:0,0:0:0:0:
178,120,9572,21,8,1:2:0:0:
283,352,9722,1,8,1:2:0:0:
178,120,10172,5,8,1:2:0:0:
283,352,10322,1,8,1:2:0:0:
178,120,10772,22,0,P|103:102|65:164,1,158.399995166016,6|0,0:0|0:0,0:0:0:0:
45,250,11072,2,0,P|75:290|131:294,1,105.599996777344,8|0,0:0|0:0,0:0:0:0:
315,333,11372,1,0,3:0:0:0:
273,226,11522,1,0,3:0:0:0:
438,101,11672,2,0,P|454:45|430:101,1,158.399995166016,10|0,0:0|0:0,0:0:0:0:
349,146,11958,38,0,P|357:199|361:250,1,105.599996777344,2|0,3:2|3:0,0:0:0:0:
227,104,12258,2,0,P|235:157|239:208,1,105.599996777344,10|0,0:0|3:0,0:0:0:0:
105,64,12558,2,0,P|113:117|117:168,1,105.599996777344,2|0,0:0|3:0,0:0:0:0:
151,375,12858,2,0,P|156:321|161:269,1,105.599996777344,10|0,0:0|0:0,0:0:0:0:
294,79,13158,6,0,B|272:40|310:7|310:7|360:23|384:71|354:124,1,211.199993554688,2|10,3:2|0:0,0:0:0:0:
348,189,13533,1,2,0:0:0:0:
334,203,13608,2,0,L|279:197,1,52.7999983886719,2|0,0:0|0:0,0:0:0:0:
144,60,13758,2,0,L|156:164,1,105.599996777344,2|0,3:2|3:0,0:0:0:0:
43,383,14058,2,0,P|0:318|20:244,1,158.399995166016,10|0,0:0|0:0,0:0:0:0:
96,207,14356,38,0,L|200:223,1,105.599996777344,2|0,3:2|3:0,0:0:0:0:
134,326,14656,1,8,0:0:0:0:
311,269,14806,2,0,P|322:208|295:163,1,105.599996777344,0|0,3:0|0:0,0:0:0:0:
200,223,15106,1,0,3:0:0:0:
409,98,15256,2,0,L|400:205,1,105.599996777344,8|0,0:0|3:0,0:0:0:0:
449,363,15556,6,0,P|375:328|300:341,1,158.399995166016,6|0,0:0|0:0,0:0:0:0:
219,383,15856,2,0,P|227:332|235:274,1,105.599996777344,10|0,0:0|0:0,0:0:0:0:
78,329,16156,37,2,3:2:0:0:
78,329,16306,1,0,3:0:0:0:
132,142,16456,2,0,P|143:196|154:253,1,105.599996777344,10|0,0:0|0:0,0:0:0:0:
266,144,16756,5,2,3:2:0:0:
266,144,16906,1,0,3:0:0:0:
369,301,17056,2,0,P|420:289|472:280,1,105.599996777344,10|0,0:0|0:0,0:0:0:0:
323,72,17356,37,2,3:2:0:0:
323,72,17506,1,0,3:0:0:0:
279,315,17656,2,0,P|269:260|254:159,1,158.399995166016,10|0,0:0|0:0,0:0:0:0:
183,218,17956,6,0,P|133:214|77:211,1,105.599996777344,6|0,3:2|0:0,0:0:0:0:
148,316,18256,1,8,0:0:0:0:
336,173,18406,2,0,P|385:162|440:151,1,105.599996777344,2|0,3:2|0:0,0:0:0:0:
388,271,18706,1,0,3:0:0:0:
236,92,18856,2,0,L|264:248,1,158.399995166016,8|0,0:0|0:0,0:0:0:0:
268,268,19156,38,0,P|308:292|364:280,1,105.599996777344,10|0,0:0|3:0,0:0:0:0:
196,28,19456,2,0,P|145:15|100:40,1,105.599996777344,10|0,0:0|3:0,0:0:0:0:
44,248,19758,5,2,1:2:0:0:
40,268,19833,1,0,1:0:0:0:
36,288,19908,2,0,L|92:276,1,52.7999983886719,0|0,1:0|1:0,0:0:0:0:
224,188,20036,1,2,1:2:0:0:
228,168,20111,1,0,1:0:0:0:
232,148,20186,2,0,L|288:160,1,52.7999983886719,0|0,1:0|1:0,0:0:0:0:
431,125,20340,6,0,B|442:85|408:67|383:94|383:144|406:141|426:153|424:204|401:232,1,196,6|8,0:0|0:0,0:0:0:0:
348,52,20808,2,0,P|425:17|498:72,1,184.799994360352,2|0,3:2|3:0,0:0:0:0:
308,136,21258,2,0,P|267:127|209:116,1,92.3999971801759,10|0,0:0|0:0,0:0:0:0:
67,275,21558,6,0,P|116:264|165:252,1,92.3999971801759,2|0,3:2|3:0,0:0:0:0:
137,357,21858,1,8,0:0:0:0:
236,201,22008,2,0,P|246:249|255:292,1,92.3999971801759,2|0,3:2|0:0,3:2:0:0:
125,183,22283,1,0,3:0:0:0:
259,311,22458,1,10,0:0:0:0:
385,143,22608,21,2,0:0:0:0:
385,143,22683,1,2,0:0:0:0:
385,143,22758,2,0,P|413:217|345:284,1,184.799994360352,6|8,0:0|0:0,0:0:0:0:
165,216,23208,2,0,B|209:174|247:201|253:205|260:209|291:240|336:204,1,184.799994360352,2|0,3:2|3:0,0:0:0:0:
278,110,23658,1,10,0:0:0:0:
336,204,23808,1,0,3:0:0:0:
259,287,23958,37,8,0:0:0:0:
472,159,24108,1,0,3:0:0:0:
302,116,24258,1,10,0:0:0:0:
429,329,24408,1,0,3:0:0:0:
336,204,24563,5,0,1:0:0:0:
298,184,24639,1,0,1:0:0:0:
255,183,24716,1,0,1:0:0:0:
219,206,24793,1,0,1:0:0:0:
200,244,24860,2,0,L|218:295,1,52.7999983886719,0|0,1:0|1:0,0:0:0:0:
377,346,25013,2,0,L|359:296,1,52.7999983886719,0|0,1:0|1:0,0:0:0:0:
298,184,25182,6,0,L|333:323,2,140.8,6|8|2,3:2|0:0|0:0,0:0:0:0:
396,227,25929,1,0,3:0:0:0:
460,115,26078,1,8,0:0:0:0:
229,29,26377,5,0,3:0:0:0:
229,29,26526,1,0,3:0:0:0:
144,138,26676,2,0,P|138:102|131:67,1,70.4,10|0,0:0|0:0,0:0:0:0:
81,202,26975,37,2,3:2:0:0:
81,202,27124,1,0,3:0:0:0:
222,238,27274,2,0,P|230:203|238:166,1,70.4,10|0,0:0|0:0,0:0:0:0:
326,79,27573,6,0,B|363:69|394:89|386:126|416:136|450:131,2,140.8,2|8|2,3:2|0:0|0:0,0:0:0:0:
262,145,28320,1,0,3:0:0:0:
164,35,28469,1,8,0:0:0:0:
150,49,28768,37,2,3:2:0:0:
81,109,28917,1,0,3:0:0:0:
126,189,29067,1,8,0:0:0:0:
291,147,29216,6,0,P|240:102|177:125,1,140.8,2|0,3:2|3:0,0:0:0:0:
92,267,29665,1,10,0:0:0:0:
41,202,29814,1,0,3:0:0:0:
178,124,29964,38,0,P|187:196|197:264,1,140.8,2|8,3:2|0:0,0:0:0:0:
107,375,30412,2,0,P|97:305|88:235,1,140.8,2|0,0:0|3:0,0:0:0:0:
200,284,30860,1,8,0:0:0:0:
411,135,31159,5,0,3:0:0:0:
429,245,31309,1,0,3:0:0:0:
407,115,31458,2,0,L|394:44,1,70.4,10|0,0:0|0:0,0:0:0:0:
320,151,31757,37,2,3:2:0:0:
338,261,31907,1,0,3:0:0:0:
316,131,32056,2,0,L|303:61,1,70.4,10|0,0:0|0:0,0:0:0:0:
194,143,32355,6,0,P|238:185|311:166,1,140.8,2|8,3:2|0:0,0:0:0:0:
409,56,32803,2,0,P|344:36|293:80,1,140.8,2|0,0:0|3:0,0:0:0:0:
316,188,33251,1,10,0:0:0:0:
83,313,33550,37,2,3:2:0:0:
83,313,33700,1,0,3:0:0:0:
156,199,33849,2,0,P|164:243|152:271,1,70.4,8|2,0:0|0:0,0:0:0:0:
38,130,34148,6,0,L|110:138,1,70.4,2|0,3:2|3:0,0:0:0:0:
216,234,34447,2,0,L|324:222,1,105.6,10|0,0:0|0:0,0:0:0:0:
388,232,34746,38,0,P|360:280|281:278,1,140.8,6|10,0:0|0:0,0:0:0:0:
313,152,35194,2,0,L|329:296,1,140.8,2|0,0:0|3:0,0:0:0:0:
320,136,35642,1,8,0:0:0:0:
328,120,35941,5,0,3:0:0:0:
243,49,36091,1,0,3:0:0:0:
114,183,36240,38,0,P|117:159|121:97,1,70.4,10|0,0:0|3:0,0:0:0:0:
227,288,36539,2,0,P|224:264|220:202,1,70.4,2|0,0:0|3:0,0:0:0:0:
48,282,36838,2,0,P|101:295|144:268,1,105.6,10|0,0:0|0:0,0:0:0:0:
88,221,37137,22,0,L|75:101,1,123,14|0,0:0|3:0,0:0:0:0:
276,178,37435,5,10,0:0:0:0:
302,88,37584,1,2,3:2:0:0:
170,171,37733,37,8,0:0:0:0:
228,262,37883,1,0,3:0:0:0:
100,353,38032,5,10,0:0:0:0:
148,261,38182,1,2,3:2:0:0:
312,307,38331,37,8,0:0:0:0:
277,200,38480,1,0,3:0:0:0:
399,134,38629,5,8,0:0:0:0:
362,230,38779,1,0,3:0:0:0:
491,195,38928,37,10,0:0:0:0:
312,118,39078,1,0,1:0:0:0:
312,118,39152,1,0,1:0:0:0:
312,118,39227,2,0,L|300:76,1,44,10|8,0:0|0:0,0:0:0:0:
162,17,39377,2,0,L|150:59,1,44,8|8,0:0|0:0,0:0:0:0:
212,170,39543,6,0,B|211:135|227:108|227:108|221:72|221:72|242:46|237:6,1,167.199995535278,6|8,0:0|0:0,0:0:0:0:
114,128,40022,1,2,0:0:0:0:
114,128,40172,2,0,L|139:209,1,83.5999977676392,2|0,3:2|3:0,0:0:0:0:
301,306,40472,2,0,L|276:226,1,83.5999977676392,8|0,0:0|0:0,0:0:0:0:
307,326,40772,5,0,3:0:0:0:
390,262,40922,1,0,3:0:0:0:
468,372,41072,6,0,L|384:348,1,83.5999977676392,10|0,0:0|0:0,0:0:0:0:
308,228,41372,2,0,L|223:204,1,72.5,2|0,3:2|3:0,0:0:0:0:
147,83,41652,2,0,L|63:59,1,83.5999977676392,10|0,0:0|0:0,0:0:0:0:
251,126,41952,22,0,L|339:110,1,83.5999977676392,2|0,3:2|3:0,0:0:0:0:
289,210,42252,1,10,0:0:0:0:
371,34,42402,2,0,P|411:74|379:182,1,167.199995535278,2|0,0:0|3:0,0:0:0:0:
251,126,42852,1,10,0:0:0:0:
317,286,43002,6,0,P|233:303|176:241,1,167.199995535278,2|0,0:0|3:0,0:0:0:0:
127,351,43452,1,8,0:0:0:0:
58,297,43602,1,0,3:0:0:0:
164,177,43752,6,0,P|172:214|182:264,1,75.8,2|0,0:0|3:0,0:0:0:0:
302,381,44044,2,0,P|311:327|322:256,1,125.399996651459,10|0,0:0|0:0,0:0:0:0:
312,237,44344,22,0,P|358:223|417:307,1,167.199995535278,6|8,3:2|0:0,0:0:0:0:
273,149,44794,2,0,B|234:146|193:171|223:209|172:229|131:218,1,167.199995535278,2|0,0:0|3:0,0:0:0:0:
71,39,45244,2,0,P|82:87|90:123,1,83.5999977676392,8|0,0:0|0:0,0:0:0:0:
198,253,45544,5,0,3:0:0:0:
124,195,45694,1,0,3:0:0:0:
51,336,45844,6,0,P|88:307|119:277,1,83.5999977676392,10|0,0:0|3:0,0:0:0:0:
131,90,46144,2,0,P|137:137|147:178,1,83.5999977676392,2|0,0:0|3:0,0:0:0:0:
304,288,46444,2,0,P|260:269|218:257,1,83.5999977676392,10|0,0:0|3:0,0:0:0:0:
366,88,46744,22,0,L|358:176,1,83.5999977676392,2|0,3:2|0:0,0:0:0:0:
457,71,47044,1,8,0:0:0:0:
481,215,47194,2,0,P|406:164|338:183,1,167.199995535278,2|0,0:0|3:0,0:0:0:0:
249,102,47644,1,10,0:0:0:0:
283,250,47794,6,0,P|208:301|140:282,1,167.199995535278,2|0,0:0|3:0,0:0:0:0:
186,172,48244,1,8,0:0:0:0:
142,89,48394,1,0,0:0:0:0:
293,25,48544,6,0,P|280:70|273:113,1,83.5999977676392,2|0,3:2|3:0,0:0:0:0:
257,261,48844,2,0,P|321:224|371:230,1,125.399996651459,10|0,0:0|0:0,0:0:0:0:
388,244,49162,22,0,L|400:336,1,83.5999977676392,6|0,3:2|0:0,0:0:0:0:
476,266,49462,1,10,0:0:0:0:
330,364,49612,2,0,P|238:374|186:326,1,167.199995535278,2|0,0:0|3:0,0:0:0:0:
264,239,50062,2,0,P|259:200|252:154,1,83.5999977676392,8|0,0:0|0:0,0:0:0:0:
126,208,50352,5,0,3:0:0:0:
180,293,50502,1,0,3:0:0:0:
46,377,50652,6,0,P|38:336|51:298,1,83.5999977676392,10|0,0:0|3:0,0:0:0:0:
200,157,50952,2,0,P|208:197|194:236,1,83.5999977676392,2|0,0:0|3:0,0:0:0:0:
3,199,51252,2,0,P|64:172|118:190,1,125.399996651459,10|0,0:0|0:0,0:0:0:0:
173,249,51544,6,0,L|167:361,1,110,14|0,0:0|3:0,0:0:0:0:
353,258,51841,5,8,0:0:0:0:
315,163,51989,1,2,3:2:0:0:
461,91,52138,37,10,0:0:0:0:
423,195,52286,1,2,3:2:0:0:
308,130,52435,5,10,0:0:0:0:
257,219,52583,1,2,3:2:0:0:
326,321,52732,37,8,0:0:0:0:
238,235,52880,1,0,3:0:0:0:
169,360,53029,5,8,0:0:0:0:
219,251,53177,1,0,3:0:0:0:
148,381,53330,38,0,P|134:343|113:290,1,96.8000029541017,10|0,0:0|1:0,0:0:0:0:
146,212,53564,1,0,1:0:0:0:
146,212,53643,2,0,L|130:170,1,44,8|8,1:3|1:3,0:0:0:0:
12,128,53793,2,0,L|27:169,1,44,8|8,1:3|1:3,0:0:0:0:
136,38,53960,38,0,B|201:-1|258:31|258:31|219:27|196:69,1,184.799994360352,4|0,0:0|0:0,0:0:0:0:
166,120,54260,1,2,1:2:0:0:
409,199,54410,2,0,B|413:162|440:143|440:143|374:105|343:139|331:157,1,184.799994360352,4|0,3:2|0:0,0:0:0:0:
283,218,54696,1,10,1:2:0:0:
346,382,54846,38,0,P|374:349|362:297,1,99.0000037765504,0|0,3:0|0:0,0:0:0:0:
282,326,55146,6,0,B|265:337|255:356|255:356|189:352|177:286|208:251,1,184.799994360352,6|2,0:0|0:0,0:0:0:0:
279,304,55446,1,2,1:2:0:0:
459,91,55596,2,0,B|421:56|370:64|370:64|353:111|298:117,1,184.799994360352,4|0,3:2|0:0,0:0:0:0:
231,69,55896,22,0,P|228:99|228:133,1,55,8|0,1:3|0:0,0:0:0:0:
64,143,56046,2,0,P|67:173|67:207,1,55,8|0,1:3|0:0,0:0:0:0:
269,255,56196,2,0,P|266:285|266:319,1,55,4|0,1:3|0:0,0:0:0:0:
162,373,56346,38,0,P|140:342|150:277,1,105.6,6|0,0:0|0:0,0:0:0:0:
165,263,56646,1,10,0:0:0:0:
285,323,56796,2,0,L|354:315,1,70.4,2|0,3:2|0:0,0:0:0:0:
264,177,57096,1,2,3:2:0:0:
165,263,57246,1,10,0:0:0:0:
97,129,57396,1,2,0:0:0:0:
170,187,57546,5,2,3:2:0:0:
101,350,57696,2,0,L|170:338,1,70.4,2|8,3:2|0:0,0:0:0:0:
383,268,57996,2,0,B|358:244|358:244|293:235|276:294,1,140.8,2|0,3:2|3:0,0:0:0:0:
427,328,58446,2,0,P|455:288|443:224,1,105.6,10|0,0:0|0:0,0:0:0:0:
394,171,58746,22,0,B|331:148|316:189|309:191|300:193|262:217|222:172,1,184.799994360352,6|0,0:0|0:0,0:0:0:0:
180,111,59046,1,0,1:2:0:0:
91,303,59196,2,0,B|122:268|152:238|152:238|122:227|103:247|92:295,1,184.799994360352,4|0,3:2|0:0,0:0:0:0:
54,372,59496,1,8,1:2:0:0:
30,211,59646,38,0,P|24:163|20:98,1,99.0000037765504,2|0,3:2|0:0,0:0:0:0:
2,35,59946,6,0,B|11:84|74:93|74:93|104:47|144:51,1,184.799994360352,6|2,0:0|1:2,0:0:0:0:
205,101,60246,1,2,1:2:0:0:
404,37,60396,2,0,B|366:11|321:38|321:38|376:29|412:64,1,184.799994360352,4|0,3:2|0:0,0:0:0:0:
447,137,60676,22,0,L|437:203,1,55,8|0,1:3|0:0,1:0:0:0:
301,49,60826,2,0,L|291:115,1,55,8|0,1:3|0:0,1:0:0:0:
150,188,60976,2,0,L|140:254,1,55,4|0,1:3|0:0,1:0:0:0:
286,352,61135,38,0,B|285:319|306:299|306:299|257:221|206:285,1,184.799994360352,6|10,0:0|0:0,0:0:0:0:
134,326,61435,2,0,P|67:277|81:184,1,184.799994360352,4|0,0:0|0:0,0:0:0:0:
136,127,61735,5,8,1:3:0:0:
232,288,61885,1,8,1:3:0:0:
393,192,62035,1,4,1:3:0:0:
295,31,62185,1,4,1:3:0:0:
191,188,62351,38,0,B|185:175|179:147|178:127|179:110|185:91|189:78|199:59|215:50|236:44|251:38|287:38|307:13|324:-6|324:-6|290:29|295:65|296:91|282:116|261:117|247:123|236:130|226:139|218:151|208:166,1,480,4|0,0:0|0:0,0:0:0:0:
164,260,63542,6,0,B|147:187|130:118,1,145.200004431152,6|0,0:0|0:0,0:0:0:0:
43,81,63858,2,0,P|54:131|69:194,1,96.8000029541017,8|0,0:0|0:0,0:0:0:0:
101,340,64158,1,0,3:0:0:0:
164,260,64308,1,0,3:0:0:0:
362,379,64459,2,0,B|383:334|383:334|382:276|340:252,1,145.200004431152,10|0,0:0|0:0,0:0:0:0:
258,231,64759,6,0,L|281:324,1,96.8000029541017,2|0,3:2|3:0,0:0:0:0:
398,161,65059,2,0,L|467:93,1,96.8000029541017,10|0,0:0|3:0,0:0:0:0:
267,74,65359,2,0,L|173:47,1,96.8000029541017,2|0,0:0|3:0,0:0:0:0:
353,236,65660,2,0,P|386:227|337:219,1,145.200004431152,10|0,0:0|0:0,0:0:0:0:
261,181,65960,6,0,B|214:124|264:67|264:67|249:108|271:137,1,198.000007553101,2|0,3:2|0:0,0:0:0:0:
345,93,66260,6,0,P|349:44|326:5,1,96.8000029541017,10|0,0:0|0:0,0:0:0:0:
100,86,66561,1,2,3:2:0:0:
165,167,66711,1,0,3:0:0:0:
31,311,66861,2,0,L|124:284,1,96.8000029541017,10|0,0:0|0:0,0:0:0:0:
322,350,67162,6,0,P|392:364|435:313,1,145.200004431152,2|0,3:2|0:0,0:0:0:0:
379,247,67462,2,0,L|382:149,1,96.8000029541017,8|0,0:0|0:0,0:0:0:0:
304,70,67762,1,0,3:0:0:0:
304,70,67912,1,0,3:0:0:0:
198,246,68063,2,0,P|183:191|205:159,1,96.8000029541017,8|0,0:0|3:0,0:0:0:0:
300,91,68363,6,0,L|286:235,1,145.200004431152,4|0,0:0|0:0,0:0:0:0:
213,286,68663,2,0,L|118:271,1,96.8000029541017,10|0,0:0|0:0,0:0:0:0:
99,72,68964,1,2,3:2:0:0:
203,160,69114,1,0,3:0:0:0:
438,52,69265,2,0,P|394:29|319:74,1,145.200004431152,10|0,0:0|0:0,0:0:0:0:
351,154,69565,6,0,P|356:209|333:244,1,96.8000029541017,2|0,3:2|3:0,0:0:0:0:
157,107,69865,1,10,0:0:0:0:
234,203,70015,1,0,3:0:0:0:
50,338,70165,2,0,L|71:243,1,96.8000029541017,2|0,0:0|3:0,0:0:0:0:
251,366,70466,2,0,B|249:341|240:318|240:318|245:276|245:276|236:251|235:224,1,145.200004431152,10|0,0:0|0:0,0:0:0:0:
321,255,70766,6,0,L|418:241,1,96.8000029541017,14|0,0:0|3:0,0:0:0:0:
186,155,71066,2,0,L|90:168,1,96.8000029541017,10|0,0:0|3:0,0:0:0:0:
296,57,71367,5,10,0:0:0:0:
200,142,71517,1,0,3:0:0:0:
316,234,71667,1,10,0:0:0:0:
225,328,71817,1,0,3:0:0:0:
68,112,71968,37,10,0:0:0:0:
150,289,72118,1,0,3:0:0:0:
209,46,72268,1,8,0:0:0:0:
292,233,72419,1,0,3:0:0:0:
154,115,72569,5,2,1:2:0:0:
154,115,72644,1,0,1:0:0:0:
154,115,72719,2,0,L|166:163,1,48.4000014770508,0|0,1:0|1:0,0:0:0:0:
349,197,72869,2,0,L|304:212,1,48.4000014770508,10|8,0:0|0:0,0:0:0:0:
216,379,73019,2,0,L|204:332,1,48.4000014770508,8|8,0:0|0:0,0:0:0:0:
40,240,73162,6,0,B|90:228|90:228|137:250|137:250|190:236,1,158.399995166016,14|0,0:0|0:0,0:0:0:0:
243,168,73462,2,0,B|255:117|255:117|218:77,1,105.599996777344,8|0,0:0|3:0,0:0:0:0:
85,310,73762,1,8,0:0:0:0:
166,162,73912,1,0,3:0:0:0:
284,345,74063,6,0,P|350:324|443:299,1,158.399995166016,10|0,0:0|0:0,0:0:0:0:
484,356,74363,2,0,P|512:306|498:260,1,105.599996777344,8|0,0:0|3:0,0:0:0:0:
307,113,74663,5,10,0:0:0:0:
348,277,74814,1,0,3:0:0:0:
237,83,74964,5,10,0:0:0:0:
208,306,75114,1,0,3:0:0:0:
211,12,75264,5,10,0:0:0:0:
80,217,75414,1,0,3:0:0:0:
348,334,75565,6,0,L|376:230,1,105.599996777344,10|0,0:0|3:0,0:0:0:0:
244,50,75865,2,0,L|216:154,1,105.599996777344,10|0,0:0|3:0,0:0:0:0:
39,377,76165,2,0,L|11:273,1,105.599996777344,10|0,0:0|3:0,0:0:0:0:
156,111,76466,2,0,L|183:212,1,105.599996777344,10|0,0:0|3:0,0:0:0:0:
374,368,76766,6,0,B|415:343|415:343|428:307|421:264|386:247,1,158.399995166016,10|0,0:0|0:0,0:0:0:0:
310,290,77066,2,0,L|282:187,1,105.599996777344,10|0,0:0|3:0,0:0:0:0:
236,23,77367,1,8,0:0:0:0:
184,119,77517,1,0,3:0:0:0:
386,247,77667,2,0,L|428:151,1,105.599996777344,8|0,0:0|3:0,0:0:0:0:
322,383,77968,5,12,0:0:0:0:
312,363,78268,6,0,P|228:314|166:336,1,158.399995166016,10|0,0:0|0:0,0:0:0:0:
98,373,78568,2,0,P|66:334|67:280,1,105.599996777344,10|0,0:0|3:0,0:0:0:0:
204,100,78869,2,0,L|184:204,1,105.599996777344,10|0,0:0|3:0,0:0:0:0:
109,73,79169,5,10,0:0:0:0:
180,224,79319,1,0,3:0:0:0:
407,186,79469,2,0,L|303:166,1,105.599996777344,10|0,0:0|3:0,0:0:0:0:
468,256,79770,5,10,0:0:0:0:
372,80,79920,1,0,3:0:0:0:
217,305,80070,2,0,L|321:277,1,105.599996777344,8|2,0:0|3:2,0:0:0:0:
229,115,80371,6,0,B|186:103|157:125|163:153|113:162|75:135,1,158.399995166016,12|0,0:0|0:0,0:0:0:0:
9,95,80671,2,0,P|0:44|33:4,1,105.599996777344,8|0,0:0|3:0,0:0:0:0:
252,40,80971,1,8,0:0:0:0:
145,183,81121,1,0,3:0:0:0:
315,303,81272,2,0,P|307:255|299:199,1,105.599996777344,8|0,0:0|3:0,0:0:0:0:
500,320,81572,6,0,P|467:380|408:380,1,132,10|0,0:0|1:0,0:0:0:0:
389,370,81866,5,12,3:0:0:0:
445,223,82015,1,12,3:0:0:0:
288,141,82163,5,8,3:0:0:0:
331,254,82312,1,8,3:0:0:0:
422,76,82460,5,4,3:0:0:0:
371,157,82609,1,4,3:0:0:0:
509,86,82766,6,0,B|476:40|422:38|422:38|392:56,1,138.599995770264,6|0,0:0|0:0,0:0:0:0:
329,112,83066,2,0,P|232:87|139:67,1,184.799994360352,12|0,0:0|0:0,0:0:0:0:
198,176,83516,1,0,3:0:0:0:
52,116,83666,2,0,L|87:205,1,92.3999971801759,10|0,0:0|0:0,0:0:0:0:
212,384,83966,6,0,L|247:299,1,92.3999971801759,2|0,3:2|3:0,0:0:0:0:
328,377,84266,1,8,0:0:0:0:
184,234,84416,2,0,L|149:319,1,92.3999971801759,2|0,3:2|0:0,0:0:0:0:
256,182,84716,1,0,3:0:0:0:
395,261,84866,2,0,L|482:231,1,92.3999971801759,10|0,0:0|0:0,0:0:0:0:
374,89,85166,21,2,3:2:0:0:
340,192,85316,1,0,3:0:0:0:
294,32,85466,2,0,L|206:59,1,92.3999971801759,8|2,0:0|3:2,0:0:0:0:
11,206,85766,38,0,P|35:228|66:233,1,66.0000025177003,0|0,1:0|1:0,0:0:0:0:
101,223,85916,2,0,P|122:201|129:166,1,66.0000025177003,0|0,1:0|1:0,0:0:0:0:
119,131,86050,2,0,P|90:106|61:102,1,66.0000025177003,2|0,1:2|1:0,0:0:0:0:
27,113,86212,2,0,P|6:136|0:172,1,66.0000025177003,0|0,1:0|1:0,0:0:0:0:
78,361,86370,6,0,B|104:382|115:378|115:378|115:370|107:362|107:362|167:218|314:201|407:62|440:30|440:30|432:21|417:6|407:0|407:0|376:30|237:124|220:271|76:331|76:331|68:323|60:323|60:323|56:334|78:361,1,1112.32002715625,6|0,0:0|0:0,0:0:0:0:
