osu file format v14

[General]
AudioFilename: audio.mp3
AudioLeadIn: 0
PreviewTime: -1
Countdown: 1
SampleSet: Normal
StackLeniency: 0.7
Mode: 0
LetterboxInBreaks: 0
WidescreenStoryboard: 0

[Editor]
DistanceSpacing: 0.9
BeatDivisor: 4
GridSize: 16
TimelineZoom: 1.6

[Metadata]
Title:MUSORA SOSAT'
TitleUnicode:MUSORA SOSAT'
Artist:GLAD VALAKAS
ArtistUnicode:GLAD VALAKAS
Creator:F1N4LY
Version:Old Rabbit Jump
Source:
Tags:
BeatmapID:1712605
BeatmapSetID:816661

[Difficulty]
HPDrainRate:5
CircleSize:4
OverallDifficulty:9
ApproachRate:9.6
SliderMultiplier:1.4
SliderTickRate:1

[Events]
//Background and Video events
0,0,"bqBIQPYSu5I.png",0,0
//Break Periods
//Storyboard Layer 0 (Background)
//Storyboard Layer 1 (Fail)
//Storyboard Layer 2 (Pass)
//Storyboard Layer 3 (Foreground)
//Storyboard Sound Samples

[TimingPoints]
3616.71737836099,483.870967741935,4,1,0,100,1,0
32407,-66.6666666666667,4,1,0,100,0,0
32407,-66.6666666666667,4,1,0,100,0,0
33374,-100,4,1,0,100,0,0
41841,-66.6666666666667,4,1,0,100,0,0
42688,-100,4,1,0,100,0,0
47527,-50,4,1,0,100,0,0
53454,-25,4,1,0,100,0,0
53817,-100,4,1,0,100,0,0
58051,-133.333333333333,4,1,0,100,0,0
59744,-100,4,1,0,100,0,0

[HitObjects]
256,192,350,12,0,3010,0:0:0:0:
80,182,3132,6,0,L|152:125,1,70
111,249,3616,6,0,L|192:190,1,70
147,320,4100,2,0,L|221:265,1,70
251,343,4584,2,0,L|316:269,1,70
326,229,5068,1,0,0:0:0:0:
335,215,5189,1,0,0:0:0:0:
426,204,5552,2,0,L|486:145,1,70
350,131,6036,2,0,L|348:39,1,70
257,132,6519,2,0,L|255:49,1,70
150,229,7003,2,0,L|149:327,1,70
194,218,7366,1,0,0:0:0:0:
210,233,7487,1,0,0:0:0:0:
233,253,7608,1,0,0:0:0:0:
108,117,7850,1,0,0:0:0:0:
138,99,7971,1,0,0:0:0:0:
163,83,8092,1,0,0:0:0:0:
192,77,8213,1,0,0:0:0:0:
220,69,8334,1,0,0:0:0:0:
255,69,8455,1,0,0:0:0:0:
284,77,8576,1,0,0:0:0:0:
316,94,8697,1,0,0:0:0:0:
343,111,8818,1,0,0:0:0:0:
363,140,8939,1,0,0:0:0:0:
116,221,9181,1,0,0:0:0:0:
355,259,9423,1,0,0:0:0:0:
88,156,9665,6,0,L|133:51,1,105
159,182,10269,2,0,L|199:93,1,70
251,243,10753,2,0,L|286:173,1,70
105,307,11358,1,0,0:0:0:0:
291,17,11600,1,0,0:0:0:0:
465,315,11842,1,0,0:0:0:0:
238,144,12084,1,0,0:0:0:0:
41,278,12326,1,0,0:0:0:0:
88,48,12568,1,0,0:0:0:0:
337,55,12810,1,0,0:0:0:0:
209,275,13052,1,0,0:0:0:0:
77,179,13414,6,0,P|140:75|227:63,1,210
288,113,14382,2,0,L|288:208,2,70
286,36,15108,1,0,0:0:0:0:
361,67,15471,1,0,0:0:0:0:
285,202,15713,2,0,L|285:97,2,105
164,273,16681,1,0,0:0:0:0:
266,60,17527,1,0,0:0:0:0:
69,256,17769,1,0,0:0:0:0:
345,289,18011,2,0,L|432:240,2,70
136,295,18737,1,0,0:0:0:0:
199,37,18979,1,0,0:0:0:0:
484,137,19221,1,0,0:0:0:0:
90,294,19463,1,0,0:0:0:0:
125,81,19705,1,0,0:0:0:0:
407,292,19947,1,0,0:0:0:0:
329,174,20189,2,0,L|329:103,2,70
97,255,21035,2,0,B|136:107|198:80|230:66|230:66|230:66,1,210
118,303,22124,1,0,0:0:0:0:
128,122,22487,1,0,0:0:0:0:
335,28,22850,1,0,0:0:0:0:
367,299,23213,1,0,0:0:0:0:
256,192,23455,12,0,24543,0:0:0:0:
142,282,25148,5,0,0:0:0:0:
258,67,25269,1,0,0:0:0:0:
272,292,25390,1,0,0:0:0:0:
139,138,25511,1,0,0:0:0:0:
343,144,25632,1,0,0:0:0:0:
173,290,25874,1,0,0:0:0:0:
195,63,25995,1,0,0:0:0:0:
316,295,26116,1,0,0:0:0:0:
276,98,26237,1,0,0:0:0:0:
167,304,26358,1,0,0:0:0:0:
104,225,26479,2,0,L|198:226,1,70
120,107,26963,1,0,0:0:0:0:
201,294,27084,1,0,0:0:0:0:
336,66,27205,1,0,0:0:0:0:
356,279,27326,1,0,0:0:0:0:
105,298,27567,5,0,0:0:0:0:
223,67,27688,1,0,0:0:0:0:
240,325,27809,1,0,0:0:0:0:
318,171,27930,1,0,0:0:0:0:
342,291,28172,2,0,P|299:206|299:206,1,70
47,78,28777,1,0,0:0:0:0:
403,290,29019,1,0,0:0:0:0:
261,333,29261,5,0,0:0:0:0:
357,240,29503,1,0,0:0:0:0:
202,264,29745,1,0,0:0:0:0:
299,92,29866,1,0,0:0:0:0:
126,139,30108,1,0,0:0:0:0:
105,300,30471,5,0,0:0:0:0:
290,264,30713,2,0,B|358:209|372:170|372:170|372:170,2,105
126,269,31801,1,0,0:0:0:0:
66,132,31922,1,0,0:0:0:0:
103,112,32043,1,0,0:0:0:0:
129,96,32164,1,0,0:0:0:0:
268,199,32406,2,0,B|307:84|305:89,2,105
176,259,33374,5,0,0:0:0:0:
77,77,33616,1,0,0:0:0:0:
394,54,33858,1,0,0:0:0:0:
351,289,34100,1,0,0:0:0:0:
123,304,34342,1,0,0:0:0:0:
125,51,34584,1,0,0:0:0:0:
253,296,34825,1,0,0:0:0:0:
132,252,35068,6,0,L|116:202,1,35
196,234,35310,2,0,L|173:172,1,35
266,212,35552,2,0,L|244:161,1,35
335,181,35794,2,0,L|311:136,1,35
288,111,36036,5,0,0:0:0:0:
252,94,36157,1,0,0:0:0:0:
213,84,36278,1,0,0:0:0:0:
173,86,36398,1,0,0:0:0:0:
48,115,36519,1,0,0:0:0:0:
413,65,36761,1,0,0:0:0:0:
217,326,37003,1,0,0:0:0:0:
134,240,37245,2,0,L|136:130,1,105
222,248,37850,6,0,L|223:113,1,105
312,263,38454,2,0,L|313:147,1,105
398,264,38938,2,0,L|398:177,1,70
418,94,39422,5,0,0:0:0:0:
247,139,39664,1,0,0:0:0:0:
206,167,39785,1,0,0:0:0:0:
165,191,39906,1,0,0:0:0:0:
129,216,40027,1,0,0:0:0:0:
118,304,40269,2,0,L|126:241,2,35
225,215,40753,2,0,P|202:196|232:188,2,70
322,87,41116,5,0,0:0:0:0:
82,167,41358,1,0,0:0:0:0:
202,323,41600,1,0,0:0:0:0:
330,182,41841,2,0,B|380:106|367:48|368:48,2,140
254,233,42689,1,0,0:0:0:0:
156,269,43051,1,0,0:0:0:0:
134,54,43293,1,0,0:0:0:0:
366,59,43777,1,0,0:0:0:0:
135,270,44019,2,0,L|136:163,1,105
249,269,44624,2,0,L|249:192,1,70
81,64,45108,5,0,0:0:0:0:
377,301,45350,1,0,0:0:0:0:
128,271,45591,1,0,0:0:0:0:
390,70,45834,1,0,0:0:0:0:
332,228,45954,2,0,L|345:144,2,70
125,256,46680,2,0,P|100:185|100:185,2,70
120,293,47527,2,0,L|218:240,3,70
112,317,48374,5,0,0:0:0:0:
163,29,48495,1,0,0:0:0:0:
326,322,48616,1,0,0:0:0:0:
340,44,48737,1,0,0:0:0:0:
235,186,48858,1,0,0:0:0:0:
369,65,49099,5,0,0:0:0:0:
143,302,49220,1,0,0:0:0:0:
176,52,49341,1,0,0:0:0:0:
255,319,49462,1,0,0:0:0:0:
293,92,49583,1,0,0:0:0:0:
385,206,49705,2,0,L|323:309,1,70
106,83,50309,5,0,0:0:0:0:
345,295,50430,1,0,0:0:0:0:
236,72,50551,1,0,0:0:0:0:
165,326,50672,1,0,0:0:0:0:
141,88,50793,1,0,0:0:0:0:
403,129,51035,5,0,0:0:0:0:
74,100,51156,1,0,0:0:0:0:
334,292,51277,1,0,0:0:0:0:
328,102,51398,1,0,0:0:0:0:
158,130,51640,2,0,L|255:224,1,105
126,307,52245,5,0,0:0:0:0:
243,49,52366,1,0,0:0:0:0:
405,280,52487,1,0,0:0:0:0:
107,58,52728,5,0,0:0:0:0:
220,309,52849,1,0,0:0:0:0:
371,61,52970,1,0,0:0:0:0:
211,140,53091,1,0,0:0:0:0:
59,87,53454,2,0,L|370:261,1,280
112,294,53938,5,0,0:0:0:0:
223,59,54059,1,0,0:0:0:0:
344,302,54180,1,0,0:0:0:0:
102,89,54301,1,0,0:0:0:0:
347,262,54422,1,0,0:0:0:0:
99,205,54543,1,0,0:0:0:0:
278,80,54785,1,0,0:0:0:0:
370,180,55027,2,0,L|373:78,2,70
260,237,55753,5,0,0:0:0:0:
142,260,55874,2,0,P|143:222|135:257,1,105
94,76,56115,5,0,0:0:0:0:
102,275,56599,1,0,0:0:0:0:
351,196,56841,2,0,L|372:149,1,35
404,245,57083,2,0,L|428:195,1,35
109,181,57325,2,0,L|134:128,1,35
225,262,57567,2,0,L|248:204,1,35
332,285,57809,2,0,L|350:244,1,35
137,222,58051,2,0,P|171:121|162:119,2,157.500006008148
117,312,59986,5,0,0:0:0:0:
249,62,60107,1,0,0:0:0:0:
317,257,60228,1,0,0:0:0:0:
115,97,60349,1,0,0:0:0:0:
253,195,60470,2,0,L|305:92,2,105
299,342,61438,5,0,0:0:0:0:
189,33,61559,1,0,0:0:0:0:
347,292,61680,1,0,0:0:0:0:
107,45,61801,1,0,0:0:0:0:
181,300,61922,1,0,0:0:0:0:
243,71,62043,1,0,0:0:0:0:
177,249,62164,1,0,0:0:0:0:
373,94,62406,5,0,0:0:0:0:
125,299,62527,1,0,0:0:0:0:
171,61,62648,1,0,0:0:0:0:
293,322,62769,1,0,0:0:0:0:
280,77,62890,1,0,0:0:0:0:
243,184,63011,1,0,0:0:0:0:
298,229,63132,2,0,L|361:133,1,105
126,282,63736,1,0,0:0:0:0:
217,30,63978,1,0,0:0:0:0:
413,303,64220,1,0,0:0:0:0:
75,125,64462,1,0,0:0:0:0:
414,93,64704,1,0,0:0:0:0:
202,317,64946,1,0,0:0:0:0:
268,36,65188,1,0,0:0:0:0:
423,303,65430,1,0,0:0:0:0:
69,103,65672,1,0,0:0:0:0:
417,73,65914,1,0,0:0:0:0:
163,301,66156,1,0,0:0:0:0:
369,291,66398,5,0,0:0:0:0:
127,83,66640,1,0,0:0:0:0:
111,281,66881,1,0,0:0:0:0:
346,83,67123,1,0,0:0:0:0:
326,292,67365,1,0,0:0:0:0:
118,304,67728,5,0,0:0:0:0:
244,53,67849,1,0,0:0:0:0:
362,319,67970,1,0,0:0:0:0:
157,159,68091,1,0,0:0:0:0:
353,232,68333,6,0,L|390:165,1,70
138,189,68817,2,0,L|180:120,1,70
331,283,69422,1,0,0:0:0:0:
121,134,69785,2,0,L|262:134,2,140
228,190,71236,1,0,0:0:0:0:
370,222,71720,2,0,L|394:76,2,140
107,209,73172,1,0,0:0:0:0:
338,211,73656,2,0,L|374:57,2,140
0,78,75833,6,0,B|0:154|-38:232|-109:362|313:286|149:237|56:230|58:162|150:-68|96:-87|238:97|36:212|-54:306|184:419|224:243|306:280|190:128|231:139|225:66,1,805
372,93,78615,2,0,P|372:263|402:100,1,490
