osu file format v14

[General]
AudioFilename: audio.mp3
AudioLeadIn: 0
PreviewTime: 116885
Countdown: 1
SampleSet: Soft
StackLeniency: 0.7
Mode: 3
LetterboxInBreaks: 0
SpecialStyle: 0
WidescreenStoryboard: 0

[Editor]
DistanceSpacing: 2.9
BeatDivisor: 12
GridSize: 8
TimelineZoom: 1.6

[Metadata]
Title:Reality Hits You Hard Bro (Breakcore Remix)
TitleUnicode:Reality Hits You Hard Bro (Breakcore Remix)
Artist:GIZMODE
ArtistUnicode:GIZMODE
Creator:Smiffi
Version:BAM!
Source:
Tags:
BeatmapID:1551877
BeatmapSetID:735117

[Difficulty]
HPDrainRate:8.2
CircleSize:4
OverallDifficulty:8.2
ApproachRate:5
SliderMultiplier:1.4
SliderTickRate:1

[Events]
//Background and Video events
0,0,"UEescOK.jpg",0,0
//Break Periods
2,111307,116807
//Storyboard Layer 0 (Background)
//Storyboard Layer 1 (Fail)
//Storyboard Layer 2 (Pass)
//Storyboard Layer 3 (Foreground)
//Storyboard Sound Samples

[TimingPoints]
10307,300,4,2,0,75,1,0
233512,307.692307692308,4,2,0,75,1,0
235354,324.324324324324,4,2,0,75,1,0
237638,352.941176470588,4,2,0,75,1,0

[HitObjects]
320,192,10307,5,0,0:0:0:44:
448,192,10307,1,0,0:0:0:44:
64,192,10307,1,0,0:0:0:44:
192,192,10457,1,0,0:0:0:0:
320,192,10607,1,0,0:0:0:44:
448,192,10607,1,0,0:0:0:44:
192,192,10607,1,0,0:0:0:44:
320,192,10832,1,0,0:0:0:133:
192,192,10907,1,0,0:0:0:133:
448,192,10982,1,0,0:0:0:133:
192,192,11057,1,8,0:0:0:66:
64,192,11057,1,8,0:0:0:66:
320,192,11207,1,0,0:0:0:133:
448,192,11282,1,0,0:0:0:133:
192,192,11357,1,0,0:0:0:133:
320,192,11432,1,0,0:0:0:133:
192,192,11507,1,8,0:0:0:66:
64,192,11507,1,8,0:0:0:66:
448,192,11657,1,0,0:0:0:133:
64,192,11807,1,8,0:0:0:66:
192,192,11807,1,8,0:0:0:66:
448,192,11957,1,8,0:0:0:44:
320,192,11957,1,8,0:0:0:44:
320,192,12107,1,0,0:0:0:133:
192,192,12107,1,0,0:0:0:0:
64,192,12107,1,0,0:0:0:0:
448,192,12257,1,0,0:0:0:0:
320,192,12407,1,8,0:0:0:66:
192,192,12407,1,8,0:0:0:66:
192,192,12557,1,0,0:0:0:0:
64,192,12632,1,0,0:0:0:0:
320,192,12707,1,0,0:0:0:0:
448,192,12707,128,0,12857:0:0:0:0:
192,192,12857,1,0,0:0:0:0:
320,192,13007,1,0,0:0:0:66:
448,192,13007,1,0,0:0:0:66:
64,192,13007,1,0,0:0:0:0:
192,192,13082,1,0,0:0:0:133:
320,192,13157,1,0,0:0:0:133:
448,192,13307,1,0,0:0:0:66:
192,192,13307,1,0,0:0:0:66:
448,192,13607,1,8,0:0:0:66:
320,192,13607,1,8,0:0:0:66:
192,192,13757,1,0,0:0:0:133:
320,192,13794,1,0,0:0:0:133:
448,192,13832,1,0,0:0:0:133:
64,192,13907,1,0,0:0:0:66:
192,192,13907,1,0,0:0:0:66:
320,192,13982,1,0,0:0:0:0:
448,192,13982,1,0,0:0:0:0:
192,192,14057,1,0,0:0:0:0:
64,192,14057,1,0,0:0:0:0:
320,192,14132,1,0,0:0:0:0:
448,192,14132,1,0,0:0:0:0:
192,192,14207,1,8,0:0:0:66:
64,192,14207,1,8,0:0:0:66:
320,192,14432,1,0,0:0:0:66:
64,192,14432,1,0,0:0:0:66:
320,192,14507,1,0,0:0:0:133:
192,192,14582,1,0,0:0:0:133:
320,192,14657,1,8,0:0:0:66:
448,192,14657,1,8,0:0:0:66:
192,192,14807,1,0,0:0:0:133:
64,192,14882,1,0,0:0:0:133:
320,192,14957,1,0,0:0:0:133:
64,192,15032,1,0,0:0:0:66:
448,192,15032,1,0,0:0:0:66:
192,192,15107,1,8,0:0:0:66:
320,192,15107,1,8,0:0:0:66:
448,192,15257,1,0,0:0:0:133:
192,192,15407,1,4,0:0:0:66:
64,192,15407,1,4,0:0:0:66:
320,192,15557,1,0,0:0:0:133:
448,192,15594,1,0,0:0:0:0:
64,192,15632,1,0,0:0:0:133:
192,192,15657,1,0,0:0:0:133:
320,192,15682,1,0,0:0:0:133:
448,192,15707,1,0,0:0:0:0:
64,192,15732,1,0,0:0:0:0:
192,192,15782,1,0,0:0:0:0:
320,192,15832,1,0,0:0:0:0:
448,192,15882,1,0,0:0:0:0:
64,192,15932,1,0,0:0:0:0:
192,192,15982,1,0,0:0:0:133:
320,192,16007,1,8,0:0:0:66:
448,192,16007,1,8,0:0:0:66:
448,192,16157,1,0,0:0:0:133:
192,192,16307,1,0,0:0:0:133:
64,192,16382,1,0,0:0:0:133:
320,192,16457,1,8,0:0:0:66:
448,192,16457,1,8,0:0:0:66:
192,192,16607,1,0,0:0:0:66:
64,192,16607,1,0,0:0:0:66:
448,192,16682,1,0,0:0:0:133:
64,192,16757,1,0,0:0:0:66:
320,192,16757,1,0,0:0:0:66:
320,192,16907,1,0,0:0:0:44:
192,192,16907,128,0,17207:0:0:0:44:
448,192,16907,1,0,0:0:0:44:
320,192,17207,1,8,0:0:0:66:
448,192,17207,1,8,0:0:0:66:
320,192,17357,1,8,0:0:0:66:
448,192,17357,1,8,0:0:0:66:
192,192,17432,1,8,0:0:0:133:
320,192,17507,1,0,0:0:0:44:
448,192,17507,128,0,17807:0:0:0:44:
64,192,17507,1,0,0:0:0:44:
192,192,17807,1,4,0:0:0:66:
320,192,17807,1,4,0:0:0:66:
320,192,17957,1,0,0:0:0:133:
192,192,18107,1,0,0:0:0:0:
320,192,18182,1,0,0:0:0:133:
448,192,18182,1,0,0:0:0:0:
192,192,18257,1,8,0:0:0:66:
64,192,18257,1,8,0:0:0:66:
448,192,18407,1,0,0:0:0:0:
64,192,18482,1,0,0:0:0:66:
320,192,18482,1,0,0:0:0:66:
192,192,18557,1,0,0:0:0:0:
320,192,18632,1,0,0:0:0:0:
448,192,18632,1,0,0:0:0:0:
64,192,18707,1,8,0:0:0:133:
192,192,18707,1,8,0:0:0:0:
320,192,18857,1,0,0:0:0:133:
192,192,19007,1,8,0:0:0:66:
320,192,19007,1,8,0:0:0:66:
192,192,19157,1,8,0:0:0:66:
64,192,19157,1,8,0:0:0:66:
320,192,19307,1,0,0:0:0:133:
192,192,19382,1,0,0:0:0:133:
320,192,19457,1,8,0:0:0:66:
448,192,19457,1,8,0:0:0:66:
192,192,19607,1,8,0:0:0:66:
320,192,19607,1,8,0:0:0:66:
192,192,19757,1,0,0:0:0:133:
320,192,19832,1,0,0:0:0:133:
192,192,19907,1,4,0:0:0:66:
64,192,19907,1,4,0:0:0:66:
320,192,20057,1,0,0:0:0:66:
448,192,20057,1,0,0:0:0:66:
192,192,20207,1,0,0:0:0:66:
320,192,20207,1,0,0:0:0:66:
448,192,20282,1,0,0:0:0:133:
192,192,20357,1,0,0:0:0:133:
320,192,20507,1,0,0:0:0:66:
448,192,20507,1,0,0:0:0:66:
64,192,21107,1,0,0:0:0:66:
320,192,21107,1,0,0:0:0:66:
192,192,21257,1,0,0:0:0:133:
320,192,21407,1,8,0:0:0:66:
448,192,21407,1,8,0:0:0:66:
192,192,21557,1,0,0:0:0:133:
320,192,21632,1,0,0:0:0:133:
64,192,21707,1,0,0:0:0:133:
320,192,21782,1,0,0:0:0:133:
192,192,21857,1,8,0:0:0:66:
448,192,21857,1,8,0:0:0:66:
320,192,22007,1,0,0:0:0:133:
192,192,22082,1,0,0:0:0:133:
64,192,22157,1,0,0:0:0:133:
320,192,22232,1,0,0:0:0:66:
448,192,22232,1,0,0:0:0:66:
192,192,22307,1,8,0:0:0:66:
64,192,22307,1,8,0:0:0:66:
320,192,22457,1,0,0:0:0:133:
192,192,22607,1,4,0:0:0:66:
448,192,22607,1,4,0:0:0:66:
64,192,22607,1,4,0:0:0:0:
320,192,22757,1,0,0:0:0:133:
192,192,22907,1,0,0:0:0:66:
64,192,22907,1,0,0:0:0:66:
192,192,23057,1,0,0:0:0:0:
448,192,23207,1,8,0:0:0:0:
320,192,23207,1,8,0:0:0:0:
64,192,23357,1,0,0:0:0:0:
320,192,23507,1,0,0:0:0:133:
192,192,23582,1,0,0:0:0:133:
320,192,23657,1,8,0:0:0:66:
448,192,23657,1,8,0:0:0:66:
192,192,23807,1,0,0:0:0:66:
448,192,23807,1,0,0:0:0:66:
320,192,23882,1,0,0:0:0:133:
64,192,23957,1,0,0:0:0:133:
192,192,24032,1,0,0:0:0:133:
320,192,24107,1,0,0:0:0:44:
448,192,24107,1,0,0:0:0:44:
64,192,24107,128,0,24407:0:0:0:0:
320,192,24407,1,0,0:0:0:44:
448,192,24407,1,0,0:0:0:44:
192,192,24407,1,0,0:0:0:44:
192,192,24557,1,0,0:0:0:133:
320,192,24707,1,0,0:0:0:44:
448,192,24707,1,0,0:0:0:44:
64,192,24707,1,0,0:0:0:44:
192,192,24857,1,0,0:0:0:133:
320,192,25007,1,0,0:0:0:44:
448,192,25007,1,0,0:0:0:44:
64,192,25007,1,0,0:0:0:44:
192,192,25232,1,0,0:0:0:133:
448,192,25307,1,0,0:0:0:133:
320,192,25382,1,0,0:0:0:133:
192,192,25457,1,8,0:0:0:66:
64,192,25457,1,8,0:0:0:66:
320,192,25607,1,0,0:0:0:133:
448,192,25682,1,0,0:0:0:133:
192,192,25757,1,0,0:0:0:133:
320,192,25832,1,0,0:0:0:66:
448,192,25832,1,0,0:0:0:66:
192,192,25907,1,8,0:0:0:66:
64,192,25907,1,8,0:0:0:66:
320,192,26057,1,0,0:0:0:133:
320,192,26207,1,8,0:0:0:66:
448,192,26207,1,8,0:0:0:66:
64,192,26357,1,8,0:0:0:66:
192,192,26357,1,8,0:0:0:66:
320,192,26507,1,4,0:0:0:44:
192,192,26507,1,4,0:0:0:44:
448,192,26507,128,0,26807:0:0:0:44:
192,192,26807,1,8,0:0:0:66:
320,192,26807,1,8,0:0:0:66:
320,192,26957,1,0,0:0:0:133:
448,192,27032,1,0,0:0:0:133:
64,192,27107,1,4,0:0:0:66:
192,192,27107,1,4,0:0:0:66:
320,192,27257,1,0,0:0:0:66:
448,192,27257,1,0,0:0:0:66:
64,192,27407,1,0,0:0:0:66:
192,192,27407,1,0,0:0:0:66:
320,192,27482,1,0,0:0:0:133:
448,192,27557,1,0,0:0:0:133:
192,192,27707,1,0,0:0:0:66:
320,192,27707,1,0,0:0:0:66:
64,192,28007,1,0,0:0:0:133:
192,192,28082,1,0,0:0:0:133:
448,192,28157,1,0,0:0:0:133:
320,192,28232,1,0,0:0:0:133:
192,192,28307,1,0,0:0:0:66:
64,192,28307,1,0,0:0:0:66:
448,192,28382,1,0,0:0:0:133:
192,192,28457,1,0,0:0:0:133:
320,192,28532,1,0,0:0:0:133:
192,192,28607,1,8,0:0:0:66:
448,192,28607,1,8,0:0:0:66:
320,192,28832,1,0,0:0:0:133:
192,192,28907,1,0,0:0:0:133:
448,192,28982,1,0,0:0:0:133:
192,192,29057,1,8,0:0:0:66:
64,192,29057,1,8,0:0:0:66:
320,192,29207,1,0,0:0:0:133:
448,192,29282,1,0,0:0:0:133:
192,192,29357,1,0,0:0:0:133:
320,192,29432,1,0,0:0:0:66:
448,192,29432,1,0,0:0:0:66:
192,192,29507,1,8,0:0:0:66:
64,192,29507,1,8,0:0:0:66:
448,192,29657,1,0,0:0:0:133:
192,192,29807,1,4,0:0:0:66:
320,192,29807,1,4,0:0:0:66:
64,192,29882,1,0,0:0:0:133:
192,192,29957,1,0,0:0:0:133:
320,192,30032,1,0,0:0:0:133:
448,192,30107,1,0,0:0:0:133:
64,192,30182,1,0,0:0:0:133:
192,192,30257,1,0,0:0:0:133:
448,192,30332,1,0,0:0:0:133:
320,192,30407,1,8,0:0:0:66:
192,192,30407,1,8,0:0:0:66:
64,192,30557,1,0,0:0:0:133:
192,192,30707,1,0,0:0:0:133:
320,192,30782,1,0,0:0:0:133:
192,192,30857,1,8,0:0:0:66:
64,192,30857,1,8,0:0:0:66:
192,192,31007,1,0,0:0:0:44:
320,192,31007,1,0,0:0:0:44:
448,192,31007,1,0,0:0:0:44:
64,192,31082,1,0,0:0:0:133:
320,192,31157,1,0,0:0:0:133:
192,192,31307,1,0,0:0:0:44:
64,192,31307,1,0,0:0:0:44:
320,192,31307,1,0,0:0:0:44:
320,192,31607,1,8,0:0:0:66:
448,192,31607,1,8,0:0:0:66:
192,192,31757,1,8,0:0:0:66:
64,192,31757,1,8,0:0:0:66:
320,192,31832,1,8,0:0:0:66:
64,192,31907,1,4,0:0:0:66:
192,192,31907,1,4,0:0:0:66:
448,192,31907,1,0,0:0:0:0:
320,192,32207,1,0,0:0:0:66:
448,192,32207,1,0,0:0:0:66:
192,192,32357,1,0,0:0:0:133:
320,192,32507,1,0,0:0:0:133:
192,192,32582,1,0,0:0:0:66:
64,192,32582,1,0,0:0:0:66:
320,192,32657,1,8,0:0:0:66:
448,192,32657,1,8,0:0:0:66:
320,192,32807,1,0,0:0:0:133:
192,192,32882,1,0,0:0:0:66:
448,192,32882,1,0,0:0:0:66:
64,192,32957,1,0,0:0:0:133:
320,192,33032,1,0,0:0:0:66:
448,192,33032,1,0,0:0:0:66:
192,192,33107,1,8,0:0:0:66:
64,192,33107,1,8,0:0:0:66:
320,192,33257,1,0,0:0:0:133:
192,192,33407,1,8,0:0:0:66:
320,192,33407,1,8,0:0:0:66:
64,192,33557,1,8,0:0:0:66:
192,192,33557,1,8,0:0:0:66:
320,192,33707,1,0,0:0:0:133:
192,192,33782,1,0,0:0:0:133:
320,192,33857,1,8,0:0:0:66:
448,192,33857,1,8,0:0:0:66:
192,192,34007,1,8,0:0:0:66:
320,192,34007,1,8,0:0:0:66:
192,192,34157,1,0,0:0:0:133:
320,192,34232,1,0,0:0:0:133:
192,192,34307,1,0,0:0:0:44:
64,192,34307,1,0,0:0:0:44:
448,192,34307,1,0,0:0:0:44:
320,192,34457,1,8,0:0:0:66:
448,192,34457,1,8,0:0:0:66:
192,192,34607,1,0,0:0:0:66:
64,192,34607,1,0,0:0:0:66:
448,192,34682,1,0,0:0:0:133:
320,192,34757,1,0,0:0:0:133:
192,192,34907,1,0,0:0:0:66:
64,192,34907,1,0,0:0:0:66:
448,192,35507,1,0,0:0:0:66:
320,192,35507,1,0,0:0:0:66:
192,192,35657,1,0,0:0:0:66:
64,192,35657,1,0,0:0:0:66:
320,192,35807,1,0,0:0:0:66:
448,192,35807,1,0,0:0:0:66:
192,192,35957,1,0,0:0:0:66:
320,192,35957,1,0,0:0:0:66:
64,192,36032,1,0,0:0:0:133:
320,192,36107,1,0,0:0:0:133:
192,192,36182,1,0,0:0:0:133:
320,192,36257,1,8,0:0:0:66:
448,192,36257,1,8,0:0:0:66:
192,192,36407,1,0,0:0:0:133:
320,192,36482,1,0,0:0:0:133:
64,192,36557,1,0,0:0:0:133:
320,192,36632,1,0,0:0:0:66:
448,192,36632,1,0,0:0:0:66:
192,192,36707,1,8,0:0:0:66:
64,192,36707,1,8,0:0:0:66:
448,192,36857,1,0,0:0:0:133:
320,192,37007,1,0,0:0:0:44:
192,192,37007,1,0,0:0:0:44:
64,192,37007,1,0,0:0:0:44:
192,192,37307,1,0,0:0:0:44:
320,192,37307,1,0,0:0:0:44:
448,192,37307,1,0,0:0:0:44:
192,192,37457,1,0,0:0:0:66:
64,192,37457,1,0,0:0:0:66:
320,192,37607,1,8,0:0:0:66:
448,192,37607,1,8,0:0:0:66:
192,192,37757,1,0,0:0:0:133:
320,192,37907,1,0,0:0:0:133:
192,192,37982,1,0,0:0:0:66:
64,192,37982,1,0,0:0:0:66:
320,192,38057,1,8,0:0:0:66:
448,192,38057,1,8,0:0:0:66:
192,192,38207,1,0,0:0:0:66:
320,192,38207,1,0,0:0:0:66:
448,192,38282,1,0,0:0:0:133:
64,192,38357,1,0,0:0:0:133:
192,192,38507,1,0,0:0:0:44:
320,192,38507,1,0,0:0:0:44:
448,192,38507,1,0,0:0:0:44:
192,192,38807,1,4,0:0:0:44:
64,192,38807,1,4,0:0:0:44:
448,192,38807,1,4,0:0:0:44:
320,192,38957,1,0,0:0:0:133:
192,192,39107,1,0,0:0:0:44:
64,192,39107,1,0,0:0:0:44:
320,192,39107,1,0,0:0:0:44:
192,192,39407,1,0,0:0:0:44:
320,192,39407,1,0,0:0:0:44:
448,192,39407,1,0,0:0:0:44:
448,192,39557,1,0,0:0:0:133:
64,192,39707,1,0,0:0:0:66:
192,192,39707,1,0,0:0:0:66:
320,192,39857,1,0,0:0:0:133:
448,192,39932,1,0,0:0:0:133:
192,192,40007,1,0,0:0:0:66:
64,192,40007,1,0,0:0:0:66:
320,192,40157,1,0,0:0:0:66:
448,192,40157,1,0,0:0:0:66:
192,192,40307,1,0,0:0:0:133:
64,192,40382,1,0,0:0:0:66:
448,192,40382,1,0,0:0:0:66:
320,192,40457,1,0,0:0:0:133:
192,192,40607,1,0,0:0:0:66:
64,192,40607,1,0,0:0:0:66:
320,192,40757,1,0,0:0:0:66:
448,192,40757,1,0,0:0:0:66:
64,192,40907,1,0,0:0:0:44:
192,192,40907,1,0,0:0:0:44:
320,192,40907,1,0,0:0:0:44:
448,192,41057,1,0,0:0:0:133:
192,192,41132,1,0,0:0:0:133:
320,192,41207,1,0,0:0:0:66:
448,192,41207,1,0,0:0:0:66:
192,192,41357,1,0,0:0:0:44:
64,192,41357,1,0,0:0:0:44:
320,192,41357,1,0,0:0:0:44:
320,192,41507,1,0,0:0:0:133:
448,192,41582,1,0,0:0:0:133:
192,192,41657,1,0,0:0:0:66:
64,192,41657,1,0,0:0:0:66:
320,192,41807,1,0,0:0:0:44:
448,192,41807,1,0,0:0:0:44:
64,192,41807,1,0,0:0:0:44:
192,192,41957,1,0,0:0:0:133:
64,192,42107,1,0,0:0:0:44:
192,192,42107,1,0,0:0:0:44:
448,192,42107,1,0,0:0:0:44:
320,192,42257,1,0,0:0:0:44:
448,192,42257,1,0,0:0:0:44:
192,192,42257,1,0,0:0:0:44:
192,192,42407,1,0,0:0:0:44:
64,192,42407,1,0,0:0:0:44:
320,192,42407,1,0,0:0:0:44:
320,192,42557,1,0,0:0:0:133:
192,192,42707,1,0,0:0:0:44:
320,192,42707,1,0,0:0:0:44:
448,192,42707,1,0,0:0:0:44:
192,192,42857,1,0,0:0:0:133:
64,192,43007,1,0,0:0:0:44:
192,192,43007,1,0,0:0:0:44:
448,192,43007,1,0,0:0:0:44:
320,192,43157,1,0,0:0:0:133:
192,192,43307,1,0,0:0:0:66:
64,192,43307,1,0,0:0:0:66:
448,192,43307,1,0,0:0:0:0:
320,192,43457,1,0,0:0:0:133:
448,192,43532,1,0,0:0:0:133:
64,192,43607,1,0,0:0:0:66:
192,192,43607,1,0,0:0:0:66:
320,192,43757,1,0,0:0:0:66:
448,192,43757,1,0,0:0:0:66:
64,192,43757,1,0,0:0:0:0:
192,192,43907,1,0,0:0:0:133:
320,192,43982,1,0,0:0:0:66:
448,192,43982,1,0,0:0:0:66:
64,192,44057,1,0,0:0:0:66:
192,192,44057,1,0,0:0:0:66:
320,192,44207,1,0,0:0:0:66:
448,192,44207,1,0,0:0:0:66:
192,192,44282,1,0,0:0:0:66:
64,192,44282,1,0,0:0:0:66:
320,192,44357,1,0,0:0:0:66:
448,192,44357,1,0,0:0:0:66:
64,192,44432,1,0,0:0:0:133:
448,192,44507,1,0,0:0:0:44:
320,192,44507,1,0,0:0:0:44:
192,192,44507,1,0,0:0:0:44:
64,192,44657,1,0,0:0:0:133:
320,192,44732,1,0,0:0:0:133:
192,192,44807,1,0,0:0:0:66:
64,192,44807,1,0,0:0:0:66:
320,192,44957,1,0,0:0:0:66:
448,192,44957,1,0,0:0:0:66:
320,192,45107,1,0,0:0:0:133:
192,192,45182,1,0,0:0:0:133:
320,192,45257,1,0,0:0:0:66:
448,192,45257,1,0,0:0:0:66:
64,192,45407,1,0,0:0:0:44:
192,192,45407,1,0,0:0:0:44:
448,192,45407,1,0,0:0:0:44:
192,192,45557,1,0,0:0:0:133:
320,192,45707,1,0,0:0:0:66:
448,192,45707,1,0,0:0:0:66:
192,192,45857,1,0,0:0:0:44:
64,192,45857,1,0,0:0:0:44:
448,192,45857,1,0,0:0:0:44:
320,192,46007,1,0,0:0:0:66:
448,192,46007,1,0,0:0:0:66:
320,192,46157,1,0,0:0:0:0:
64,192,46307,1,0,0:0:0:44:
192,192,46307,1,0,0:0:0:44:
320,192,46307,1,0,0:0:0:44:
192,192,46607,1,0,0:0:0:44:
320,192,46607,1,0,0:0:0:44:
448,192,46607,1,0,0:0:0:44:
64,192,46757,1,0,0:0:0:0:
320,192,46907,1,0,0:0:0:66:
448,192,46907,1,0,0:0:0:66:
320,192,47057,1,0,0:0:0:133:
192,192,47132,1,0,0:0:0:133:
320,192,47207,1,0,0:0:0:66:
448,192,47207,1,0,0:0:0:66:
192,192,47357,1,0,0:0:0:66:
320,192,47357,1,0,0:0:0:66:
64,192,47507,1,0,0:0:0:133:
320,192,47582,1,0,0:0:0:66:
448,192,47582,1,0,0:0:0:66:
192,192,47657,1,0,0:0:0:133:
320,192,47807,1,0,0:0:0:66:
448,192,47807,1,0,0:0:0:66:
192,192,47957,1,0,0:0:0:66:
320,192,47957,1,0,0:0:0:66:
64,192,48107,1,0,0:0:0:44:
320,192,48107,1,0,0:0:0:44:
448,192,48107,1,0,0:0:0:44:
192,192,48257,1,0,0:0:0:133:
64,192,48332,1,0,0:0:0:133:
320,192,48407,1,0,0:0:0:66:
448,192,48407,1,0,0:0:0:66:
64,192,48557,1,0,0:0:0:44:
192,192,48557,1,0,0:0:0:44:
320,192,48557,1,0,0:0:0:44:
448,192,48707,1,0,0:0:0:133:
320,192,48782,1,0,0:0:0:133:
192,192,48857,1,0,0:0:0:66:
64,192,48857,1,0,0:0:0:66:
320,192,49007,1,0,0:0:0:44:
448,192,49007,1,0,0:0:0:44:
192,192,49007,1,0,0:0:0:44:
64,192,49157,1,0,0:0:0:133:
192,192,49232,1,0,0:0:0:133:
320,192,49307,1,0,0:0:0:66:
448,192,49307,1,0,0:0:0:66:
64,192,49457,1,0,0:0:0:44:
192,192,49457,1,0,0:0:0:44:
448,192,49457,1,0,0:0:0:44:
320,192,49607,1,0,0:0:0:44:
448,192,49607,1,0,0:0:0:44:
192,192,49607,1,0,0:0:0:44:
192,192,49757,1,0,0:0:0:0:
64,192,49907,1,0,0:0:0:44:
448,192,49907,1,0,0:0:0:44:
320,192,49907,1,0,0:0:0:44:
448,192,50057,1,0,0:0:0:0:
64,192,50207,1,0,0:0:0:44:
320,192,50207,1,0,0:0:0:44:
192,192,50207,1,0,0:0:0:44:
64,192,50357,1,0,0:0:0:0:
320,192,50507,1,0,0:0:0:66:
448,192,50507,1,0,0:0:0:66:
192,192,50657,1,0,0:0:0:133:
320,192,50732,1,0,0:0:0:66:
448,192,50732,1,0,0:0:0:66:
192,192,50807,1,0,0:0:0:66:
64,192,50807,1,0,0:0:0:66:
192,192,50957,1,0,0:0:0:66:
320,192,50957,1,0,0:0:0:66:
448,192,51107,1,0,0:0:0:133:
192,192,51182,1,0,0:0:0:133:
320,192,51257,1,0,0:0:0:66:
448,192,51257,1,0,0:0:0:66:
320,192,51407,1,0,0:0:0:66:
448,192,51407,1,0,0:0:0:0:
64,192,51407,1,0,0:0:0:0:
64,192,51707,1,0,0:0:0:44:
192,192,51707,1,0,0:0:0:44:
320,192,51707,1,0,0:0:0:44:
320,192,51857,1,0,0:0:0:133:
192,192,51932,1,0,0:0:0:133:
64,192,52007,1,0,0:0:0:66:
320,192,52007,1,0,0:0:0:66:
192,192,52157,1,0,0:0:0:44:
448,192,52157,1,0,0:0:0:44:
320,192,52157,1,0,0:0:0:44:
192,192,52307,1,0,0:0:0:133:
320,192,52382,1,0,0:0:0:133:
192,192,52457,1,0,0:0:0:66:
448,192,52457,1,0,0:0:0:66:
64,192,52607,1,0,0:0:0:44:
448,192,52607,1,0,0:0:0:44:
320,192,52607,1,0,0:0:0:44:
320,192,52757,1,0,0:0:0:133:
448,192,52832,1,0,0:0:0:133:
192,192,52907,1,0,0:0:0:66:
64,192,52907,1,0,0:0:0:66:
320,192,53057,1,0,0:0:0:44:
448,192,53057,1,0,0:0:0:44:
192,192,53057,1,0,0:0:0:44:
64,192,53207,1,0,0:0:0:66:
320,192,53207,1,0,0:0:0:66:
192,192,53357,1,0,0:0:0:0:
64,192,53507,1,0,0:0:0:44:
192,192,53507,1,0,0:0:0:44:
448,192,53507,1,0,0:0:0:44:
192,192,53807,1,0,0:0:0:44:
448,192,53807,1,0,0:0:0:44:
320,192,53807,1,0,0:0:0:44:
320,192,53957,1,0,0:0:0:133:
64,192,54107,1,0,0:0:0:0:
192,192,54107,1,0,0:0:0:0:
320,192,54257,1,0,0:0:0:133:
448,192,54332,1,0,0:0:0:133:
192,192,54407,1,0,0:0:0:66:
320,192,54407,1,0,0:0:0:66:
320,192,54557,1,0,0:0:0:0:
448,192,54557,1,0,0:0:0:0:
192,192,54707,1,0,0:0:0:133:
320,192,54782,1,0,0:0:0:66:
448,192,54782,1,0,0:0:0:66:
64,192,54857,1,0,0:0:0:133:
448,192,55007,1,0,0:0:0:0:
320,192,55007,1,0,0:0:0:0:
64,192,55044,1,0,0:0:0:0:
192,192,55082,1,0,0:0:0:0:
320,192,55119,1,0,0:0:0:0:
448,192,55157,1,0,0:0:0:0:
64,192,55194,1,0,0:0:0:0:
192,192,55232,1,0,0:0:0:0:
320,192,55269,1,0,0:0:0:0:
448,192,55307,1,0,0:0:0:0:
192,192,55307,1,0,0:0:0:0:
64,192,55307,1,0,0:0:0:0:
320,192,55457,1,0,0:0:0:0:
64,192,55532,1,0,0:0:0:0:
192,192,55532,1,0,0:0:0:0:
320,192,55607,1,0,0:0:0:0:
448,192,55607,1,0,0:0:0:0:
192,192,55757,1,0,0:0:0:0:
448,192,55757,1,0,0:0:0:0:
320,192,55757,1,0,0:0:0:0:
192,192,55907,1,0,0:0:0:0:
320,192,55982,1,0,0:0:0:0:
448,192,55982,1,0,0:0:0:0:
192,192,56057,1,0,0:0:0:0:
64,192,56057,1,0,0:0:0:0:
192,192,56207,1,0,0:0:0:0:
64,192,56207,1,0,0:0:0:0:
448,192,56207,1,0,0:0:0:0:
320,192,56357,1,0,0:0:0:0:
320,192,56507,1,0,0:0:0:0:
448,192,56507,1,0,0:0:0:0:
64,192,56657,1,0,0:0:0:0:
192,192,56657,1,0,0:0:0:0:
448,192,56657,1,0,0:0:0:0:
320,192,56807,1,0,0:0:0:0:
192,192,56807,1,0,0:0:0:0:
64,192,56807,1,0,0:0:0:0:
320,192,57107,1,0,0:0:0:0:
448,192,57107,1,0,0:0:0:0:
64,192,57107,1,0,0:0:0:0:
192,192,57407,1,0,0:0:0:0:
320,192,57407,1,0,0:0:0:0:
448,192,57407,1,0,0:0:0:0:
192,192,57557,1,0,0:0:0:0:
320,192,57632,1,0,0:0:0:0:
192,192,57707,1,0,0:0:0:0:
64,192,57707,1,0,0:0:0:0:
320,192,57857,1,0,0:0:0:0:
192,192,57932,1,0,0:0:0:0:
64,192,57932,1,0,0:0:0:0:
320,192,58007,1,0,0:0:0:0:
448,192,58007,1,0,0:0:0:0:
192,192,58157,1,0,0:0:0:0:
64,192,58157,1,0,0:0:0:0:
192,192,58307,1,0,0:0:0:0:
320,192,58382,1,0,0:0:0:0:
448,192,58382,1,0,0:0:0:0:
64,192,58457,1,0,0:0:0:0:
192,192,58457,1,0,0:0:0:0:
320,192,58607,1,0,0:0:0:0:
448,192,58607,1,0,0:0:0:0:
192,192,58644,1,0,0:0:0:0:
64,192,58682,1,0,0:0:0:0:
320,192,58719,1,0,0:0:0:0:
448,192,58757,1,0,0:0:0:0:
192,192,58794,1,0,0:0:0:0:
64,192,58832,1,0,0:0:0:0:
448,192,58907,1,0,0:0:0:0:
320,192,58907,1,0,0:0:0:0:
320,192,59057,1,0,0:0:0:0:
192,192,59132,1,0,0:0:0:0:
64,192,59132,1,0,0:0:0:0:
320,192,59207,1,0,0:0:0:0:
448,192,59207,1,0,0:0:0:0:
64,192,59357,1,0,0:0:0:0:
192,192,59357,1,0,0:0:0:0:
320,192,59357,1,0,0:0:0:0:
192,192,59507,1,0,0:0:0:0:
448,192,59582,1,0,0:0:0:0:
320,192,59582,1,0,0:0:0:0:
64,192,59657,1,0,0:0:0:0:
192,192,59657,1,0,0:0:0:0:
192,192,59807,1,0,0:0:0:0:
320,192,59807,1,0,0:0:0:0:
448,192,59807,1,0,0:0:0:0:
320,192,59957,1,0,0:0:0:0:
192,192,60107,1,0,0:0:0:0:
320,192,60107,1,0,0:0:0:0:
64,192,60257,1,0,0:0:0:0:
192,192,60257,1,0,0:0:0:0:
448,192,60257,1,0,0:0:0:0:
320,192,60407,1,0,0:0:0:0:
448,192,60407,1,0,0:0:0:0:
64,192,60557,1,0,0:0:0:0:
192,192,60707,1,0,0:0:0:0:
320,192,60707,1,0,0:0:0:0:
448,192,60707,1,0,0:0:0:0:
320,192,61007,1,0,0:0:0:0:
448,192,61007,1,0,0:0:0:0:
64,192,61007,1,0,0:0:0:0:
448,192,61157,1,0,0:0:0:0:
320,192,61232,1,0,0:0:0:0:
192,192,61307,1,0,0:0:0:0:
64,192,61307,1,0,0:0:0:0:
320,192,61457,1,0,0:0:0:0:
192,192,61532,1,0,0:0:0:0:
64,192,61532,1,0,0:0:0:0:
320,192,61607,1,0,0:0:0:0:
448,192,61607,1,0,0:0:0:0:
64,192,61757,1,0,0:0:0:0:
192,192,61757,1,0,0:0:0:0:
448,192,61907,1,0,0:0:0:0:
192,192,61982,1,0,0:0:0:0:
64,192,61982,1,0,0:0:0:0:
448,192,62057,1,0,0:0:0:0:
320,192,62057,1,0,0:0:0:0:
448,192,62207,1,0,0:0:0:0:
320,192,62207,1,0,0:0:0:0:
64,192,62244,1,0,0:0:0:0:
192,192,62282,1,0,0:0:0:0:
320,192,62319,1,0,0:0:0:0:
448,192,62357,1,0,0:0:0:0:
64,192,62394,1,0,0:0:0:0:
192,192,62432,1,0,0:0:0:0:
320,192,62469,1,0,0:0:0:0:
64,192,62507,1,0,0:0:0:0:
192,192,62507,1,0,0:0:0:0:
448,192,62507,1,0,0:0:0:0:
320,192,62657,1,0,0:0:0:0:
192,192,62732,1,0,0:0:0:0:
64,192,62732,1,0,0:0:0:0:
320,192,62807,1,0,0:0:0:0:
448,192,62807,1,0,0:0:0:0:
192,192,62957,1,0,0:0:0:0:
320,192,62957,1,0,0:0:0:0:
64,192,62957,1,0,0:0:0:0:
320,192,63107,1,0,0:0:0:0:
192,192,63182,1,0,0:0:0:0:
64,192,63182,1,0,0:0:0:0:
320,192,63257,1,0,0:0:0:0:
448,192,63257,1,0,0:0:0:0:
320,192,63407,1,0,0:0:0:0:
448,192,63407,1,0,0:0:0:0:
64,192,63407,1,0,0:0:0:0:
192,192,63557,1,0,0:0:0:0:
64,192,63707,1,0,0:0:0:0:
320,192,63707,1,0,0:0:0:0:
320,192,63857,1,0,0:0:0:0:
448,192,63857,1,0,0:0:0:0:
192,192,63857,1,0,0:0:0:0:
64,192,64007,1,0,0:0:0:0:
192,192,64007,1,0,0:0:0:0:
320,192,64007,1,0,0:0:0:0:
192,192,64307,1,0,0:0:0:0:
64,192,64307,1,0,0:0:0:0:
448,192,64307,1,0,0:0:0:0:
320,192,64607,1,0,0:0:0:0:
448,192,64607,1,0,0:0:0:0:
64,192,64607,1,0,0:0:0:0:
64,192,64757,1,0,0:0:0:0:
192,192,64907,1,0,0:0:0:0:
320,192,64907,1,0,0:0:0:0:
448,192,65057,1,0,0:0:0:0:
192,192,65132,1,0,0:0:0:0:
320,192,65132,1,0,0:0:0:0:
64,192,65207,1,0,0:0:0:0:
448,192,65207,1,0,0:0:0:0:
320,192,65357,1,0,0:0:0:0:
64,192,65357,1,0,0:0:0:0:
320,192,65507,1,0,0:0:0:0:
192,192,65582,1,0,0:0:0:0:
64,192,65582,1,0,0:0:0:0:
320,192,65657,1,0,0:0:0:0:
448,192,65657,1,0,0:0:0:0:
64,192,65807,1,0,0:0:0:0:
192,192,65807,1,0,0:0:0:0:
320,192,65882,1,0,0:0:0:0:
448,192,65957,1,0,0:0:0:0:
64,192,66032,1,0,0:0:0:0:
192,192,66107,1,0,0:0:0:0:
320,192,66107,1,0,0:0:0:0:
448,192,66182,1,0,0:0:0:0:
320,192,66257,1,0,0:0:0:0:
192,192,66332,1,0,0:0:0:0:
320,192,66407,1,0,0:0:0:0:
448,192,66407,1,0,0:0:0:0:
192,192,66482,1,0,0:0:0:0:
64,192,66557,1,0,0:0:0:0:
448,192,66557,1,0,0:0:0:0:
320,192,66632,1,0,0:0:0:0:
192,192,66707,1,0,0:0:0:0:
64,192,66782,1,0,0:0:0:0:
320,192,66857,1,0,0:0:0:0:
448,192,66857,1,0,0:0:0:0:
192,192,66932,1,0,0:0:0:0:
320,192,67007,1,0,0:0:0:0:
448,192,67007,1,0,0:0:0:0:
64,192,67057,1,0,0:0:0:0:
192,192,67107,1,0,0:0:0:0:
448,192,67157,1,0,0:0:0:0:
320,192,67207,1,0,0:0:0:0:
64,192,67257,1,0,0:0:0:0:
192,192,67307,1,0,0:0:0:0:
448,192,67357,1,0,0:0:0:0:
320,192,67407,1,0,0:0:0:0:
64,192,67457,1,0,0:0:0:0:
192,192,67507,1,0,0:0:0:0:
448,192,67557,1,0,0:0:0:0:
320,192,67607,1,0,0:0:0:0:
64,192,67657,1,0,0:0:0:0:
192,192,67657,1,0,0:0:0:0:
320,192,67707,1,0,0:0:0:0:
448,192,67707,1,0,0:0:0:0:
192,192,67757,1,0,0:0:0:0:
64,192,67757,1,0,0:0:0:0:
448,192,67807,1,0,0:0:0:0:
320,192,67807,1,0,0:0:0:0:
192,192,67857,1,0,0:0:0:0:
64,192,67857,1,0,0:0:0:0:
320,192,67907,1,0,0:0:0:0:
448,192,67907,1,0,0:0:0:0:
192,192,68132,1,0,0:0:0:0:
448,192,68207,1,0,0:0:0:0:
320,192,68357,1,0,0:0:0:0:
192,192,68507,1,0,0:0:0:0:
320,192,68807,1,0,0:0:0:0:
64,192,68882,1,0,0:0:0:0:
192,192,68957,1,0,0:0:0:0:
320,192,69032,1,0,0:0:0:0:
448,192,69107,1,0,0:0:0:0:
320,192,69257,1,0,0:0:0:0:
192,192,69332,1,0,0:0:0:0:
64,192,69407,1,0,0:0:0:0:
448,192,69482,1,0,0:0:0:0:
192,192,69557,1,0,0:0:0:0:
64,192,69707,1,0,0:0:0:0:
192,192,69757,1,0,0:0:0:0:
448,192,69807,1,0,0:0:0:0:
320,192,69857,1,0,0:0:0:0:
64,192,69907,1,0,0:0:0:0:
192,192,69957,1,0,0:0:0:0:
448,192,70007,1,0,0:0:0:0:
320,192,70057,1,0,0:0:0:0:
64,192,70107,1,0,0:0:0:0:
192,192,70157,1,0,0:0:0:0:
320,192,70207,1,0,0:0:0:0:
448,192,70257,1,0,0:0:0:0:
192,192,70307,1,0,0:0:0:0:
64,192,70357,1,0,0:0:0:0:
320,192,70407,1,0,0:0:0:0:
448,192,70457,1,0,0:0:0:0:
192,192,70507,1,0,0:0:0:0:
64,192,70557,1,0,0:0:0:0:
448,192,70607,1,0,0:0:0:0:
320,192,70657,1,0,0:0:0:0:
192,192,70707,1,0,0:0:0:0:
64,192,70757,1,0,0:0:0:0:
448,192,70807,1,0,0:0:0:0:
320,192,70857,1,0,0:0:0:0:
192,192,70907,1,0,0:0:0:0:
64,192,70957,1,0,0:0:0:0:
448,192,71007,1,0,0:0:0:0:
320,192,71057,1,0,0:0:0:0:
192,192,71107,1,0,0:0:0:0:
64,192,71157,1,0,0:0:0:0:
448,192,71207,1,0,0:0:0:0:
192,192,71357,1,0,0:0:0:0:
320,192,71507,128,0,71807:0:0:0:0:
64,192,71807,1,0,0:0:0:0:
192,192,71957,1,0,0:0:0:0:
320,192,72107,1,0,0:0:0:0:
64,192,72107,128,0,72357:0:0:0:0:
192,192,72407,1,0,0:0:0:0:
320,192,72482,1,0,0:0:0:0:
448,192,72557,1,0,0:0:0:0:
64,192,72632,1,0,0:0:0:0:
192,192,72707,1,0,0:0:0:0:
320,192,72857,1,0,0:0:0:0:
448,192,73007,1,0,0:0:0:0:
192,192,73157,1,0,0:0:0:0:
64,192,73307,1,0,0:0:0:0:
320,192,73457,1,0,0:0:0:0:
320,192,73607,1,0,0:0:0:0:
192,192,73757,1,0,0:0:0:0:
320,192,73907,1,0,0:0:0:0:
320,192,74057,1,0,0:0:0:0:
192,192,74207,1,0,0:0:0:0:
320,192,74357,1,0,0:0:0:0:
64,192,74507,1,0,0:0:0:0:
320,192,74657,1,0,0:0:0:0:
192,192,74807,1,0,0:0:0:0:
448,192,74957,1,0,0:0:0:0:
64,192,75107,1,0,0:0:0:0:
64,192,75407,1,0,0:0:0:0:
192,192,75557,1,0,0:0:0:0:
448,192,75707,1,0,0:0:0:0:
448,192,76007,1,0,0:0:0:0:
64,192,76082,1,0,0:0:0:0:
192,192,76157,1,0,0:0:0:0:
320,192,76232,1,0,0:0:0:0:
448,192,76307,1,0,0:0:0:0:
320,192,76457,1,0,0:0:0:0:
192,192,76532,1,0,0:0:0:0:
64,192,76607,1,0,0:0:0:0:
448,192,76682,1,0,0:0:0:0:
320,192,76757,1,0,0:0:0:0:
64,192,76907,1,0,0:0:0:0:
192,192,76957,1,0,0:0:0:0:
448,192,77007,1,0,0:0:0:0:
320,192,77057,1,0,0:0:0:0:
64,192,77107,1,0,0:0:0:0:
192,192,77157,1,0,0:0:0:0:
448,192,77207,1,0,0:0:0:0:
320,192,77257,1,0,0:0:0:0:
64,192,77307,1,0,0:0:0:0:
192,192,77357,1,0,0:0:0:0:
320,192,77407,1,0,0:0:0:0:
448,192,77457,1,0,0:0:0:0:
64,192,77507,1,0,0:0:0:0:
192,192,77557,1,0,0:0:0:0:
320,192,77607,1,0,0:0:0:0:
448,192,77657,1,0,0:0:0:0:
192,192,77707,1,0,0:0:0:0:
64,192,77757,1,0,0:0:0:0:
320,192,77807,1,0,0:0:0:0:
448,192,77857,1,0,0:0:0:0:
192,192,77907,1,0,0:0:0:0:
64,192,77957,1,0,0:0:0:0:
320,192,78007,1,0,0:0:0:0:
448,192,78057,1,0,0:0:0:0:
64,192,78107,1,0,0:0:0:0:
192,192,78157,1,0,0:0:0:0:
320,192,78207,1,0,0:0:0:0:
448,192,78257,1,0,0:0:0:0:
64,192,78307,1,0,0:0:0:0:
192,192,78357,1,0,0:0:0:0:
320,192,78407,1,0,0:0:0:0:
192,192,78707,1,0,0:0:0:0:
192,192,79007,1,0,0:0:0:0:
64,192,79157,1,0,0:0:0:0:
448,192,79307,1,0,0:0:0:0:
64,192,79607,1,0,0:0:0:0:
192,192,79682,1,0,0:0:0:0:
320,192,79757,1,0,0:0:0:0:
448,192,79832,1,0,0:0:0:0:
192,192,79907,1,0,0:0:0:0:
320,192,80057,1,0,0:0:0:0:
64,192,80207,1,0,0:0:0:0:
192,192,80357,1,0,0:0:0:0:
448,192,80507,1,0,0:0:0:0:
64,192,80657,1,0,0:0:0:0:
64,192,80807,1,0,0:0:0:0:
448,192,80957,1,0,0:0:0:0:
64,192,81107,1,0,0:0:0:0:
64,192,81257,1,0,0:0:0:0:
448,192,81407,1,0,0:0:0:0:
320,192,81557,1,0,0:0:0:0:
64,192,81707,1,0,0:0:0:0:
192,192,81857,1,0,0:0:0:0:
320,192,82007,1,0,0:0:0:0:
448,192,82157,1,0,0:0:0:0:
64,192,82307,5,0,0:0:0:0:
192,192,82307,1,0,0:0:0:0:
320,192,82307,1,0,0:0:0:0:
448,192,82607,1,0,0:0:0:0:
320,192,82757,1,0,0:0:0:0:
192,192,82907,1,0,0:0:0:0:
64,192,83207,1,0,0:0:0:0:
192,192,83282,1,0,0:0:0:0:
320,192,83357,1,0,0:0:0:0:
448,192,83432,1,0,0:0:0:0:
192,192,83507,1,0,0:0:0:0:
64,192,83657,1,0,0:0:0:0:
320,192,83807,1,0,0:0:0:0:
448,192,83957,1,0,0:0:0:0:
64,192,84107,1,0,0:0:0:0:
192,192,84157,1,0,0:0:0:0:
320,192,84207,1,0,0:0:0:0:
448,192,84257,1,0,0:0:0:0:
64,192,84307,1,0,0:0:0:0:
192,192,84357,1,0,0:0:0:0:
320,192,84407,1,0,0:0:0:0:
448,192,84457,1,0,0:0:0:0:
192,192,84507,1,0,0:0:0:0:
64,192,84557,1,0,0:0:0:0:
320,192,84607,1,0,0:0:0:0:
448,192,84657,1,0,0:0:0:0:
192,192,84707,1,0,0:0:0:0:
64,192,84757,1,0,0:0:0:0:
448,192,84807,1,0,0:0:0:0:
320,192,84857,1,0,0:0:0:0:
192,192,84907,1,0,0:0:0:0:
64,192,84957,1,0,0:0:0:0:
448,192,85007,1,0,0:0:0:0:
320,192,85057,1,0,0:0:0:0:
192,192,85107,1,0,0:0:0:0:
64,192,85157,1,0,0:0:0:0:
448,192,85207,1,0,0:0:0:0:
320,192,85257,1,0,0:0:0:0:
64,192,85307,1,0,0:0:0:0:
192,192,85357,1,0,0:0:0:0:
448,192,85407,1,0,0:0:0:0:
64,192,85457,1,0,0:0:0:0:
192,192,85507,1,0,0:0:0:0:
448,192,85557,1,0,0:0:0:0:
320,192,85607,1,0,0:0:0:0:
192,192,85757,1,0,0:0:0:0:
64,192,85907,1,0,0:0:0:0:
192,192,86207,1,0,0:0:0:0:
448,192,86244,1,0,0:0:0:0:
320,192,86357,1,0,0:0:0:0:
64,192,86507,1,0,0:0:0:0:
64,192,86807,1,0,0:0:0:0:
320,192,86882,1,0,0:0:0:0:
192,192,86957,1,0,0:0:0:0:
320,192,87032,1,0,0:0:0:0:
448,192,87107,1,0,0:0:0:0:
192,192,87257,1,0,0:0:0:0:
64,192,87407,1,0,0:0:0:0:
192,192,87482,1,0,0:0:0:0:
320,192,87557,1,0,0:0:0:0:
192,192,87707,1,0,0:0:0:0:
320,192,87857,1,0,0:0:0:0:
320,192,88007,1,0,0:0:0:0:
448,192,88157,1,0,0:0:0:0:
192,192,88307,1,0,0:0:0:0:
192,192,88457,5,0,0:0:0:0:
320,192,88607,1,0,0:0:0:0:
192,192,88757,1,0,0:0:0:0:
64,192,88907,1,0,0:0:0:0:
448,192,89057,1,0,0:0:0:0:
192,192,89207,1,0,0:0:0:0:
448,192,89357,1,0,0:0:0:0:
64,192,89507,5,0,0:0:0:0:
192,192,89507,1,0,0:0:0:0:
320,192,89507,1,0,0:0:0:0:
448,192,89807,1,0,0:0:0:0:
320,192,89957,1,0,0:0:0:0:
192,192,90107,1,0,0:0:0:0:
64,192,90407,1,0,0:0:0:0:
192,192,90482,1,0,0:0:0:0:
320,192,90557,1,0,0:0:0:0:
448,192,90632,1,0,0:0:0:0:
192,192,90707,1,0,0:0:0:0:
64,192,90857,1,0,0:0:0:0:
320,192,91007,1,0,0:0:0:0:
192,192,91157,1,0,0:0:0:0:
448,192,91307,1,0,0:0:0:0:
320,192,91357,1,0,0:0:0:0:
192,192,91407,1,0,0:0:0:0:
64,192,91457,1,0,0:0:0:0:
448,192,91507,1,0,0:0:0:0:
320,192,91557,1,0,0:0:0:0:
64,192,91607,1,0,0:0:0:0:
192,192,91657,1,0,0:0:0:0:
448,192,91707,1,0,0:0:0:0:
320,192,91757,1,0,0:0:0:0:
192,192,91807,1,0,0:0:0:0:
64,192,91857,1,0,0:0:0:0:
320,192,91907,1,0,0:0:0:0:
448,192,91957,1,0,0:0:0:0:
192,192,92007,1,0,0:0:0:0:
64,192,92057,1,0,0:0:0:0:
320,192,92107,1,0,0:0:0:0:
448,192,92169,1,0,0:0:0:0:
64,192,92207,1,0,0:0:0:0:
192,192,92257,1,0,0:0:0:0:
320,192,92307,1,0,0:0:0:0:
448,192,92357,1,0,0:0:0:0:
64,192,92407,1,0,0:0:0:0:
192,192,92457,1,0,0:0:0:0:
320,192,92507,1,0,0:0:0:0:
448,192,92557,1,0,0:0:0:0:
192,192,92607,1,0,0:0:0:0:
64,192,92657,1,0,0:0:0:0:
320,192,92707,1,0,0:0:0:0:
448,192,92757,1,0,0:0:0:0:
192,192,92807,1,0,0:0:0:0:
320,192,92957,1,0,0:0:0:0:
64,192,93107,1,0,0:0:0:0:
192,192,93407,1,0,0:0:0:0:
448,192,93457,1,0,0:0:0:0:
320,192,93557,1,0,0:0:0:0:
64,192,93707,1,0,0:0:0:0:
192,192,94007,1,0,0:0:0:0:
320,192,94057,1,0,0:0:0:0:
448,192,94107,1,0,0:0:0:0:
192,192,94157,1,0,0:0:0:0:
448,192,94307,1,0,0:0:0:0:
192,192,94457,1,0,0:0:0:0:
64,192,94607,1,0,0:0:0:0:
192,192,94682,1,0,0:0:0:0:
320,192,94757,1,0,0:0:0:0:
192,192,94907,1,0,0:0:0:0:
320,192,95057,1,0,0:0:0:0:
320,192,95207,1,0,0:0:0:0:
448,192,95357,1,0,0:0:0:0:
192,192,95507,1,0,0:0:0:0:
192,192,95657,1,0,0:0:0:0:
320,192,95807,1,0,0:0:0:0:
192,192,95957,1,0,0:0:0:0:
64,192,96107,1,0,0:0:0:0:
448,192,96257,1,0,0:0:0:0:
192,192,96407,1,0,0:0:0:0:
448,192,96557,1,0,0:0:0:0:
320,192,96707,1,0,0:0:0:0:
192,192,96707,1,0,0:0:0:0:
64,192,96707,1,0,0:0:0:0:
448,192,96857,1,0,0:0:0:0:
192,192,96932,1,0,0:0:0:0:
320,192,97007,1,0,0:0:0:0:
64,192,97082,1,0,0:0:0:0:
192,192,97157,1,0,0:0:0:0:
64,192,97232,1,0,0:0:0:0:
448,192,97307,1,0,0:0:0:0:
192,192,97382,1,0,0:0:0:0:
320,192,97457,1,0,0:0:0:0:
64,192,97532,1,0,0:0:0:0:
448,192,97607,1,0,0:0:0:0:
320,192,97682,1,0,0:0:0:0:
64,192,97757,1,0,0:0:0:0:
192,192,97832,1,0,0:0:0:0:
320,192,97907,1,0,0:0:0:0:
64,192,97982,1,0,0:0:0:0:
448,192,98057,1,0,0:0:0:0:
192,192,98132,1,0,0:0:0:0:
320,192,98207,1,0,0:0:0:0:
64,192,98282,1,0,0:0:0:0:
448,192,98357,1,0,0:0:0:0:
192,192,98432,1,0,0:0:0:0:
448,192,98507,1,0,0:0:0:0:
64,192,98582,1,0,0:0:0:0:
320,192,98657,1,0,0:0:0:0:
448,192,98732,1,0,0:0:0:0:
192,192,98807,1,0,0:0:0:0:
320,192,98882,1,0,0:0:0:0:
448,192,98957,1,0,0:0:0:0:
64,192,99032,1,0,0:0:0:0:
192,192,99107,1,0,0:0:0:0:
320,192,99182,1,0,0:0:0:0:
448,192,99257,1,0,0:0:0:0:
192,192,99332,1,0,0:0:0:0:
448,192,99407,1,0,0:0:0:0:
320,192,99482,1,0,0:0:0:0:
192,192,99557,1,0,0:0:0:0:
320,192,99632,1,0,0:0:0:0:
64,192,99707,1,0,0:0:0:0:
192,192,99782,1,0,0:0:0:0:
448,192,99857,1,0,0:0:0:0:
320,192,99932,1,0,0:0:0:0:
192,192,100007,1,0,0:0:0:0:
64,192,100082,1,0,0:0:0:0:
320,192,100157,1,0,0:0:0:0:
192,192,100232,1,0,0:0:0:0:
448,192,100307,1,0,0:0:0:0:
320,192,100382,1,0,0:0:0:0:
64,192,100457,1,0,0:0:0:0:
192,192,100532,1,0,0:0:0:0:
320,192,100607,1,0,0:0:0:0:
64,192,100682,1,0,0:0:0:0:
448,192,100757,1,0,0:0:0:0:
192,192,100832,1,0,0:0:0:0:
448,192,100907,1,0,0:0:0:0:
320,192,100982,1,0,0:0:0:0:
64,192,101057,1,0,0:0:0:0:
192,192,101132,1,0,0:0:0:0:
448,192,101207,1,0,0:0:0:0:
320,192,101282,1,0,0:0:0:0:
192,192,101357,1,0,0:0:0:0:
320,192,101432,1,0,0:0:0:0:
64,192,101507,1,0,0:0:0:0:
192,192,101582,1,0,0:0:0:0:
320,192,101657,1,0,0:0:0:0:
64,192,101732,1,0,0:0:0:0:
448,192,101807,1,0,0:0:0:0:
192,192,101882,1,0,0:0:0:0:
64,192,101957,1,0,0:0:0:0:
320,192,102032,1,0,0:0:0:0:
448,192,102107,1,0,0:0:0:0:
320,192,102182,1,0,0:0:0:0:
192,192,102257,1,0,0:0:0:0:
320,192,102332,1,0,0:0:0:0:
192,192,102407,1,0,0:0:0:0:
64,192,102482,1,0,0:0:0:0:
320,192,102557,1,0,0:0:0:0:
192,192,102632,1,0,0:0:0:0:
320,192,102707,1,0,0:0:0:0:
64,192,102782,1,0,0:0:0:0:
320,192,102857,1,0,0:0:0:0:
192,192,102932,1,0,0:0:0:0:
448,192,103007,1,0,0:0:0:0:
320,192,103082,1,0,0:0:0:0:
192,192,103157,1,0,0:0:0:0:
320,192,103232,1,0,0:0:0:0:
64,192,103307,1,0,0:0:0:0:
192,192,103382,1,0,0:0:0:0:
320,192,103457,1,0,0:0:0:0:
192,192,103532,1,0,0:0:0:0:
448,192,103607,1,0,0:0:0:0:
192,192,103682,1,0,0:0:0:0:
320,192,103757,1,0,0:0:0:0:
64,192,103832,1,0,0:0:0:0:
448,192,103907,1,0,0:0:0:0:
320,192,103907,1,0,0:0:0:0:
192,192,103982,1,0,0:0:0:0:
64,192,104057,1,0,0:0:0:0:
320,192,104132,1,0,0:0:0:0:
192,192,104207,1,0,0:0:0:0:
448,192,104207,1,0,0:0:0:0:
64,192,104282,1,0,0:0:0:0:
448,192,104357,1,0,0:0:0:0:
320,192,104432,1,0,0:0:0:0:
64,192,104507,1,0,0:0:0:0:
192,192,104507,1,0,0:0:0:0:
320,192,104582,1,0,0:0:0:0:
448,192,104657,1,0,0:0:0:0:
64,192,104732,1,0,0:0:0:0:
192,192,104807,1,0,0:0:0:0:
320,192,104807,1,0,0:0:0:0:
448,192,104882,1,0,0:0:0:0:
320,192,104957,1,0,0:0:0:0:
192,192,105032,1,0,0:0:0:0:
320,192,105107,1,0,0:0:0:0:
448,192,105107,1,0,0:0:0:0:
192,192,105182,1,0,0:0:0:0:
64,192,105257,1,0,0:0:0:0:
448,192,105332,1,0,0:0:0:0:
320,192,105407,1,0,0:0:0:0:
192,192,105407,1,0,0:0:0:0:
64,192,105482,1,0,0:0:0:0:
320,192,105557,1,0,0:0:0:0:
448,192,105632,1,0,0:0:0:0:
192,192,105707,1,0,0:0:0:0:
64,192,105707,1,0,0:0:0:0:
320,192,105782,1,0,0:0:0:0:
448,192,105857,1,0,0:0:0:0:
192,192,105932,1,0,0:0:0:0:
320,192,106007,1,0,0:0:0:0:
448,192,106007,1,0,0:0:0:0:
64,192,106082,1,0,0:0:0:0:
192,192,106157,1,0,0:0:0:0:
320,192,106232,1,0,0:0:0:0:
192,192,106307,1,0,0:0:0:0:
64,192,106307,1,0,0:0:0:0:
448,192,106382,1,0,0:0:0:0:
320,192,106457,1,0,0:0:0:0:
192,192,106532,1,0,0:0:0:0:
64,192,106607,1,0,0:0:0:0:
320,192,106607,1,0,0:0:0:0:
448,192,106682,1,0,0:0:0:0:
192,192,106757,1,0,0:0:0:0:
320,192,106832,1,0,0:0:0:0:
64,192,106907,1,0,0:0:0:0:
192,192,106907,1,0,0:0:0:0:
448,192,106982,1,0,0:0:0:0:
320,192,107057,1,0,0:0:0:0:
192,192,107132,1,0,0:0:0:0:
64,192,107207,1,0,0:0:0:0:
448,192,107207,1,0,0:0:0:0:
192,192,107282,1,0,0:0:0:0:
320,192,107357,1,0,0:0:0:0:
448,192,107432,1,0,0:0:0:0:
320,192,107507,1,0,0:0:0:0:
192,192,107507,1,0,0:0:0:0:
64,192,107582,1,0,0:0:0:0:
192,192,107657,1,0,0:0:0:0:
64,192,107732,1,0,0:0:0:0:
192,192,107807,1,0,0:0:0:0:
320,192,107807,1,0,0:0:0:0:
448,192,107882,1,0,0:0:0:0:
320,192,107957,1,0,0:0:0:0:
448,192,108032,1,0,0:0:0:0:
64,192,108107,1,0,0:0:0:0:
320,192,108107,1,0,0:0:0:0:
192,192,108182,1,0,0:0:0:0:
448,192,108257,1,0,0:0:0:0:
192,192,108332,1,0,0:0:0:0:
320,192,108407,1,0,0:0:0:0:
448,192,108407,1,0,0:0:0:0:
192,192,108482,1,0,0:0:0:0:
64,192,108557,1,0,0:0:0:0:
192,192,108632,1,0,0:0:0:0:
320,192,108707,1,0,0:0:0:0:
448,192,108707,1,0,0:0:0:0:
448,192,109007,1,0,0:0:0:0:
320,192,109007,1,0,0:0:0:0:
320,192,109307,1,0,0:0:0:0:
448,192,109307,1,0,0:0:0:0:
192,192,109607,1,0,0:0:0:0:
320,192,109607,1,0,0:0:0:0:
64,192,109907,1,0,0:0:0:0:
192,192,109907,1,0,0:0:0:0:
192,192,110207,1,0,0:0:0:0:
64,192,110207,1,0,0:0:0:0:
64,192,110507,1,0,0:0:0:0:
192,192,110507,1,0,0:0:0:0:
64,192,110807,1,0,0:0:0:0:
192,192,110807,1,0,0:0:0:0:
64,192,111107,1,0,0:0:0:0:
192,192,111107,1,0,0:0:0:0:
192,192,118007,5,0,0:0:0:0:
320,192,118307,1,0,0:0:0:0:
64,192,118307,1,0,0:0:0:0:
448,192,118307,1,0,0:0:0:0:
192,192,118382,1,0,0:0:0:0:
320,192,118457,1,0,0:0:0:0:
64,192,118607,1,0,0:0:0:0:
192,192,118607,1,0,0:0:0:0:
448,192,118607,1,0,0:0:0:0:
320,192,118682,1,0,0:0:0:0:
192,192,118757,1,0,0:0:0:0:
320,192,118907,1,0,0:0:0:0:
448,192,118907,1,0,0:0:0:0:
192,192,118982,1,0,0:0:0:0:
64,192,119057,1,0,0:0:0:0:
320,192,119057,1,0,0:0:0:0:
448,192,119132,1,0,0:0:0:0:
64,192,119207,1,0,0:0:0:0:
192,192,119207,1,0,0:0:0:0:
320,192,119282,1,0,0:0:0:0:
448,192,119282,1,0,0:0:0:0:
192,192,119357,1,0,0:0:0:0:
64,192,119507,1,0,0:0:0:0:
320,192,119507,1,0,0:0:0:0:
192,192,119582,1,0,0:0:0:0:
448,192,119657,5,0,0:0:0:0:
320,192,119657,1,0,0:0:0:0:
192,192,119807,1,0,0:0:0:0:
320,192,119807,1,0,0:0:0:0:
64,192,119957,1,0,0:0:0:0:
192,192,119957,1,0,0:0:0:0:
320,192,120107,1,0,0:0:0:0:
448,192,120107,1,0,0:0:0:0:
192,192,120257,1,0,0:0:0:0:
64,192,120257,1,0,0:0:0:0:
320,192,120332,1,0,0:0:0:0:
192,192,120407,1,0,0:0:0:0:
64,192,120407,1,0,0:0:0:0:
448,192,120407,1,0,0:0:0:0:
192,192,120557,1,0,0:0:0:0:
320,192,120707,1,0,0:0:0:0:
448,192,120707,1,0,0:0:0:0:
64,192,120707,1,0,0:0:0:0:
320,192,120857,1,0,0:0:0:0:
192,192,121007,1,0,0:0:0:0:
320,192,121007,1,0,0:0:0:0:
448,192,121007,1,0,0:0:0:0:
448,192,121157,1,0,0:0:0:0:
64,192,121307,1,0,0:0:0:0:
192,192,121307,1,0,0:0:0:0:
448,192,121307,1,0,0:0:0:0:
64,192,121457,1,0,0:0:0:0:
320,192,121607,1,0,0:0:0:0:
448,192,121607,1,0,0:0:0:0:
192,192,121682,1,0,0:0:0:0:
64,192,121757,1,0,0:0:0:0:
320,192,121832,1,0,0:0:0:0:
64,192,121907,1,0,0:0:0:0:
192,192,121907,1,0,0:0:0:0:
448,192,121907,1,0,0:0:0:0:
320,192,122057,1,0,0:0:0:0:
192,192,122207,1,0,0:0:0:0:
64,192,122207,1,0,0:0:0:0:
320,192,122207,1,0,0:0:0:0:
192,192,122357,1,0,0:0:0:0:
448,192,122507,1,0,0:0:0:0:
320,192,122507,1,0,0:0:0:0:
192,192,122582,1,0,0:0:0:0:
64,192,122657,1,0,0:0:0:0:
320,192,122657,1,0,0:0:0:0:
448,192,122732,1,0,0:0:0:0:
192,192,122807,1,0,0:0:0:0:
64,192,122807,1,0,0:0:0:0:
448,192,122882,1,0,0:0:0:0:
320,192,122957,1,0,0:0:0:0:
192,192,123032,1,0,0:0:0:0:
64,192,123032,1,0,0:0:0:0:
320,192,123107,1,0,0:0:0:0:
448,192,123107,1,0,0:0:0:0:
192,192,123182,1,0,0:0:0:0:
64,192,123257,1,0,0:0:0:0:
320,192,123257,1,0,0:0:0:0:
448,192,123332,1,0,0:0:0:0:
320,192,123407,1,0,0:0:0:0:
192,192,123407,1,0,0:0:0:0:
320,192,123557,1,0,0:0:0:0:
448,192,123557,1,0,0:0:0:0:
192,192,123632,1,0,0:0:0:0:
64,192,123707,1,0,0:0:0:0:
320,192,123707,1,0,0:0:0:0:
448,192,123707,1,0,0:0:0:0:
320,192,123857,1,0,0:0:0:0:
192,192,124007,1,0,0:0:0:0:
64,192,124007,1,0,0:0:0:0:
320,192,124157,1,0,0:0:0:0:
448,192,124157,1,0,0:0:0:0:
192,192,124157,1,0,0:0:0:0:
448,192,124307,1,0,0:0:0:0:
320,192,124457,1,0,0:0:0:0:
192,192,124457,1,0,0:0:0:0:
64,192,124607,1,0,0:0:0:0:
192,192,124607,1,0,0:0:0:0:
448,192,124607,1,0,0:0:0:0:
64,192,124757,1,0,0:0:0:0:
320,192,124907,1,0,0:0:0:0:
448,192,124907,1,0,0:0:0:0:
64,192,125057,1,0,0:0:0:0:
192,192,125057,1,0,0:0:0:0:
320,192,125057,1,0,0:0:0:0:
320,192,125207,1,0,0:0:0:0:
192,192,125357,1,0,0:0:0:0:
320,192,125507,1,0,0:0:0:0:
448,192,125507,1,0,0:0:0:0:
64,192,125507,1,0,0:0:0:0:
64,192,125657,1,0,0:0:0:0:
192,192,125807,1,0,0:0:0:0:
320,192,125807,1,0,0:0:0:0:
448,192,125807,1,0,0:0:0:0:
320,192,125957,1,0,0:0:0:0:
192,192,126107,1,0,0:0:0:0:
64,192,126107,1,0,0:0:0:0:
448,192,126182,1,0,0:0:0:0:
320,192,126257,1,0,0:0:0:0:
64,192,126257,1,0,0:0:0:0:
192,192,126332,1,0,0:0:0:0:
320,192,126407,1,0,0:0:0:0:
448,192,126407,1,0,0:0:0:0:
64,192,126482,1,0,0:0:0:0:
192,192,126557,1,0,0:0:0:0:
320,192,126557,1,0,0:0:0:0:
320,192,126707,1,0,0:0:0:0:
448,192,126707,1,0,0:0:0:0:
64,192,126782,1,0,0:0:0:0:
320,192,126857,1,0,0:0:0:0:
448,192,126857,1,0,0:0:0:0:
192,192,126857,1,0,0:0:0:0:
192,192,127007,1,0,0:0:0:0:
64,192,127007,1,0,0:0:0:0:
448,192,127157,1,0,0:0:0:0:
192,192,127157,1,0,0:0:0:0:
320,192,127307,1,0,0:0:0:0:
448,192,127307,1,0,0:0:0:0:
192,192,127457,1,0,0:0:0:0:
64,192,127457,1,0,0:0:0:0:
320,192,127532,1,0,0:0:0:0:
192,192,127607,1,0,0:0:0:0:
64,192,127607,1,0,0:0:0:0:
448,192,127607,1,0,0:0:0:0:
320,192,127757,1,0,0:0:0:0:
320,192,127907,1,0,0:0:0:0:
448,192,127907,1,0,0:0:0:0:
64,192,127907,1,0,0:0:0:0:
192,192,128057,1,0,0:0:0:0:
192,192,128207,1,0,0:0:0:0:
320,192,128207,1,0,0:0:0:0:
448,192,128207,1,0,0:0:0:0:
320,192,128357,1,0,0:0:0:0:
192,192,128507,1,0,0:0:0:0:
64,192,128507,1,0,0:0:0:0:
448,192,128507,1,0,0:0:0:0:
320,192,128657,1,0,0:0:0:0:
320,192,128807,1,0,0:0:0:0:
448,192,128807,1,0,0:0:0:0:
192,192,128882,1,0,0:0:0:0:
64,192,128882,1,0,0:0:0:0:
320,192,128957,1,0,0:0:0:0:
448,192,128957,1,0,0:0:0:0:
192,192,129032,1,0,0:0:0:0:
320,192,129107,1,0,0:0:0:0:
448,192,129107,1,0,0:0:0:0:
64,192,129107,1,0,0:0:0:0:
192,192,129257,1,0,0:0:0:0:
192,192,129407,1,0,0:0:0:0:
320,192,129407,1,0,0:0:0:0:
448,192,129407,1,0,0:0:0:0:
64,192,129557,1,0,0:0:0:0:
320,192,129707,1,0,0:0:0:0:
448,192,129707,1,0,0:0:0:0:
64,192,129782,1,0,0:0:0:0:
192,192,129857,1,0,0:0:0:0:
320,192,129857,1,0,0:0:0:0:
448,192,129932,1,0,0:0:0:0:
192,192,130007,1,0,0:0:0:0:
64,192,130007,1,0,0:0:0:0:
448,192,130082,1,0,0:0:0:0:
320,192,130082,1,0,0:0:0:0:
64,192,130157,1,0,0:0:0:0:
192,192,130157,1,0,0:0:0:0:
448,192,130232,1,0,0:0:0:0:
320,192,130307,1,0,0:0:0:0:
192,192,130307,1,0,0:0:0:0:
64,192,130382,1,0,0:0:0:0:
320,192,130457,1,0,0:0:0:0:
448,192,130457,1,0,0:0:0:0:
192,192,130607,1,0,0:0:0:0:
64,192,130607,1,0,0:0:0:0:
320,192,130757,1,0,0:0:0:0:
448,192,130757,1,0,0:0:0:0:
192,192,130832,1,0,0:0:0:0:
320,192,130907,1,0,0:0:0:0:
448,192,130907,1,0,0:0:0:0:
64,192,130907,1,0,0:0:0:0:
192,192,131057,1,0,0:0:0:0:
64,192,131207,1,0,0:0:0:0:
192,192,131207,1,0,0:0:0:0:
192,192,131357,1,0,0:0:0:0:
320,192,131357,1,0,0:0:0:0:
448,192,131357,1,0,0:0:0:0:
320,192,131507,1,0,0:0:0:0:
192,192,131657,1,0,0:0:0:0:
64,192,131657,1,0,0:0:0:0:
320,192,131807,1,0,0:0:0:0:
448,192,131807,1,0,0:0:0:0:
64,192,131807,1,0,0:0:0:0:
448,192,131957,1,0,0:0:0:0:
192,192,132107,1,0,0:0:0:0:
320,192,132107,1,0,0:0:0:0:
64,192,132257,1,0,0:0:0:0:
192,192,132257,1,0,0:0:0:0:
448,192,132257,1,0,0:0:0:0:
320,192,132407,1,0,0:0:0:0:
448,192,132557,1,0,0:0:0:0:
64,192,132707,1,0,0:0:0:0:
192,192,132707,1,0,0:0:0:0:
320,192,132707,1,0,0:0:0:0:
192,192,132857,1,0,0:0:0:0:
192,192,133007,1,0,0:0:0:0:
320,192,133007,1,0,0:0:0:0:
448,192,133007,1,0,0:0:0:0:
320,192,133157,1,0,0:0:0:0:
64,192,133307,1,0,0:0:0:0:
192,192,133307,1,0,0:0:0:0:
448,192,133382,1,0,0:0:0:0:
192,192,133457,1,0,0:0:0:0:
320,192,133457,1,0,0:0:0:0:
64,192,133532,1,0,0:0:0:0:
320,192,133607,1,0,0:0:0:0:
448,192,133607,1,0,0:0:0:0:
192,192,133607,1,0,0:0:0:0:
64,192,133682,1,0,0:0:0:0:
320,192,133757,1,0,0:0:0:0:
448,192,133757,1,0,0:0:0:0:
192,192,133907,1,0,0:0:0:0:
64,192,133907,1,0,0:0:0:0:
320,192,133982,1,0,0:0:0:0:
192,192,134057,1,0,0:0:0:0:
64,192,134057,1,0,0:0:0:0:
448,192,134057,1,0,0:0:0:0:
320,192,134207,1,0,0:0:0:0:
448,192,134207,1,0,0:0:0:0:
192,192,134357,1,0,0:0:0:0:
320,192,134357,1,0,0:0:0:0:
192,192,134507,1,0,0:0:0:0:
64,192,134507,1,0,0:0:0:0:
320,192,134657,1,0,0:0:0:0:
448,192,134657,1,0,0:0:0:0:
192,192,134732,1,0,0:0:0:0:
448,192,134807,1,0,0:0:0:0:
320,192,134807,1,0,0:0:0:0:
64,192,134807,1,0,0:0:0:0:
192,192,134957,1,0,0:0:0:0:
64,192,135107,1,0,0:0:0:0:
192,192,135107,1,0,0:0:0:0:
448,192,135107,1,0,0:0:0:0:
320,192,135257,1,0,0:0:0:0:
192,192,135407,1,0,0:0:0:0:
320,192,135407,1,0,0:0:0:0:
448,192,135407,1,0,0:0:0:0:
448,192,135557,1,0,0:0:0:0:
64,192,135707,1,0,0:0:0:0:
192,192,135707,1,0,0:0:0:0:
320,192,135707,1,0,0:0:0:0:
320,192,135857,1,0,0:0:0:0:
64,192,136007,1,0,0:0:0:0:
192,192,136007,1,0,0:0:0:0:
320,192,136082,1,0,0:0:0:0:
448,192,136157,1,0,0:0:0:0:
192,192,136232,1,0,0:0:0:0:
320,192,136307,1,0,0:0:0:0:
448,192,136307,1,0,0:0:0:0:
64,192,136307,1,0,0:0:0:0:
320,192,136457,1,0,0:0:0:0:
64,192,136607,1,0,0:0:0:0:
192,192,136607,1,0,0:0:0:0:
448,192,136607,1,0,0:0:0:0:
192,192,136757,1,0,0:0:0:0:
320,192,136907,1,0,0:0:0:0:
448,192,136907,1,0,0:0:0:0:
64,192,136982,1,0,0:0:0:0:
192,192,137057,1,0,0:0:0:0:
320,192,137057,1,0,0:0:0:0:
448,192,137132,1,0,0:0:0:0:
64,192,137207,1,0,0:0:0:0:
192,192,137207,1,0,0:0:0:0:
320,192,137282,1,0,0:0:0:0:
448,192,137357,1,0,0:0:0:0:
192,192,137357,1,0,0:0:0:0:
64,192,137432,1,0,0:0:0:0:
320,192,137507,1,0,0:0:0:0:
448,192,137507,1,0,0:0:0:0:
192,192,137582,1,0,0:0:0:0:
320,192,137657,1,0,0:0:0:0:
448,192,137657,1,0,0:0:0:0:
64,192,137657,1,0,0:0:0:0:
192,192,137807,1,0,0:0:0:0:
64,192,137807,1,0,0:0:0:0:
448,192,137957,1,0,0:0:0:0:
320,192,137957,1,0,0:0:0:0:
192,192,138032,1,0,0:0:0:0:
64,192,138107,1,0,0:0:0:0:
320,192,138107,1,0,0:0:0:0:
448,192,138107,1,0,0:0:0:0:
320,192,138257,1,0,0:0:0:0:
192,192,138407,1,0,0:0:0:0:
64,192,138407,1,0,0:0:0:0:
192,192,138557,1,0,0:0:0:0:
320,192,138557,1,0,0:0:0:0:
448,192,138557,1,0,0:0:0:0:
448,192,138707,1,0,0:0:0:0:
192,192,138857,1,0,0:0:0:0:
320,192,138857,1,0,0:0:0:0:
64,192,139007,1,0,0:0:0:0:
192,192,139007,1,0,0:0:0:0:
448,192,139007,1,0,0:0:0:0:
320,192,139157,1,0,0:0:0:0:
64,192,139307,1,0,0:0:0:0:
192,192,139307,1,0,0:0:0:0:
320,192,139457,1,0,0:0:0:0:
448,192,139457,1,0,0:0:0:0:
64,192,139457,1,0,0:0:0:0:
192,192,139607,1,0,0:0:0:0:
320,192,139757,1,0,0:0:0:0:
64,192,139907,1,0,0:0:0:0:
320,192,139907,1,0,0:0:0:0:
192,192,139907,1,0,0:0:0:0:
448,192,140057,1,0,0:0:0:0:
192,192,140207,1,0,0:0:0:0:
320,192,140207,1,0,0:0:0:0:
448,192,140207,1,0,0:0:0:0:
192,192,140357,1,0,0:0:0:0:
192,192,140507,1,0,0:0:0:0:
64,192,140507,1,0,0:0:0:0:
448,192,140582,1,0,0:0:0:0:
192,192,140657,1,0,0:0:0:0:
320,192,140657,1,0,0:0:0:0:
64,192,140732,1,0,0:0:0:0:
320,192,140807,1,0,0:0:0:0:
448,192,140807,1,0,0:0:0:0:
192,192,140882,1,0,0:0:0:0:
320,192,140957,1,0,0:0:0:0:
64,192,140957,1,0,0:0:0:0:
320,192,141107,1,0,0:0:0:0:
448,192,141107,1,0,0:0:0:0:
192,192,141182,1,0,0:0:0:0:
320,192,141257,1,0,0:0:0:0:
448,192,141257,1,0,0:0:0:0:
64,192,141257,1,0,0:0:0:0:
192,192,141407,1,0,0:0:0:0:
64,192,141407,1,0,0:0:0:0:
320,192,141557,1,0,0:0:0:0:
448,192,141557,1,0,0:0:0:0:
64,192,141707,1,0,0:0:0:0:
192,192,141707,1,0,0:0:0:0:
448,192,141857,1,0,0:0:0:0:
320,192,141857,1,0,0:0:0:0:
192,192,141932,1,0,0:0:0:0:
320,192,142007,1,0,0:0:0:0:
448,192,142007,1,0,0:0:0:0:
64,192,142007,1,0,0:0:0:0:
320,192,142157,1,0,0:0:0:0:
64,192,142307,1,0,0:0:0:0:
192,192,142307,1,0,0:0:0:0:
448,192,142307,1,0,0:0:0:0:
192,192,142457,1,0,0:0:0:0:
192,192,142607,1,0,0:0:0:0:
320,192,142607,1,0,0:0:0:0:
448,192,142607,1,0,0:0:0:0:
448,192,142757,1,0,0:0:0:0:
64,192,142907,1,0,0:0:0:0:
192,192,142907,1,0,0:0:0:0:
320,192,142907,1,0,0:0:0:0:
64,192,143057,1,0,0:0:0:0:
320,192,143207,1,0,0:0:0:0:
448,192,143207,1,0,0:0:0:0:
192,192,143282,1,0,0:0:0:0:
64,192,143282,1,0,0:0:0:0:
320,192,143357,1,0,0:0:0:0:
448,192,143357,1,0,0:0:0:0:
192,192,143432,1,0,0:0:0:0:
320,192,143507,1,0,0:0:0:0:
448,192,143507,1,0,0:0:0:0:
64,192,143507,1,0,0:0:0:0:
192,192,143657,1,0,0:0:0:0:
320,192,143807,1,0,0:0:0:0:
192,192,143807,1,0,0:0:0:0:
448,192,143807,1,0,0:0:0:0:
64,192,143957,1,0,0:0:0:0:
320,192,144107,1,0,0:0:0:0:
448,192,144107,1,0,0:0:0:0:
64,192,144182,1,0,0:0:0:0:
192,192,144257,1,0,0:0:0:0:
448,192,144257,1,0,0:0:0:0:
320,192,144332,1,0,0:0:0:0:
64,192,144407,1,0,0:0:0:0:
192,192,144407,1,0,0:0:0:0:
448,192,144407,1,0,0:0:0:0:
320,192,144482,1,0,0:0:0:0:
192,192,144557,1,0,0:0:0:0:
64,192,144557,1,0,0:0:0:0:
448,192,144632,1,0,0:0:0:0:
192,192,144707,1,0,0:0:0:0:
64,192,144707,1,0,0:0:0:0:
320,192,144782,1,0,0:0:0:0:
192,192,144857,1,0,0:0:0:0:
64,192,144857,1,0,0:0:0:0:
448,192,144857,1,0,0:0:0:0:
320,192,145007,1,0,0:0:0:0:
448,192,145007,1,0,0:0:0:0:
64,192,145157,1,0,0:0:0:0:
192,192,145157,1,0,0:0:0:0:
320,192,145232,1,0,0:0:0:0:
64,192,145307,1,0,0:0:0:0:
192,192,145307,1,0,0:0:0:0:
448,192,145307,1,0,0:0:0:0:
320,192,145457,1,0,0:0:0:0:
192,192,145607,1,0,0:0:0:0:
64,192,145607,1,0,0:0:0:0:
192,192,145757,1,0,0:0:0:0:
320,192,145757,1,0,0:0:0:0:
448,192,145757,1,0,0:0:0:0:
64,192,145907,1,0,0:0:0:0:
320,192,146057,1,0,0:0:0:0:
448,192,146057,1,0,0:0:0:0:
64,192,146207,1,0,0:0:0:0:
192,192,146207,1,0,0:0:0:0:
320,192,146207,1,0,0:0:0:0:
448,192,146357,1,0,0:0:0:0:
192,192,146507,128,0,146732:0:0:0:0:
320,192,146807,1,0,0:0:0:0:
448,192,146807,1,0,0:0:0:0:
64,192,146807,1,0,0:0:0:0:
64,192,147107,1,0,0:0:0:0:
320,192,147107,1,0,0:0:0:0:
448,192,147107,1,0,0:0:0:0:
192,192,147257,1,0,0:0:0:0:
64,192,147407,1,0,0:0:0:0:
192,192,147407,1,0,0:0:0:0:
320,192,147407,1,0,0:0:0:0:
448,192,147557,1,0,0:0:0:0:
64,192,147707,1,0,0:0:0:0:
192,192,147707,1,0,0:0:0:0:
448,192,147707,1,0,0:0:0:0:
320,192,147857,1,0,0:0:0:0:
192,192,148007,1,0,0:0:0:0:
320,192,148007,1,0,0:0:0:0:
448,192,148007,1,0,0:0:0:0:
320,192,148157,1,0,0:0:0:0:
64,192,148307,1,0,0:0:0:0:
192,192,148307,1,0,0:0:0:0:
448,192,148307,1,0,0:0:0:0:
320,192,148457,1,0,0:0:0:0:
192,192,148607,1,0,0:0:0:0:
320,192,148607,1,0,0:0:0:0:
448,192,148607,1,0,0:0:0:0:
192,192,148757,1,0,0:0:0:0:
320,192,148907,1,0,0:0:0:0:
448,192,148907,1,0,0:0:0:0:
64,192,148907,1,0,0:0:0:0:
320,192,149057,1,0,0:0:0:0:
64,192,149207,1,0,0:0:0:0:
192,192,149207,1,0,0:0:0:0:
448,192,149207,1,0,0:0:0:0:
320,192,149357,1,0,0:0:0:0:
192,192,149507,1,0,0:0:0:0:
64,192,149507,1,0,0:0:0:0:
320,192,149507,1,0,0:0:0:0:
448,192,149657,1,0,0:0:0:0:
192,192,149807,1,0,0:0:0:0:
320,192,149807,1,0,0:0:0:0:
448,192,149807,1,0,0:0:0:0:
64,192,149957,1,0,0:0:0:0:
64,192,150107,1,0,0:0:0:0:
192,192,150107,1,0,0:0:0:0:
320,192,150257,1,0,0:0:0:0:
448,192,150257,1,0,0:0:0:0:
192,192,150407,1,0,0:0:0:0:
64,192,150407,1,0,0:0:0:0:
320,192,150557,1,0,0:0:0:0:
448,192,150557,1,0,0:0:0:0:
192,192,150707,1,0,0:0:0:0:
64,192,150707,1,0,0:0:0:0:
448,192,150707,1,0,0:0:0:0:
64,192,151007,1,0,0:0:0:0:
192,192,151007,1,0,0:0:0:0:
448,192,151007,1,0,0:0:0:0:
320,192,151307,1,0,0:0:0:0:
448,192,151307,1,0,0:0:0:0:
64,192,151307,1,0,0:0:0:0:
320,192,151607,1,0,0:0:0:0:
448,192,151607,1,0,0:0:0:0:
192,192,151607,1,0,0:0:0:0:
64,192,151682,1,0,0:0:0:0:
448,192,151757,1,0,0:0:0:0:
320,192,151757,1,0,0:0:0:0:
192,192,151832,1,0,0:0:0:0:
64,192,151907,1,0,0:0:0:0:
320,192,151907,1,0,0:0:0:0:
448,192,151907,1,0,0:0:0:0:
192,192,151982,1,0,0:0:0:0:
320,192,152057,1,0,0:0:0:0:
64,192,152132,1,0,0:0:0:0:
192,192,152207,1,0,0:0:0:0:
320,192,152207,1,0,0:0:0:0:
448,192,152207,1,0,0:0:0:0:
64,192,152282,1,0,0:0:0:0:
448,192,152357,1,0,0:0:0:0:
192,192,152357,1,0,0:0:0:0:
320,192,152432,1,0,0:0:0:0:
64,192,152507,1,0,0:0:0:0:
192,192,152507,1,0,0:0:0:0:
448,192,152507,1,0,0:0:0:0:
320,192,152657,1,0,0:0:0:0:
192,192,152807,1,0,0:0:0:0:
320,192,152807,1,0,0:0:0:0:
448,192,152807,1,0,0:0:0:0:
192,192,152957,1,0,0:0:0:0:
64,192,153107,1,0,0:0:0:0:
192,192,153107,1,0,0:0:0:0:
320,192,153107,1,0,0:0:0:0:
320,192,153257,1,0,0:0:0:0:
64,192,153407,1,0,0:0:0:0:
192,192,153407,1,0,0:0:0:0:
448,192,153557,1,0,0:0:0:0:
320,192,153557,1,0,0:0:0:0:
320,192,153707,1,0,0:0:0:0:
192,192,153707,1,0,0:0:0:0:
64,192,153782,1,0,0:0:0:0:
320,192,153857,1,0,0:0:0:0:
448,192,153857,1,0,0:0:0:0:
192,192,153932,1,0,0:0:0:0:
64,192,154007,1,0,0:0:0:0:
320,192,154007,1,0,0:0:0:0:
448,192,154007,1,0,0:0:0:0:
64,192,154157,1,0,0:0:0:0:
192,192,154157,1,0,0:0:0:0:
64,192,154307,1,0,0:0:0:0:
192,192,154307,1,0,0:0:0:0:
448,192,154307,1,0,0:0:0:0:
192,192,154457,1,0,0:0:0:0:
320,192,154457,1,0,0:0:0:0:
320,192,154607,1,0,0:0:0:0:
448,192,154607,1,0,0:0:0:0:
64,192,154607,1,0,0:0:0:0:
192,192,154757,1,0,0:0:0:0:
320,192,154757,1,0,0:0:0:0:
64,192,154907,1,0,0:0:0:0:
192,192,154907,1,0,0:0:0:0:
320,192,154907,1,0,0:0:0:0:
192,192,155057,1,0,0:0:0:0:
320,192,155057,1,0,0:0:0:0:
192,192,155207,1,0,0:0:0:0:
320,192,155207,1,0,0:0:0:0:
448,192,155207,1,0,0:0:0:0:
192,192,155357,1,0,0:0:0:0:
320,192,155357,1,0,0:0:0:0:
320,192,155507,1,0,0:0:0:0:
448,192,155507,1,0,0:0:0:0:
64,192,155507,1,0,0:0:0:0:
192,192,155657,1,0,0:0:0:0:
448,192,155657,1,0,0:0:0:0:
64,192,155807,1,0,0:0:0:0:
192,192,155807,1,0,0:0:0:0:
448,192,155807,1,0,0:0:0:0:
64,192,155957,1,0,0:0:0:0:
320,192,155957,1,0,0:0:0:0:
320,192,156107,1,0,0:0:0:0:
192,192,156107,1,0,0:0:0:0:
448,192,156107,1,0,0:0:0:0:
320,192,156257,1,0,0:0:0:0:
448,192,156257,1,0,0:0:0:0:
192,192,156407,1,0,0:0:0:0:
64,192,156407,1,0,0:0:0:0:
320,192,156407,1,0,0:0:0:0:
64,192,156557,1,0,0:0:0:0:
192,192,156557,1,0,0:0:0:0:
448,192,156707,1,0,0:0:0:0:
320,192,156707,1,0,0:0:0:0:
64,192,156707,1,0,0:0:0:0:
192,192,156857,1,0,0:0:0:0:
320,192,156857,1,0,0:0:0:0:
64,192,157007,1,0,0:0:0:0:
192,192,157007,1,0,0:0:0:0:
448,192,157007,1,0,0:0:0:0:
320,192,157157,1,0,0:0:0:0:
448,192,157157,1,0,0:0:0:0:
64,192,157307,1,0,0:0:0:0:
192,192,157307,1,0,0:0:0:0:
320,192,157307,1,0,0:0:0:0:
64,192,157457,1,0,0:0:0:0:
448,192,157457,1,0,0:0:0:0:
192,192,157607,1,0,0:0:0:0:
320,192,157607,1,0,0:0:0:0:
448,192,157607,1,0,0:0:0:0:
64,192,157757,1,0,0:0:0:0:
192,192,157757,1,0,0:0:0:0:
320,192,157832,1,0,0:0:0:0:
192,192,157907,1,0,0:0:0:0:
64,192,157907,1,0,0:0:0:0:
448,192,157907,1,0,0:0:0:0:
448,192,158057,1,0,0:0:0:0:
320,192,158057,1,0,0:0:0:0:
320,192,158207,1,0,0:0:0:0:
64,192,158207,1,0,0:0:0:0:
192,192,158207,1,0,0:0:0:0:
320,192,158357,1,0,0:0:0:0:
192,192,158357,1,0,0:0:0:0:
192,192,158507,1,0,0:0:0:0:
320,192,158507,1,0,0:0:0:0:
448,192,158507,1,0,0:0:0:0:
64,192,158657,1,0,0:0:0:0:
192,192,158657,1,0,0:0:0:0:
320,192,158807,1,0,0:0:0:0:
448,192,158807,1,0,0:0:0:0:
64,192,158807,1,0,0:0:0:0:
192,192,158882,1,0,0:0:0:0:
64,192,158957,1,0,0:0:0:0:
320,192,159032,1,0,0:0:0:0:
192,192,159107,1,0,0:0:0:0:
64,192,159107,1,0,0:0:0:0:
448,192,159107,1,0,0:0:0:0:
320,192,159182,1,0,0:0:0:0:
448,192,159257,1,0,0:0:0:0:
192,192,159332,1,0,0:0:0:0:
320,192,159407,1,0,0:0:0:0:
448,192,159407,1,0,0:0:0:0:
64,192,159407,1,0,0:0:0:0:
192,192,159557,1,0,0:0:0:0:
192,192,159707,1,0,0:0:0:0:
320,192,159707,1,0,0:0:0:0:
448,192,159707,1,0,0:0:0:0:
64,192,159857,1,0,0:0:0:0:
320,192,159857,1,0,0:0:0:0:
192,192,160007,1,0,0:0:0:0:
320,192,160007,1,0,0:0:0:0:
448,192,160007,1,0,0:0:0:0:
192,192,160157,1,0,0:0:0:0:
64,192,160307,1,0,0:0:0:0:
192,192,160307,1,0,0:0:0:0:
448,192,160307,1,0,0:0:0:0:
320,192,160457,1,0,0:0:0:0:
320,192,160607,1,0,0:0:0:0:
448,192,160607,1,0,0:0:0:0:
64,192,160607,1,0,0:0:0:0:
64,192,160757,1,0,0:0:0:0:
192,192,160757,1,0,0:0:0:0:
192,192,160907,1,0,0:0:0:0:
320,192,160907,1,0,0:0:0:0:
448,192,160907,1,0,0:0:0:0:
64,192,160982,1,0,0:0:0:0:
320,192,161057,1,0,0:0:0:0:
448,192,161057,1,0,0:0:0:0:
192,192,161132,1,0,0:0:0:0:
64,192,161207,1,0,0:0:0:0:
448,192,161207,1,0,0:0:0:0:
320,192,161282,1,0,0:0:0:0:
192,192,161357,1,0,0:0:0:0:
64,192,161357,1,0,0:0:0:0:
320,192,161432,1,0,0:0:0:0:
192,192,161507,1,0,0:0:0:0:
64,192,161507,1,0,0:0:0:0:
320,192,161582,1,0,0:0:0:0:
448,192,161657,1,0,0:0:0:0:
192,192,161657,1,0,0:0:0:0:
64,192,161732,1,0,0:0:0:0:
320,192,161807,1,0,0:0:0:0:
192,192,161807,1,0,0:0:0:0:
448,192,161882,1,0,0:0:0:0:
192,192,161957,1,0,0:0:0:0:
64,192,161957,1,0,0:0:0:0:
320,192,162032,1,0,0:0:0:0:
192,192,162107,1,0,0:0:0:0:
448,192,162107,1,0,0:0:0:0:
64,192,162182,1,0,0:0:0:0:
192,192,162257,1,0,0:0:0:0:
320,192,162257,1,0,0:0:0:0:
448,192,162332,1,0,0:0:0:0:
64,192,162407,1,0,0:0:0:0:
320,192,162407,1,0,0:0:0:0:
192,192,162482,1,0,0:0:0:0:
320,192,162557,1,0,0:0:0:0:
448,192,162557,1,0,0:0:0:0:
64,192,162632,1,0,0:0:0:0:
192,192,162707,1,0,0:0:0:0:
320,192,162707,1,0,0:0:0:0:
448,192,162782,1,0,0:0:0:0:
64,192,162857,1,0,0:0:0:0:
192,192,162857,1,0,0:0:0:0:
320,192,162932,1,0,0:0:0:0:
192,192,163007,1,0,0:0:0:0:
448,192,163007,1,0,0:0:0:0:
64,192,163082,1,0,0:0:0:0:
320,192,163157,1,0,0:0:0:0:
448,192,163157,1,0,0:0:0:0:
192,192,163232,1,0,0:0:0:0:
320,192,163307,1,0,0:0:0:0:
64,192,163307,1,0,0:0:0:0:
448,192,163382,1,0,0:0:0:0:
320,192,163457,1,0,0:0:0:0:
192,192,163457,1,0,0:0:0:0:
64,192,163532,1,0,0:0:0:0:
320,192,163607,1,0,0:0:0:0:
448,192,163607,1,0,0:0:0:0:
192,192,163682,1,0,0:0:0:0:
64,192,163757,1,0,0:0:0:0:
320,192,163757,1,0,0:0:0:0:
448,192,163832,1,0,0:0:0:0:
64,192,163907,1,0,0:0:0:0:
192,192,163907,1,0,0:0:0:0:
320,192,163982,1,0,0:0:0:0:
192,192,164057,1,0,0:0:0:0:
448,192,164057,1,0,0:0:0:0:
64,192,164132,1,0,0:0:0:0:
320,192,164207,1,0,0:0:0:0:
192,192,164207,1,0,0:0:0:0:
448,192,164282,1,0,0:0:0:0:
192,192,164357,1,0,0:0:0:0:
320,192,164357,1,0,0:0:0:0:
64,192,164432,1,0,0:0:0:0:
192,192,164507,1,0,0:0:0:0:
320,192,164507,1,0,0:0:0:0:
448,192,164507,1,0,0:0:0:0:
64,192,164657,1,0,0:0:0:0:
192,192,164657,1,0,0:0:0:0:
320,192,164807,1,0,0:0:0:0:
448,192,164807,1,0,0:0:0:0:
192,192,164957,1,0,0:0:0:0:
64,192,164957,1,0,0:0:0:0:
320,192,165032,1,0,0:0:0:0:
64,192,165107,1,0,0:0:0:0:
192,192,165107,1,0,0:0:0:0:
320,192,165182,1,0,0:0:0:0:
192,192,165257,1,0,0:0:0:0:
448,192,165257,1,0,0:0:0:0:
64,192,165332,1,0,0:0:0:0:
192,192,165407,1,0,0:0:0:0:
320,192,165407,1,0,0:0:0:0:
448,192,165482,1,0,0:0:0:0:
64,192,165557,1,0,0:0:0:0:
320,192,165557,1,0,0:0:0:0:
192,192,165632,1,0,0:0:0:0:
320,192,165707,1,0,0:0:0:0:
448,192,165707,1,0,0:0:0:0:
64,192,165782,1,0,0:0:0:0:
320,192,165857,1,0,0:0:0:0:
192,192,165857,1,0,0:0:0:0:
448,192,165932,1,0,0:0:0:0:
64,192,166007,1,0,0:0:0:0:
192,192,166007,1,0,0:0:0:0:
320,192,166082,1,0,0:0:0:0:
192,192,166157,1,0,0:0:0:0:
448,192,166157,1,0,0:0:0:0:
64,192,166232,1,0,0:0:0:0:
448,192,166307,1,0,0:0:0:0:
320,192,166307,1,0,0:0:0:0:
64,192,166382,1,0,0:0:0:0:
192,192,166457,1,0,0:0:0:0:
448,192,166457,1,0,0:0:0:0:
320,192,166532,1,0,0:0:0:0:
192,192,166607,1,0,0:0:0:0:
64,192,166607,1,0,0:0:0:0:
448,192,166682,1,0,0:0:0:0:
192,192,166757,1,0,0:0:0:0:
320,192,166757,1,0,0:0:0:0:
64,192,166832,1,0,0:0:0:0:
320,192,166907,1,0,0:0:0:0:
448,192,166907,1,0,0:0:0:0:
192,192,166982,1,0,0:0:0:0:
64,192,167057,1,0,0:0:0:0:
320,192,167057,1,0,0:0:0:0:
448,192,167132,1,0,0:0:0:0:
192,192,167207,1,0,0:0:0:0:
320,192,167207,1,0,0:0:0:0:
64,192,167282,1,0,0:0:0:0:
192,192,167357,1,0,0:0:0:0:
448,192,167357,1,0,0:0:0:0:
320,192,167432,1,0,0:0:0:0:
64,192,167507,1,0,0:0:0:0:
192,192,167507,1,0,0:0:0:0:
320,192,167582,1,0,0:0:0:0:
64,192,167657,1,0,0:0:0:0:
448,192,167657,1,0,0:0:0:0:
192,192,167732,1,0,0:0:0:0:
320,192,167807,1,0,0:0:0:0:
448,192,167807,1,0,0:0:0:0:
192,192,167882,1,0,0:0:0:0:
448,192,167957,1,0,0:0:0:0:
320,192,167957,1,0,0:0:0:0:
64,192,168032,1,0,0:0:0:0:
192,192,168032,1,0,0:0:0:0:
320,192,168107,1,0,0:0:0:0:
448,192,168107,1,0,0:0:0:0:
192,192,168182,1,0,0:0:0:0:
64,192,168257,1,0,0:0:0:0:
320,192,168257,1,0,0:0:0:0:
448,192,168332,1,0,0:0:0:0:
192,192,168407,1,0,0:0:0:0:
320,192,168407,1,0,0:0:0:0:
448,192,168482,1,0,0:0:0:0:
64,192,168557,1,0,0:0:0:0:
192,192,168557,1,0,0:0:0:0:
320,192,168632,1,0,0:0:0:0:
64,192,168707,1,0,0:0:0:0:
192,192,168707,1,0,0:0:0:0:
448,192,168707,1,0,0:0:0:0:
320,192,168782,1,0,0:0:0:0:
192,192,168857,1,0,0:0:0:0:
64,192,168857,1,0,0:0:0:0:
320,192,168932,1,0,0:0:0:0:
192,192,169007,1,0,0:0:0:0:
448,192,169007,1,0,0:0:0:0:
64,192,169082,1,0,0:0:0:0:
320,192,169157,1,0,0:0:0:0:
448,192,169157,1,0,0:0:0:0:
64,192,169232,1,0,0:0:0:0:
192,192,169307,1,0,0:0:0:0:
320,192,169307,1,0,0:0:0:0:
448,192,169382,1,0,0:0:0:0:
64,192,169457,1,0,0:0:0:0:
320,192,169457,1,0,0:0:0:0:
192,192,169532,1,0,0:0:0:0:
320,192,169607,1,0,0:0:0:0:
448,192,169607,1,0,0:0:0:0:
64,192,169682,1,0,0:0:0:0:
192,192,169757,1,0,0:0:0:0:
320,192,169757,1,0,0:0:0:0:
448,192,169832,1,0,0:0:0:0:
64,192,169907,1,0,0:0:0:0:
192,192,169907,1,0,0:0:0:0:
448,192,169982,1,0,0:0:0:0:
192,192,170057,1,0,0:0:0:0:
320,192,170057,1,0,0:0:0:0:
64,192,170132,1,0,0:0:0:0:
448,192,170207,1,0,0:0:0:0:
320,192,170207,1,0,0:0:0:0:
192,192,170282,1,0,0:0:0:0:
64,192,170357,1,0,0:0:0:0:
320,192,170357,1,0,0:0:0:0:
448,192,170432,1,0,0:0:0:0:
64,192,170507,1,0,0:0:0:0:
192,192,170507,1,0,0:0:0:0:
320,192,170582,1,0,0:0:0:0:
192,192,170657,1,0,0:0:0:0:
448,192,170657,1,0,0:0:0:0:
64,192,170732,1,0,0:0:0:0:
192,192,170807,1,0,0:0:0:0:
320,192,170807,1,0,0:0:0:0:
448,192,170882,1,0,0:0:0:0:
64,192,170957,1,0,0:0:0:0:
192,192,170957,1,0,0:0:0:0:
320,192,171032,1,0,0:0:0:0:
64,192,171107,1,0,0:0:0:0:
448,192,171107,1,0,0:0:0:0:
192,192,171182,1,0,0:0:0:0:
320,192,171257,1,0,0:0:0:0:
448,192,171257,1,0,0:0:0:0:
192,192,171332,1,0,0:0:0:0:
64,192,171407,1,0,0:0:0:0:
320,192,171407,1,0,0:0:0:0:
448,192,171482,1,0,0:0:0:0:
192,192,171557,1,0,0:0:0:0:
320,192,171557,1,0,0:0:0:0:
64,192,171632,1,0,0:0:0:0:
320,192,171707,1,0,0:0:0:0:
448,192,171707,1,0,0:0:0:0:
64,192,171857,1,0,0:0:0:0:
192,192,171857,1,0,0:0:0:0:
320,192,172007,1,0,0:0:0:0:
448,192,172007,1,0,0:0:0:0:
64,192,172157,1,0,0:0:0:0:
192,192,172157,1,0,0:0:0:0:
320,192,172307,1,0,0:0:0:0:
448,192,172307,1,0,0:0:0:0:
64,192,172307,1,0,0:0:0:0:
192,192,172382,1,0,0:0:0:0:
320,192,172457,1,0,0:0:0:0:
448,192,172457,1,0,0:0:0:0:
64,192,172607,1,0,0:0:0:0:
192,192,172607,1,0,0:0:0:0:
448,192,172607,1,0,0:0:0:0:
320,192,172682,1,0,0:0:0:0:
192,192,172757,1,0,0:0:0:0:
64,192,172757,1,0,0:0:0:0:
320,192,172907,1,0,0:0:0:0:
448,192,172907,1,0,0:0:0:0:
64,192,172907,1,0,0:0:0:0:
192,192,172982,1,0,0:0:0:0:
320,192,173057,1,0,0:0:0:0:
448,192,173057,1,0,0:0:0:0:
64,192,173132,1,0,0:0:0:0:
192,192,173207,1,0,0:0:0:0:
320,192,173207,1,0,0:0:0:0:
448,192,173282,1,0,0:0:0:0:
64,192,173357,1,0,0:0:0:0:
192,192,173357,1,0,0:0:0:0:
320,192,173432,1,0,0:0:0:0:
192,192,173507,1,0,0:0:0:0:
448,192,173507,1,0,0:0:0:0:
64,192,173582,1,0,0:0:0:0:
320,192,173657,1,0,0:0:0:0:
448,192,173657,1,0,0:0:0:0:
192,192,173732,1,0,0:0:0:0:
64,192,173807,1,0,0:0:0:0:
320,192,173807,1,0,0:0:0:0:
448,192,173882,1,0,0:0:0:0:
64,192,173957,1,0,0:0:0:0:
192,192,173957,1,0,0:0:0:0:
448,192,174032,1,0,0:0:0:0:
192,192,174107,1,0,0:0:0:0:
320,192,174107,1,0,0:0:0:0:
64,192,174182,1,0,0:0:0:0:
320,192,174257,1,0,0:0:0:0:
448,192,174257,1,0,0:0:0:0:
192,192,174332,1,0,0:0:0:0:
64,192,174407,1,0,0:0:0:0:
320,192,174407,1,0,0:0:0:0:
448,192,174482,1,0,0:0:0:0:
64,192,174557,1,0,0:0:0:0:
192,192,174557,1,0,0:0:0:0:
320,192,174632,1,0,0:0:0:0:
192,192,174707,1,0,0:0:0:0:
448,192,174707,1,0,0:0:0:0:
64,192,174782,1,0,0:0:0:0:
192,192,174857,1,0,0:0:0:0:
320,192,174857,1,0,0:0:0:0:
448,192,174932,1,0,0:0:0:0:
64,192,175007,1,0,0:0:0:0:
192,192,175007,1,0,0:0:0:0:
320,192,175007,1,0,0:0:0:0:
448,192,175082,1,0,0:0:0:0:
64,192,175157,1,0,0:0:0:0:
192,192,175157,1,0,0:0:0:0:
320,192,175232,1,0,0:0:0:0:
192,192,175307,1,0,0:0:0:0:
64,192,175307,1,0,0:0:0:0:
448,192,175307,1,0,0:0:0:0:
320,192,175382,1,0,0:0:0:0:
64,192,175457,1,0,0:0:0:0:
448,192,175457,1,0,0:0:0:0:
192,192,175532,1,0,0:0:0:0:
320,192,175607,1,0,0:0:0:0:
448,192,175607,1,0,0:0:0:0:
64,192,175607,1,0,0:0:0:0:
192,192,175682,1,0,0:0:0:0:
320,192,175757,1,0,0:0:0:0:
448,192,175757,1,0,0:0:0:0:
64,192,175832,1,0,0:0:0:0:
320,192,175907,1,0,0:0:0:0:
448,192,175907,1,0,0:0:0:0:
192,192,175907,1,0,0:0:0:0:
192,192,176057,1,0,0:0:0:0:
320,192,176057,1,0,0:0:0:0:
64,192,176207,1,0,0:0:0:0:
192,192,176207,1,0,0:0:0:0:
320,192,176207,1,0,0:0:0:0:
320,192,176357,1,0,0:0:0:0:
448,192,176357,1,0,0:0:0:0:
320,192,176507,1,0,0:0:0:0:
448,192,176507,1,0,0:0:0:0:
64,192,176507,1,0,0:0:0:0:
64,192,176657,1,0,0:0:0:0:
192,192,176657,1,0,0:0:0:0:
192,192,176807,1,0,0:0:0:0:
64,192,176807,1,0,0:0:0:0:
448,192,176807,1,0,0:0:0:0:
192,192,176957,1,0,0:0:0:0:
448,192,176957,1,0,0:0:0:0:
192,192,177107,1,0,0:0:0:0:
64,192,177107,1,0,0:0:0:0:
448,192,177107,1,0,0:0:0:0:
64,192,177257,1,0,0:0:0:0:
448,192,177257,1,0,0:0:0:0:
192,192,177332,1,0,0:0:0:0:
320,192,177407,1,0,0:0:0:0:
192,192,177482,1,0,0:0:0:0:
64,192,177482,1,0,0:0:0:0:
320,192,177557,1,0,0:0:0:0:
448,192,177557,1,0,0:0:0:0:
64,192,177707,1,0,0:0:0:0:
192,192,177707,1,0,0:0:0:0:
320,192,177707,1,0,0:0:0:0:
320,192,177857,1,0,0:0:0:0:
448,192,177857,1,0,0:0:0:0:
192,192,178007,1,0,0:0:0:0:
320,192,178007,1,0,0:0:0:0:
448,192,178007,1,0,0:0:0:0:
64,192,178157,1,0,0:0:0:0:
192,192,178157,1,0,0:0:0:0:
320,192,178307,1,0,0:0:0:0:
448,192,178307,1,0,0:0:0:0:
64,192,178307,1,0,0:0:0:0:
192,192,178457,1,0,0:0:0:0:
320,192,178457,1,0,0:0:0:0:
64,192,178607,1,0,0:0:0:0:
192,192,178607,1,0,0:0:0:0:
448,192,178607,1,0,0:0:0:0:
192,192,178757,1,0,0:0:0:0:
320,192,178757,1,0,0:0:0:0:
64,192,178907,1,0,0:0:0:0:
192,192,178907,1,0,0:0:0:0:
320,192,178907,1,0,0:0:0:0:
448,192,179057,1,0,0:0:0:0:
320,192,179057,1,0,0:0:0:0:
192,192,179132,1,0,0:0:0:0:
448,192,179207,1,0,0:0:0:0:
64,192,179207,1,0,0:0:0:0:
320,192,179207,1,0,0:0:0:0:
192,192,179282,1,0,0:0:0:0:
64,192,179357,1,0,0:0:0:0:
192,192,179432,1,0,0:0:0:0:
64,192,179507,1,0,0:0:0:0:
320,192,179507,1,0,0:0:0:0:
448,192,179507,1,0,0:0:0:0:
320,192,179657,1,0,0:0:0:0:
192,192,179657,1,0,0:0:0:0:
320,192,179807,1,0,0:0:0:0:
64,192,179807,1,0,0:0:0:0:
192,192,179807,1,0,0:0:0:0:
320,192,179957,1,0,0:0:0:0:
448,192,179957,1,0,0:0:0:0:
64,192,180107,1,0,0:0:0:0:
192,192,180107,1,0,0:0:0:0:
448,192,180107,1,0,0:0:0:0:
192,192,180257,1,0,0:0:0:0:
320,192,180257,1,0,0:0:0:0:
320,192,180407,1,0,0:0:0:0:
448,192,180407,1,0,0:0:0:0:
64,192,180407,1,0,0:0:0:0:
192,192,180482,1,0,0:0:0:0:
320,192,180557,1,0,0:0:0:0:
64,192,180632,1,0,0:0:0:0:
192,192,180632,1,0,0:0:0:0:
320,192,180707,1,0,0:0:0:0:
448,192,180707,1,0,0:0:0:0:
64,192,180857,1,0,0:0:0:0:
192,192,180857,1,0,0:0:0:0:
320,192,180857,1,0,0:0:0:0:
320,192,181007,1,0,0:0:0:0:
448,192,181007,1,0,0:0:0:0:
192,192,181082,1,0,0:0:0:0:
64,192,181157,1,0,0:0:0:0:
320,192,181157,1,0,0:0:0:0:
448,192,181157,1,0,0:0:0:0:
64,192,181307,1,0,0:0:0:0:
192,192,181307,1,0,0:0:0:0:
448,192,181307,1,0,0:0:0:0:
192,192,181457,1,0,0:0:0:0:
320,192,181457,1,0,0:0:0:0:
192,192,181607,1,0,0:0:0:0:
320,192,181607,1,0,0:0:0:0:
448,192,181607,1,0,0:0:0:0:
64,192,181757,1,0,0:0:0:0:
192,192,181757,1,0,0:0:0:0:
320,192,181907,1,0,0:0:0:0:
448,192,181907,1,0,0:0:0:0:
64,192,181907,1,0,0:0:0:0:
320,192,182057,1,0,0:0:0:0:
448,192,182057,1,0,0:0:0:0:
64,192,182207,1,0,0:0:0:0:
192,192,182207,1,0,0:0:0:0:
320,192,182207,1,0,0:0:0:0:
192,192,182357,1,0,0:0:0:0:
192,192,182507,1,0,0:0:0:0:
320,192,182507,1,0,0:0:0:0:
448,192,182507,1,0,0:0:0:0:
320,192,182657,1,0,0:0:0:0:
64,192,182807,1,0,0:0:0:0:
192,192,182807,1,0,0:0:0:0:
448,192,182807,1,0,0:0:0:0:
64,192,182957,1,0,0:0:0:0:
320,192,183107,1,0,0:0:0:0:
192,192,183107,1,0,0:0:0:0:
448,192,183107,1,0,0:0:0:0:
192,192,183257,1,0,0:0:0:0:
64,192,183407,1,0,0:0:0:0:
192,192,183407,1,0,0:0:0:0:
320,192,183407,1,0,0:0:0:0:
448,192,183557,1,0,0:0:0:0:
64,192,183707,1,0,0:0:0:0:
192,192,183707,1,0,0:0:0:0:
448,192,183707,1,0,0:0:0:0:
320,192,183857,1,0,0:0:0:0:
320,192,184007,1,0,0:0:0:0:
448,192,184007,1,0,0:0:0:0:
64,192,184007,1,0,0:0:0:0:
192,192,184157,1,0,0:0:0:0:
64,192,184307,1,0,0:0:0:0:
192,192,184307,1,0,0:0:0:0:
320,192,184307,1,0,0:0:0:0:
448,192,184307,1,0,0:0:0:0:
64,192,184607,1,0,0:0:0:0:
192,192,184607,1,0,0:0:0:0:
320,192,184607,1,0,0:0:0:0:
448,192,184607,1,0,0:0:0:0:
192,192,184907,1,0,0:0:0:0:
320,192,184907,1,0,0:0:0:0:
448,192,184907,1,0,0:0:0:0:
320,192,185057,1,0,0:0:0:0:
64,192,185207,1,0,0:0:0:0:
192,192,185207,1,0,0:0:0:0:
448,192,185207,1,0,0:0:0:0:
64,192,185357,1,0,0:0:0:0:
192,192,185507,1,0,0:0:0:0:
320,192,185507,1,0,0:0:0:0:
448,192,185507,1,0,0:0:0:0:
448,192,185657,1,0,0:0:0:0:
64,192,185807,1,0,0:0:0:0:
192,192,185807,1,0,0:0:0:0:
320,192,185807,1,0,0:0:0:0:
192,192,185957,1,0,0:0:0:0:
448,192,186107,128,0,186707:0:0:0:0:
64,192,186707,1,0,0:0:0:0:
192,192,186707,1,0,0:0:0:0:
320,192,186707,1,0,0:0:0:0:
192,192,186857,1,0,0:0:0:0:
64,192,187007,1,0,0:0:0:0:
320,192,187007,1,0,0:0:0:0:
448,192,187007,1,0,0:0:0:0:
320,192,187157,1,0,0:0:0:0:
192,192,187307,1,0,0:0:0:0:
320,192,187307,1,0,0:0:0:0:
448,192,187307,1,0,0:0:0:0:
192,192,187457,1,0,0:0:0:0:
320,192,187607,128,0,187907:0:0:0:0:
64,192,187907,1,0,0:0:0:0:
192,192,187907,1,0,0:0:0:0:
448,192,187907,1,0,0:0:0:0:
64,192,188207,1,0,0:0:0:0:
192,192,188207,1,0,0:0:0:0:
448,192,188207,1,0,0:0:0:0:
320,192,188507,1,0,0:0:0:0:
448,192,188507,1,0,0:0:0:0:
64,192,188507,1,0,0:0:0:0:
192,192,188582,1,0,0:0:0:0:
64,192,188657,1,0,0:0:0:0:
448,192,188732,1,0,0:0:0:0:
320,192,188732,1,0,0:0:0:0:
192,192,188807,1,0,0:0:0:0:
64,192,188807,1,0,0:0:0:0:
64,192,188957,1,0,0:0:0:0:
192,192,188957,1,0,0:0:0:0:
448,192,188957,1,0,0:0:0:0:
320,192,189032,1,0,0:0:0:0:
448,192,189107,1,0,0:0:0:0:
64,192,189182,1,0,0:0:0:0:
192,192,189182,1,0,0:0:0:0:
320,192,189257,1,0,0:0:0:0:
448,192,189257,1,0,0:0:0:0:
64,192,189407,1,0,0:0:0:0:
320,192,189407,1,0,0:0:0:0:
192,192,189407,1,0,0:0:0:0:
448,192,189482,1,0,0:0:0:0:
320,192,189557,1,0,0:0:0:0:
192,192,189632,1,0,0:0:0:0:
64,192,189632,1,0,0:0:0:0:
320,192,189707,1,0,0:0:0:0:
448,192,189707,1,0,0:0:0:0:
192,192,189857,1,0,0:0:0:0:
320,192,189857,1,0,0:0:0:0:
448,192,189857,1,0,0:0:0:0:
64,192,189932,1,0,0:0:0:0:
192,192,190007,1,0,0:0:0:0:
320,192,190082,1,0,0:0:0:0:
448,192,190082,1,0,0:0:0:0:
192,192,190157,1,0,0:0:0:0:
64,192,190157,1,0,0:0:0:0:
64,192,190307,1,0,0:0:0:0:
192,192,190357,1,0,0:0:0:0:
320,192,190407,1,0,0:0:0:0:
448,192,190457,1,0,0:0:0:0:
64,192,190507,1,0,0:0:0:0:
192,192,190557,1,0,0:0:0:0:
320,192,190607,1,0,0:0:0:0:
448,192,190657,1,0,0:0:0:0:
64,192,190707,1,0,0:0:0:0:
192,192,190757,1,0,0:0:0:0:
320,192,190807,1,0,0:0:0:0:
448,192,190857,1,0,0:0:0:0:
64,192,190907,1,0,0:0:0:0:
192,192,190957,1,0,0:0:0:0:
320,192,191007,1,0,0:0:0:0:
448,192,191057,1,0,0:0:0:0:
64,192,191107,1,0,0:0:0:0:
192,192,191157,1,0,0:0:0:0:
320,192,191207,1,0,0:0:0:0:
448,192,191257,1,0,0:0:0:0:
64,192,191307,1,0,0:0:0:0:
192,192,191357,1,0,0:0:0:0:
320,192,191407,1,0,0:0:0:0:
448,192,191457,1,0,0:0:0:0:
64,192,191507,1,0,0:0:0:0:
192,192,191557,1,0,0:0:0:0:
320,192,191607,1,0,0:0:0:0:
448,192,191657,1,0,0:0:0:0:
64,192,191707,1,0,0:0:0:0:
192,192,191757,1,0,0:0:0:0:
320,192,191807,1,0,0:0:0:0:
448,192,191857,1,0,0:0:0:0:
64,192,191907,1,0,0:0:0:0:
192,192,191957,1,0,0:0:0:0:
320,192,192007,1,0,0:0:0:0:
448,192,192057,1,0,0:0:0:0:
64,192,192107,1,0,0:0:0:0:
192,192,192157,1,0,0:0:0:0:
320,192,192207,1,0,0:0:0:0:
448,192,192257,1,0,0:0:0:0:
64,192,192307,1,0,0:0:0:0:
192,192,192357,1,0,0:0:0:0:
320,192,192407,1,0,0:0:0:0:
448,192,192457,1,0,0:0:0:0:
64,192,192507,1,0,0:0:0:0:
192,192,192557,1,0,0:0:0:0:
320,192,192607,1,0,0:0:0:0:
448,192,192657,1,0,0:0:0:0:
64,192,192707,1,0,0:0:0:0:
192,192,192757,1,0,0:0:0:0:
320,192,192807,1,0,0:0:0:0:
448,192,192857,1,0,0:0:0:0:
64,192,192907,1,0,0:0:0:0:
192,192,192957,1,0,0:0:0:0:
320,192,193007,1,0,0:0:0:0:
448,192,193057,1,0,0:0:0:0:
64,192,193107,1,0,0:0:0:0:
192,192,193157,1,0,0:0:0:0:
320,192,193207,1,0,0:0:0:0:
448,192,193257,1,0,0:0:0:0:
64,192,193307,1,0,0:0:0:0:
192,192,193357,1,0,0:0:0:0:
320,192,193407,1,0,0:0:0:0:
448,192,193457,1,0,0:0:0:0:
64,192,193507,1,0,0:0:0:0:
192,192,193557,1,0,0:0:0:0:
320,192,193607,1,0,0:0:0:0:
448,192,193657,1,0,0:0:0:0:
64,192,193707,1,0,0:0:0:0:
192,192,193757,1,0,0:0:0:0:
320,192,193807,1,0,0:0:0:0:
448,192,193857,1,0,0:0:0:0:
192,192,193907,1,0,0:0:0:0:
64,192,193957,1,0,0:0:0:0:
320,192,194007,1,0,0:0:0:0:
448,192,194057,1,0,0:0:0:0:
192,192,194107,1,0,0:0:0:0:
64,192,194157,1,0,0:0:0:0:
320,192,194207,1,0,0:0:0:0:
448,192,194257,1,0,0:0:0:0:
192,192,194307,1,0,0:0:0:0:
64,192,194357,1,0,0:0:0:0:
320,192,194407,1,0,0:0:0:0:
448,192,194457,1,0,0:0:0:0:
192,192,194507,1,0,0:0:0:0:
64,192,194557,1,0,0:0:0:0:
448,192,194607,1,0,0:0:0:0:
320,192,194657,1,0,0:0:0:0:
192,192,194707,1,0,0:0:0:0:
64,192,194757,1,0,0:0:0:0:
448,192,194807,1,0,0:0:0:0:
320,192,194857,1,0,0:0:0:0:
192,192,194907,1,0,0:0:0:0:
64,192,194957,1,0,0:0:0:0:
448,192,195007,1,0,0:0:0:0:
320,192,195057,1,0,0:0:0:0:
192,192,195107,1,0,0:0:0:0:
64,192,195157,1,0,0:0:0:0:
448,192,195207,1,0,0:0:0:0:
320,192,195257,1,0,0:0:0:0:
192,192,195307,1,0,0:0:0:0:
64,192,195357,1,0,0:0:0:0:
448,192,195407,1,0,0:0:0:0:
320,192,195457,1,0,0:0:0:0:
192,192,195507,1,0,0:0:0:0:
64,192,195557,1,0,0:0:0:0:
448,192,195607,1,0,0:0:0:0:
320,192,195657,1,0,0:0:0:0:
192,192,195707,1,0,0:0:0:0:
64,192,195757,1,0,0:0:0:0:
448,192,195807,1,0,0:0:0:0:
320,192,195857,1,0,0:0:0:0:
64,192,195907,1,0,0:0:0:0:
192,192,195957,1,0,0:0:0:0:
448,192,196007,1,0,0:0:0:0:
320,192,196057,1,0,0:0:0:0:
64,192,196107,1,0,0:0:0:0:
192,192,196157,1,0,0:0:0:0:
448,192,196207,1,0,0:0:0:0:
320,192,196257,1,0,0:0:0:0:
64,192,196307,1,0,0:0:0:0:
192,192,196357,1,0,0:0:0:0:
448,192,196407,1,0,0:0:0:0:
320,192,196457,1,0,0:0:0:0:
64,192,196507,1,0,0:0:0:0:
192,192,196557,1,0,0:0:0:0:
448,192,196607,1,0,0:0:0:0:
320,192,196657,1,0,0:0:0:0:
64,192,196707,1,0,0:0:0:0:
192,192,196757,1,0,0:0:0:0:
320,192,196807,1,0,0:0:0:0:
448,192,196857,1,0,0:0:0:0:
192,192,196907,1,0,0:0:0:0:
64,192,196957,1,0,0:0:0:0:
320,192,197007,1,0,0:0:0:0:
192,192,197207,1,0,0:0:0:0:
448,192,197507,1,0,0:0:0:0:
64,192,197507,1,0,0:0:0:0:
320,192,197507,1,0,0:0:0:0:
192,192,197582,1,0,0:0:0:0:
320,192,197657,1,0,0:0:0:0:
448,192,197807,1,0,0:0:0:0:
192,192,197807,1,0,0:0:0:0:
64,192,197807,1,0,0:0:0:0:
320,192,197882,1,0,0:0:0:0:
192,192,197957,1,0,0:0:0:0:
448,192,198107,1,0,0:0:0:0:
320,192,198107,1,0,0:0:0:0:
192,192,198182,1,0,0:0:0:0:
320,192,198257,1,0,0:0:0:0:
64,192,198257,1,0,0:0:0:0:
448,192,198332,1,0,0:0:0:0:
192,192,198407,1,0,0:0:0:0:
64,192,198407,1,0,0:0:0:0:
448,192,198482,1,0,0:0:0:0:
320,192,198482,1,0,0:0:0:0:
192,192,198557,1,0,0:0:0:0:
320,192,198707,1,0,0:0:0:0:
64,192,198707,1,0,0:0:0:0:
192,192,198782,1,0,0:0:0:0:
448,192,198857,5,0,0:0:0:0:
320,192,198857,1,0,0:0:0:0:
320,192,199007,1,0,0:0:0:0:
192,192,199007,1,0,0:0:0:0:
192,192,199157,1,0,0:0:0:0:
64,192,199157,1,0,0:0:0:0:
448,192,199307,1,0,0:0:0:0:
320,192,199307,1,0,0:0:0:0:
64,192,199457,1,0,0:0:0:0:
192,192,199457,1,0,0:0:0:0:
320,192,199532,1,0,0:0:0:0:
448,192,199607,1,0,0:0:0:0:
64,192,199607,1,0,0:0:0:0:
192,192,199607,1,0,0:0:0:0:
192,192,199757,1,0,0:0:0:0:
64,192,199907,1,0,0:0:0:0:
448,192,199907,1,0,0:0:0:0:
320,192,199907,1,0,0:0:0:0:
320,192,200057,1,0,0:0:0:0:
448,192,200207,1,0,0:0:0:0:
320,192,200207,1,0,0:0:0:0:
192,192,200207,1,0,0:0:0:0:
448,192,200357,1,0,0:0:0:0:
448,192,200507,1,0,0:0:0:0:
192,192,200507,1,0,0:0:0:0:
64,192,200507,1,0,0:0:0:0:
64,192,200657,1,0,0:0:0:0:
448,192,200807,1,0,0:0:0:0:
320,192,200807,1,0,0:0:0:0:
192,192,200882,1,0,0:0:0:0:
64,192,200957,1,0,0:0:0:0:
320,192,201032,1,0,0:0:0:0:
448,192,201107,1,0,0:0:0:0:
192,192,201107,1,0,0:0:0:0:
64,192,201107,1,0,0:0:0:0:
320,192,201257,1,0,0:0:0:0:
320,192,201407,1,0,0:0:0:0:
64,192,201407,1,0,0:0:0:0:
192,192,201407,1,0,0:0:0:0:
192,192,201557,1,0,0:0:0:0:
320,192,201707,1,0,0:0:0:0:
448,192,201707,1,0,0:0:0:0:
192,192,201782,1,0,0:0:0:0:
320,192,201857,1,0,0:0:0:0:
64,192,201857,1,0,0:0:0:0:
448,192,201932,1,0,0:0:0:0:
64,192,202007,1,0,0:0:0:0:
192,192,202007,1,0,0:0:0:0:
448,192,202082,1,0,0:0:0:0:
320,192,202157,1,0,0:0:0:0:
64,192,202232,1,0,0:0:0:0:
192,192,202232,1,0,0:0:0:0:
448,192,202307,1,0,0:0:0:0:
320,192,202307,1,0,0:0:0:0:
192,192,202382,1,0,0:0:0:0:
320,192,202457,1,0,0:0:0:0:
64,192,202457,1,0,0:0:0:0:
448,192,202532,1,0,0:0:0:0:
192,192,202607,1,0,0:0:0:0:
320,192,202607,1,0,0:0:0:0:
448,192,202757,1,0,0:0:0:0:
320,192,202757,1,0,0:0:0:0:
192,192,202832,1,0,0:0:0:0:
448,192,202907,1,0,0:0:0:0:
320,192,202907,1,0,0:0:0:0:
64,192,202907,1,0,0:0:0:0:
320,192,203057,1,0,0:0:0:0:
64,192,203207,1,0,0:0:0:0:
192,192,203207,1,0,0:0:0:0:
192,192,203357,1,0,0:0:0:0:
448,192,203357,1,0,0:0:0:0:
320,192,203357,1,0,0:0:0:0:
448,192,203507,1,0,0:0:0:0:
192,192,203657,1,0,0:0:0:0:
320,192,203657,1,0,0:0:0:0:
448,192,203807,1,0,0:0:0:0:
192,192,203807,1,0,0:0:0:0:
64,192,203807,1,0,0:0:0:0:
64,192,203957,1,0,0:0:0:0:
448,192,204107,1,0,0:0:0:0:
320,192,204107,1,0,0:0:0:0:
320,192,204257,1,0,0:0:0:0:
192,192,204257,1,0,0:0:0:0:
64,192,204257,1,0,0:0:0:0:
320,192,204407,1,0,0:0:0:0:
192,192,204557,1,0,0:0:0:0:
64,192,204707,1,0,0:0:0:0:
448,192,204707,1,0,0:0:0:0:
320,192,204707,1,0,0:0:0:0:
64,192,204857,1,0,0:0:0:0:
448,192,205007,1,0,0:0:0:0:
320,192,205007,1,0,0:0:0:0:
192,192,205007,1,0,0:0:0:0:
320,192,205157,1,0,0:0:0:0:
64,192,205307,1,0,0:0:0:0:
192,192,205307,1,0,0:0:0:0:
448,192,205382,1,0,0:0:0:0:
64,192,205457,1,0,0:0:0:0:
320,192,205457,1,0,0:0:0:0:
192,192,205532,1,0,0:0:0:0:
448,192,205607,1,0,0:0:0:0:
320,192,205607,1,0,0:0:0:0:
64,192,205682,1,0,0:0:0:0:
320,192,205757,1,0,0:0:0:0:
192,192,205757,1,0,0:0:0:0:
448,192,205907,1,0,0:0:0:0:
320,192,205907,1,0,0:0:0:0:
64,192,205982,1,0,0:0:0:0:
192,192,206057,1,0,0:0:0:0:
448,192,206057,1,0,0:0:0:0:
320,192,206057,1,0,0:0:0:0:
64,192,206207,1,0,0:0:0:0:
192,192,206207,1,0,0:0:0:0:
192,192,206357,1,0,0:0:0:0:
448,192,206357,1,0,0:0:0:0:
448,192,206507,1,0,0:0:0:0:
320,192,206507,1,0,0:0:0:0:
64,192,206657,1,0,0:0:0:0:
192,192,206657,1,0,0:0:0:0:
320,192,206732,1,0,0:0:0:0:
448,192,206807,1,0,0:0:0:0:
64,192,206807,1,0,0:0:0:0:
192,192,206807,1,0,0:0:0:0:
320,192,206957,1,0,0:0:0:0:
64,192,207107,1,0,0:0:0:0:
448,192,207107,1,0,0:0:0:0:
320,192,207107,1,0,0:0:0:0:
192,192,207257,1,0,0:0:0:0:
448,192,207407,1,0,0:0:0:0:
320,192,207407,1,0,0:0:0:0:
192,192,207407,1,0,0:0:0:0:
320,192,207557,1,0,0:0:0:0:
448,192,207707,1,0,0:0:0:0:
64,192,207707,1,0,0:0:0:0:
192,192,207707,1,0,0:0:0:0:
320,192,207857,1,0,0:0:0:0:
448,192,208007,1,0,0:0:0:0:
320,192,208007,1,0,0:0:0:0:
64,192,208082,1,0,0:0:0:0:
192,192,208082,1,0,0:0:0:0:
448,192,208157,1,0,0:0:0:0:
320,192,208157,1,0,0:0:0:0:
192,192,208232,1,0,0:0:0:0:
64,192,208307,1,0,0:0:0:0:
448,192,208307,1,0,0:0:0:0:
320,192,208307,1,0,0:0:0:0:
192,192,208457,1,0,0:0:0:0:
448,192,208607,1,0,0:0:0:0:
320,192,208607,1,0,0:0:0:0:
192,192,208607,1,0,0:0:0:0:
64,192,208757,1,0,0:0:0:0:
448,192,208907,1,0,0:0:0:0:
320,192,208907,1,0,0:0:0:0:
64,192,208982,1,0,0:0:0:0:
320,192,209057,1,0,0:0:0:0:
192,192,209057,1,0,0:0:0:0:
448,192,209132,1,0,0:0:0:0:
64,192,209207,1,0,0:0:0:0:
192,192,209207,1,0,0:0:0:0:
320,192,209282,1,0,0:0:0:0:
448,192,209282,1,0,0:0:0:0:
192,192,209357,1,0,0:0:0:0:
64,192,209357,1,0,0:0:0:0:
448,192,209432,1,0,0:0:0:0:
192,192,209507,1,0,0:0:0:0:
320,192,209507,1,0,0:0:0:0:
64,192,209582,1,0,0:0:0:0:
448,192,209657,1,0,0:0:0:0:
320,192,209657,1,0,0:0:0:0:
64,192,209807,1,0,0:0:0:0:
192,192,209807,1,0,0:0:0:0:
448,192,209957,1,0,0:0:0:0:
320,192,209957,1,0,0:0:0:0:
192,192,210032,1,0,0:0:0:0:
64,192,210107,1,0,0:0:0:0:
448,192,210107,1,0,0:0:0:0:
320,192,210107,1,0,0:0:0:0:
192,192,210257,1,0,0:0:0:0:
192,192,210407,1,0,0:0:0:0:
64,192,210407,1,0,0:0:0:0:
448,192,210557,1,0,0:0:0:0:
320,192,210557,1,0,0:0:0:0:
192,192,210557,1,0,0:0:0:0:
320,192,210707,1,0,0:0:0:0:
64,192,210857,1,0,0:0:0:0:
192,192,210857,1,0,0:0:0:0:
64,192,211007,1,0,0:0:0:0:
448,192,211007,1,0,0:0:0:0:
320,192,211007,1,0,0:0:0:0:
448,192,211157,1,0,0:0:0:0:
320,192,211307,1,0,0:0:0:0:
192,192,211307,1,0,0:0:0:0:
448,192,211457,1,0,0:0:0:0:
192,192,211457,1,0,0:0:0:0:
64,192,211457,1,0,0:0:0:0:
320,192,211607,1,0,0:0:0:0:
448,192,211757,1,0,0:0:0:0:
320,192,211907,1,0,0:0:0:0:
192,192,211907,1,0,0:0:0:0:
64,192,211907,1,0,0:0:0:0:
192,192,212057,1,0,0:0:0:0:
448,192,212207,1,0,0:0:0:0:
320,192,212207,1,0,0:0:0:0:
192,192,212207,1,0,0:0:0:0:
320,192,212357,1,0,0:0:0:0:
192,192,212507,1,0,0:0:0:0:
64,192,212507,1,0,0:0:0:0:
448,192,212582,1,0,0:0:0:0:
320,192,212657,1,0,0:0:0:0:
192,192,212657,1,0,0:0:0:0:
64,192,212732,1,0,0:0:0:0:
192,192,212807,1,0,0:0:0:0:
448,192,212807,1,0,0:0:0:0:
320,192,212807,1,0,0:0:0:0:
64,192,212882,1,0,0:0:0:0:
448,192,212957,1,0,0:0:0:0:
320,192,212957,1,0,0:0:0:0:
64,192,213107,1,0,0:0:0:0:
192,192,213107,1,0,0:0:0:0:
320,192,213182,1,0,0:0:0:0:
448,192,213257,1,0,0:0:0:0:
64,192,213257,1,0,0:0:0:0:
192,192,213257,1,0,0:0:0:0:
448,192,213407,1,0,0:0:0:0:
320,192,213407,1,0,0:0:0:0:
320,192,213557,1,0,0:0:0:0:
192,192,213557,1,0,0:0:0:0:
64,192,213707,1,0,0:0:0:0:
192,192,213707,1,0,0:0:0:0:
448,192,213857,1,0,0:0:0:0:
320,192,213857,1,0,0:0:0:0:
192,192,213932,1,0,0:0:0:0:
64,192,214007,1,0,0:0:0:0:
320,192,214007,1,0,0:0:0:0:
448,192,214007,1,0,0:0:0:0:
192,192,214157,1,0,0:0:0:0:
448,192,214307,1,0,0:0:0:0:
192,192,214307,1,0,0:0:0:0:
64,192,214307,1,0,0:0:0:0:
320,192,214457,1,0,0:0:0:0:
448,192,214607,1,0,0:0:0:0:
320,192,214607,1,0,0:0:0:0:
192,192,214607,1,0,0:0:0:0:
448,192,214757,1,0,0:0:0:0:
320,192,214907,1,0,0:0:0:0:
192,192,214907,1,0,0:0:0:0:
64,192,214907,1,0,0:0:0:0:
320,192,215057,1,0,0:0:0:0:
192,192,215207,1,0,0:0:0:0:
64,192,215207,1,0,0:0:0:0:
320,192,215282,1,0,0:0:0:0:
448,192,215357,1,0,0:0:0:0:
192,192,215432,1,0,0:0:0:0:
64,192,215507,1,0,0:0:0:0:
448,192,215507,1,0,0:0:0:0:
320,192,215507,1,0,0:0:0:0:
320,192,215657,1,0,0:0:0:0:
448,192,215807,1,0,0:0:0:0:
192,192,215807,1,0,0:0:0:0:
64,192,215807,1,0,0:0:0:0:
192,192,215957,1,0,0:0:0:0:
448,192,216107,1,0,0:0:0:0:
320,192,216107,1,0,0:0:0:0:
64,192,216182,1,0,0:0:0:0:
320,192,216257,1,0,0:0:0:0:
192,192,216257,1,0,0:0:0:0:
448,192,216332,1,0,0:0:0:0:
192,192,216407,1,0,0:0:0:0:
64,192,216407,1,0,0:0:0:0:
320,192,216482,1,0,0:0:0:0:
192,192,216557,1,0,0:0:0:0:
448,192,216557,1,0,0:0:0:0:
64,192,216632,1,0,0:0:0:0:
448,192,216707,1,0,0:0:0:0:
320,192,216707,1,0,0:0:0:0:
192,192,216782,1,0,0:0:0:0:
64,192,216857,1,0,0:0:0:0:
448,192,216857,1,0,0:0:0:0:
320,192,216857,1,0,0:0:0:0:
64,192,217007,1,0,0:0:0:0:
192,192,217007,1,0,0:0:0:0:
320,192,217157,1,0,0:0:0:0:
448,192,217157,1,0,0:0:0:0:
192,192,217232,1,0,0:0:0:0:
448,192,217307,1,0,0:0:0:0:
320,192,217307,1,0,0:0:0:0:
64,192,217307,1,0,0:0:0:0:
320,192,217457,1,0,0:0:0:0:
64,192,217607,1,0,0:0:0:0:
192,192,217607,1,0,0:0:0:0:
448,192,217757,1,0,0:0:0:0:
320,192,217757,1,0,0:0:0:0:
192,192,217757,1,0,0:0:0:0:
448,192,217907,1,0,0:0:0:0:
320,192,218057,1,0,0:0:0:0:
192,192,218057,1,0,0:0:0:0:
448,192,218207,1,0,0:0:0:0:
192,192,218207,1,0,0:0:0:0:
64,192,218207,1,0,0:0:0:0:
320,192,218357,1,0,0:0:0:0:
192,192,218507,1,0,0:0:0:0:
64,192,218507,1,0,0:0:0:0:
64,192,218657,1,0,0:0:0:0:
448,192,218657,1,0,0:0:0:0:
320,192,218657,1,0,0:0:0:0:
192,192,218807,1,0,0:0:0:0:
320,192,218957,1,0,0:0:0:0:
192,192,219107,1,0,0:0:0:0:
320,192,219107,1,0,0:0:0:0:
64,192,219107,1,0,0:0:0:0:
448,192,219257,1,0,0:0:0:0:
448,192,219407,1,0,0:0:0:0:
320,192,219407,1,0,0:0:0:0:
192,192,219407,1,0,0:0:0:0:
192,192,219557,1,0,0:0:0:0:
64,192,219707,1,0,0:0:0:0:
192,192,219707,1,0,0:0:0:0:
448,192,219782,1,0,0:0:0:0:
320,192,219857,1,0,0:0:0:0:
192,192,219857,1,0,0:0:0:0:
64,192,219932,1,0,0:0:0:0:
448,192,220007,1,0,0:0:0:0:
320,192,220007,1,0,0:0:0:0:
192,192,220082,1,0,0:0:0:0:
64,192,220157,1,0,0:0:0:0:
320,192,220157,1,0,0:0:0:0:
448,192,220307,1,0,0:0:0:0:
320,192,220307,1,0,0:0:0:0:
192,192,220382,1,0,0:0:0:0:
64,192,220457,1,0,0:0:0:0:
448,192,220457,1,0,0:0:0:0:
320,192,220457,1,0,0:0:0:0:
64,192,220607,1,0,0:0:0:0:
192,192,220607,1,0,0:0:0:0:
448,192,220757,1,0,0:0:0:0:
320,192,220757,1,0,0:0:0:0:
192,192,220907,1,0,0:0:0:0:
64,192,220907,1,0,0:0:0:0:
320,192,221057,1,0,0:0:0:0:
448,192,221057,1,0,0:0:0:0:
192,192,221132,1,0,0:0:0:0:
64,192,221207,1,0,0:0:0:0:
448,192,221207,1,0,0:0:0:0:
320,192,221207,1,0,0:0:0:0:
320,192,221357,1,0,0:0:0:0:
448,192,221507,1,0,0:0:0:0:
192,192,221507,1,0,0:0:0:0:
64,192,221507,1,0,0:0:0:0:
192,192,221657,1,0,0:0:0:0:
448,192,221807,1,0,0:0:0:0:
320,192,221807,1,0,0:0:0:0:
192,192,221807,1,0,0:0:0:0:
448,192,221957,1,0,0:0:0:0:
320,192,222107,1,0,0:0:0:0:
192,192,222107,1,0,0:0:0:0:
64,192,222107,1,0,0:0:0:0:
64,192,222257,1,0,0:0:0:0:
448,192,222407,1,0,0:0:0:0:
320,192,222407,1,0,0:0:0:0:
64,192,222482,1,0,0:0:0:0:
192,192,222482,1,0,0:0:0:0:
448,192,222557,1,0,0:0:0:0:
320,192,222557,1,0,0:0:0:0:
192,192,222632,1,0,0:0:0:0:
64,192,222707,1,0,0:0:0:0:
448,192,222707,1,0,0:0:0:0:
320,192,222707,1,0,0:0:0:0:
192,192,222857,1,0,0:0:0:0:
448,192,223007,1,0,0:0:0:0:
192,192,223007,1,0,0:0:0:0:
320,192,223007,1,0,0:0:0:0:
64,192,223157,1,0,0:0:0:0:
448,192,223307,1,0,0:0:0:0:
320,192,223307,1,0,0:0:0:0:
64,192,223382,1,0,0:0:0:0:
448,192,223457,1,0,0:0:0:0:
192,192,223457,1,0,0:0:0:0:
320,192,223532,1,0,0:0:0:0:
448,192,223607,1,0,0:0:0:0:
192,192,223607,1,0,0:0:0:0:
64,192,223607,1,0,0:0:0:0:
320,192,223682,1,0,0:0:0:0:
64,192,223757,1,0,0:0:0:0:
192,192,223757,1,0,0:0:0:0:
448,192,223832,1,0,0:0:0:0:
64,192,223907,1,0,0:0:0:0:
192,192,223907,1,0,0:0:0:0:
320,192,223982,1,0,0:0:0:0:
448,192,224057,1,0,0:0:0:0:
64,192,224057,1,0,0:0:0:0:
192,192,224057,1,0,0:0:0:0:
448,192,224207,1,0,0:0:0:0:
320,192,224207,1,0,0:0:0:0:
192,192,224357,1,0,0:0:0:0:
64,192,224357,1,0,0:0:0:0:
320,192,224432,1,0,0:0:0:0:
448,192,224507,1,0,0:0:0:0:
192,192,224507,1,0,0:0:0:0:
64,192,224507,1,0,0:0:0:0:
320,192,224657,1,0,0:0:0:0:
64,192,224807,1,0,0:0:0:0:
192,192,224807,1,0,0:0:0:0:
448,192,224957,1,0,0:0:0:0:
320,192,224957,1,0,0:0:0:0:
192,192,224957,1,0,0:0:0:0:
64,192,225107,1,0,0:0:0:0:
448,192,225257,1,0,0:0:0:0:
320,192,225257,1,0,0:0:0:0:
320,192,225407,1,0,0:0:0:0:
192,192,225407,1,0,0:0:0:0:
64,192,225407,1,0,0:0:0:0:
448,192,225557,1,0,0:0:0:0:
192,192,225707,128,0,225932:0:0:0:0:
320,192,226007,1,0,0:0:0:0:
448,192,226007,1,0,0:0:0:0:
64,192,226007,1,0,0:0:0:0:
64,192,226307,1,0,0:0:0:0:
192,192,226307,1,0,0:0:0:0:
448,192,226307,1,0,0:0:0:0:
192,192,226607,1,0,0:0:0:0:
320,192,226607,1,0,0:0:0:0:
448,192,226607,1,0,0:0:0:0:
64,192,226907,1,0,0:0:0:0:
192,192,226907,1,0,0:0:0:0:
320,192,227057,1,0,0:0:0:133:
448,192,227132,1,0,0:0:0:133:
192,192,227207,1,0,0:0:0:66:
320,192,227207,1,0,0:0:0:66:
320,192,227357,1,0,0:0:0:0:
448,192,227357,1,0,0:0:0:0:
192,192,227507,1,0,0:0:0:133:
320,192,227582,1,0,0:0:0:66:
448,192,227582,1,0,0:0:0:66:
64,192,227657,1,0,0:0:0:133:
448,192,227807,1,0,0:0:0:0:
320,192,227807,1,0,0:0:0:0:
64,192,227844,1,0,0:0:0:0:
192,192,227882,1,0,0:0:0:0:
320,192,227919,1,0,0:0:0:0:
448,192,227957,1,0,0:0:0:0:
64,192,227994,1,0,0:0:0:0:
192,192,228032,1,0,0:0:0:0:
320,192,228069,1,0,0:0:0:0:
448,192,228107,1,0,0:0:0:0:
192,192,228107,1,0,0:0:0:0:
64,192,228107,1,0,0:0:0:0:
320,192,228257,1,0,0:0:0:0:
64,192,228332,1,0,0:0:0:0:
192,192,228332,1,0,0:0:0:0:
320,192,228407,1,0,0:0:0:0:
448,192,228407,1,0,0:0:0:0:
192,192,228557,1,0,0:0:0:0:
448,192,228557,1,0,0:0:0:0:
320,192,228557,1,0,0:0:0:0:
192,192,228707,1,0,0:0:0:0:
320,192,228782,1,0,0:0:0:0:
448,192,228782,1,0,0:0:0:0:
192,192,228857,1,0,0:0:0:0:
64,192,228857,1,0,0:0:0:0:
192,192,229007,1,0,0:0:0:0:
64,192,229007,1,0,0:0:0:0:
448,192,229007,1,0,0:0:0:0:
320,192,229157,1,0,0:0:0:0:
320,192,229307,1,0,0:0:0:0:
448,192,229307,1,0,0:0:0:0:
64,192,229457,1,0,0:0:0:0:
192,192,229457,1,0,0:0:0:0:
448,192,229457,1,0,0:0:0:0:
320,192,229607,1,0,0:0:0:0:
192,192,229607,1,0,0:0:0:0:
64,192,229607,1,0,0:0:0:0:
320,192,229907,1,0,0:0:0:0:
448,192,229907,1,0,0:0:0:0:
64,192,229907,1,0,0:0:0:0:
192,192,230207,1,0,0:0:0:0:
320,192,230207,1,0,0:0:0:0:
448,192,230207,1,0,0:0:0:0:
192,192,230357,1,0,0:0:0:0:
320,192,230432,1,0,0:0:0:0:
192,192,230507,1,0,0:0:0:0:
64,192,230507,1,0,0:0:0:0:
320,192,230657,1,0,0:0:0:0:
192,192,230732,1,0,0:0:0:0:
64,192,230732,1,0,0:0:0:0:
320,192,230807,1,0,0:0:0:0:
448,192,230807,1,0,0:0:0:0:
192,192,230957,1,0,0:0:0:0:
64,192,230957,1,0,0:0:0:0:
192,192,231107,1,0,0:0:0:0:
320,192,231182,1,0,0:0:0:0:
448,192,231182,1,0,0:0:0:0:
64,192,231257,1,0,0:0:0:0:
192,192,231257,1,0,0:0:0:0:
320,192,231407,1,0,0:0:0:0:
448,192,231407,1,0,0:0:0:0:
192,192,231444,1,0,0:0:0:0:
64,192,231482,1,0,0:0:0:0:
320,192,231519,1,0,0:0:0:0:
448,192,231557,1,0,0:0:0:0:
192,192,231594,1,0,0:0:0:0:
64,192,231632,1,0,0:0:0:0:
448,192,231707,1,0,0:0:0:0:
320,192,231707,1,0,0:0:0:0:
320,192,231857,1,0,0:0:0:0:
192,192,231932,1,0,0:0:0:0:
64,192,231932,1,0,0:0:0:0:
320,192,232007,1,0,0:0:0:0:
448,192,232007,1,0,0:0:0:0:
64,192,232157,1,0,0:0:0:0:
192,192,232157,1,0,0:0:0:0:
320,192,232157,1,0,0:0:0:0:
192,192,232307,1,0,0:0:0:0:
448,192,232382,1,0,0:0:0:0:
320,192,232382,1,0,0:0:0:0:
192,192,232457,1,0,0:0:0:0:
64,192,232457,1,0,0:0:0:0:
192,192,232607,1,0,0:0:0:0:
320,192,232607,1,0,0:0:0:0:
448,192,232607,1,0,0:0:0:0:
320,192,232757,1,0,0:0:0:0:
192,192,232907,1,0,0:0:0:0:
320,192,232907,1,0,0:0:0:0:
64,192,233057,1,0,0:0:0:0:
192,192,233057,1,0,0:0:0:0:
448,192,233057,1,0,0:0:0:0:
320,192,233207,1,0,0:0:0:0:
448,192,233207,1,0,0:0:0:0:
64,192,233357,1,0,0:0:0:0:
192,192,233512,1,0,0:0:0:0:
320,192,233512,1,0,0:0:0:0:
448,192,233512,1,0,0:0:0:0:
448,192,233817,1,0,0:0:0:0:
320,192,233817,1,0,0:0:0:0:
64,192,233817,1,0,0:0:0:0:
192,192,233973,1,0,0:0:0:0:
320,192,234050,1,0,0:0:0:0:
64,192,234127,1,0,0:0:0:0:
192,192,234127,1,0,0:0:0:0:
320,192,234281,1,0,0:0:0:0:
64,192,234358,1,0,0:0:0:0:
320,192,234435,1,0,0:0:0:0:
448,192,234435,1,0,0:0:0:0:
192,192,234588,1,0,0:0:0:0:
64,192,234588,1,0,0:0:0:0:
320,192,234742,1,0,0:0:0:0:
192,192,234819,1,0,0:0:0:0:
64,192,234819,1,0,0:0:0:0:
320,192,234896,1,0,0:0:0:0:
448,192,234896,1,0,0:0:0:0:
64,192,235050,1,0,0:0:0:0:
320,192,235050,1,0,0:0:0:0:
448,192,235050,1,0,0:0:0:0:
192,192,235101,1,0,0:0:0:0:
320,192,235153,1,0,0:0:0:0:
64,192,235204,1,0,0:0:0:0:
448,192,235204,1,0,0:0:0:0:
192,192,235255,1,0,0:0:0:0:
320,192,235306,1,0,0:0:0:0:
192,192,235358,1,0,0:0:0:0:
64,192,235358,1,0,0:0:0:0:
448,192,235358,1,0,0:0:0:0:
320,192,235516,1,0,0:0:0:0:
64,192,235597,1,0,0:0:0:0:
192,192,235597,1,0,0:0:0:0:
448,192,235678,1,0,0:0:0:0:
320,192,235678,1,0,0:0:0:0:
64,192,235840,1,0,0:0:0:0:
192,192,235840,1,0,0:0:0:0:
320,192,235840,1,0,0:0:0:0:
448,192,236002,1,0,0:0:0:0:
64,192,236083,1,0,0:0:0:0:
192,192,236083,1,0,0:0:0:0:
448,192,236164,1,0,0:0:0:0:
320,192,236164,1,0,0:0:0:0:
64,192,236326,1,0,0:0:0:0:
448,192,236326,1,0,0:0:0:0:
320,192,236326,1,0,0:0:0:0:
192,192,236408,1,0,0:0:0:0:
320,192,236489,1,0,0:0:0:0:
64,192,236570,1,0,0:0:0:0:
192,192,236570,1,0,0:0:0:0:
448,192,236651,1,0,0:0:0:0:
320,192,236651,1,0,0:0:0:0:
64,192,236813,1,0,0:0:0:0:
192,192,236813,1,0,0:0:0:0:
320,192,236813,1,0,0:0:0:0:
448,192,236975,1,0,0:0:0:0:
64,192,236975,1,0,0:0:0:0:
192,192,236975,1,0,0:0:0:0:
64,192,237299,1,0,0:0:0:0:
192,192,237299,1,0,0:0:0:0:
320,192,237299,1,0,0:0:0:0:
192,192,237624,1,0,0:0:0:0:
320,192,237624,1,0,0:0:0:0:
448,192,237624,1,0,0:0:0:0:
192,192,237814,1,0,0:0:0:0:
448,192,237990,1,0,0:0:0:0:
320,192,237990,1,0,0:0:0:0:
192,192,238167,1,0,0:0:0:0:
64,192,238167,1,0,0:0:0:0:
320,192,238255,1,0,0:0:0:0:
64,192,238343,1,0,0:0:0:0:
192,192,238343,1,0,0:0:0:0:
448,192,238343,1,0,0:0:0:0:
448,192,238520,1,0,0:0:0:0:
320,192,238520,1,0,0:0:0:0:
192,192,238696,1,0,0:0:0:0:
320,192,238785,1,0,0:0:0:0:
448,192,238785,1,0,0:0:0:0:
64,192,238873,1,0,0:0:0:0:
192,192,238873,1,0,0:0:0:0:
448,192,239049,1,0,0:0:0:0:
64,192,239049,1,0,0:0:0:0:
320,192,239049,1,0,0:0:0:0:
64,192,239402,1,0,0:0:0:0:
448,192,239402,1,0,0:0:0:0:
320,192,239402,1,0,0:0:0:0:
