osu file format v14

[General]
AudioFilename: audio.mp3
AudioLeadIn: 0
PreviewTime: 42186
Countdown: 0
SampleSet: Soft
StackLeniency: 1
Mode: 0
LetterboxInBreaks: 0
WidescreenStoryboard: 1

[Editor]
Bookmarks: 3110,15339,27568,33874,36931,39797,42855,67504,73619,76485,88715
DistanceSpacing: 0.7
BeatDivisor: 4
GridSize: 4
TimelineZoom: 2.1

[Metadata]
Title:sky & blue (TV Size)
TitleUnicode:sky & blue (TV Size)
Artist:GIRLFRIEND
ArtistUnicode:GIRLFRIEND
Creator:Aakki
Version:Fate
Source:ブラッククローバー
Tags:finnish bn xiced door weapon dog food lean monster hanakumo rin smoke mad [mad] shogud enneya een persoon butylcyclobutyn black clover japanese anime rock jrock j-rock op opening 8 female vocals MINA MIREI SAKIKA NAGISA
BeatmapID:2293722
BeatmapSetID:1031196

[Difficulty]
HPDrainRate:6
CircleSize:5
OverallDifficulty:8.5
ApproachRate:9
SliderMultiplier:1.4
SliderTickRate:1

[Events]
//Background and Video events
Video,-600,"video.mp4"
0,0,"bg.jpg",0,0
//Break Periods
//Storyboard Layer 0 (Background)
//Storyboard Layer 1 (Fail)
//Storyboard Layer 2 (Pass)
//Storyboard Layer 3 (Foreground)
//Storyboard Layer 4 (Overlay)
//Storyboard Sound Samples

[TimingPoints]
53,382.165605095541,4,2,0,60,1,0
53,-133.333333333333,4,2,0,60,0,0
339,-133.333333333333,4,2,1,60,0,0
435,-133.333333333333,4,2,1,60,0,0
1868,-133.333333333333,4,2,1,60,0,0
1963,-133.333333333333,4,2,1,60,0,0
3110,-86.9565217391304,4,2,1,70,0,0
3301,382.165605095541,4,2,0,70,1,0
3301,-86.9565217391304,4,2,0,70,0,0
3396,-86.9565217391304,4,2,1,70,0,0
8651,-86.9565217391304,4,2,1,70,0,0
9224,-86.9565217391304,4,2,1,70,0,0
15339,-133.333333333333,4,2,1,60,0,0
27568,-100,4,2,1,70,0,0
30243,-100,4,2,1,70,0,0
30625,-100,4,2,1,70,0,0
33300,-100,4,2,1,70,0,0
33874,-100,4,2,1,70,0,0
34160,-100,4,2,1,70,0,0
36549,-100,4,2,1,70,0,0
36931,-86.9565217391304,4,2,1,70,0,0
39797,-83.3333333333333,4,2,1,70,0,0
41899,-133.333333333333,4,2,1,70,0,0
42186,-133.333333333333,4,2,1,70,0,0
42281,-133.333333333333,4,2,1,70,0,0
42472,-66.6666666666667,4,2,1,70,0,0
42855,-80,4,2,1,80,0,1
48969,-86.9565217391304,4,2,1,80,0,1
49734,-80,4,2,1,80,0,1
50498,-74.0740740740741,4,2,1,80,0,1
51262,-68.9655172413793,4,2,1,80,0,1
52027,-80,4,2,1,80,0,1
54511,-80,4,2,1,80,0,0
55275,-80,4,2,1,80,0,1
61199,-95.2380952380952,4,2,1,80,0,1
61963,-86.9565217391304,4,2,1,80,0,1
62727,-80,4,2,1,80,0,1
63492,-51.2820512820513,4,2,1,80,0,1
64065,-68.9655172413793,4,2,1,80,0,1
64256,-80,4,2,1,80,0,1
66740,-80,4,2,1,80,0,0
67504,-80,4,2,1,80,0,1
73046,-80,4,2,1,80,0,1
73619,-133.333333333333,4,2,1,53,0,0
75148,-100,4,2,1,53,0,0
76485,-86.9565217391304,4,2,1,70,0,0
82027,-86.9565217391304,4,2,1,70,0,0
82600,-86.9565217391304,4,2,1,70,0,0

[Colours]
Combo1 : 192,192,192
Combo2 : 157,0,0
Combo3 : 221,221,0

[HitObjects]
33,63,53,6,0,P|108:47|145:31,1,105.000004005432,4|10,0:3|0:3,0:0:0:0:
133,36,626,2,0,P|122:70|131:99,1,52.5000020027161,10|0,0:3|0:0,0:0:0:0:
200,157,1008,2,0,P|223:150|231:149,2,26.2500010013581,10|2|10,0:3|0:0|0:3,0:0:0:0:
159,226,1390,1,10,0:3:0:0:
2,253,1581,6,0,B|59:258|41:283|110:292,1,105.000004005432,6|10,0:3|0:3,0:0:0:0:
167,348,2154,1,10,0:3:0:0:
306,307,2345,5,6,0:3:0:0:
317,289,2441,1,4,0:3:0:0:
315,267,2537,2,0,P|308:239|308:229,1,26.2500010013581,6|0,0:3|0:0,0:0:0:0:
258,108,2728,5,10,0:3:0:0:
251,114,2823,1,0,0:0:0:0:
258,122,2919,1,10,0:3:0:0:
269,119,3014,1,0,0:0:0:0:
265,108,3110,2,0,P|182:108|88:54,1,161.000003070831,6|0,1:2|1:2,0:0:0:0:
102,297,3683,1,10,0:0:0:0:
154,252,3874,2,0,P|143:204|141:172,1,80.5000015354157,2|0,0:0|1:2,0:0:0:0:
218,322,4256,1,0,1:2:0:0:
303,248,4447,6,0,B|402:226|346:206|465:192,1,161.000003070831,10|0,0:0|1:2,0:0:0:0:
452,193,5020,1,0,1:2:0:0:
370,74,5211,1,10,0:0:0:0:
318,119,5402,1,2,0:0:0:0:
476,47,5593,5,0,1:2:0:0:
357,0,5785,1,0,1:2:0:0:
470,122,5976,1,8,0:0:0:0:
258,9,6167,6,0,B|168:24|194:44|89:69,1,161.000003070831,4|0,1:2|1:2,0:0:0:0:
238,196,6740,2,0,P|273:146|264:114,1,80.5000015354157,10|2,0:0|0:0,0:0:0:0:
96,185,7122,1,0,1:2:0:0:
158,285,7313,1,0,1:2:0:0:
26,358,7504,6,0,P|50:305|168:290,1,161.000003070831,10|0,0:0|1:2,0:0:0:0:
145,278,8078,1,0,1:2:0:0:
309,162,8269,2,0,P|269:187|230:196,1,80.5000015354157,10|2,0:0|0:0,0:0:0:0:
55,82,8651,5,4,0:3:0:0:
199,19,8842,1,4,0:3:0:0:
80,167,9033,1,4,0:3:0:0:
79,183,9129,1,12,3:0:0:0:
86,196,9224,6,0,P|138:163|140:103,1,120.750002303124,4|0,1:2|0:0,0:0:0:0:
137,92,9606,1,0,1:2:0:0:
292,22,9797,6,0,P|303:67|318:106,1,80.5000015354157,10|2,0:0|0:0,0:0:0:0:
292,247,10179,1,0,1:2:0:0:
363,193,10371,1,0,1:2:0:0:
206,257,10562,6,0,P|250:257|339:329,1,161.000003070831,10|0,0:0|1:2,0:0:0:0:
337,326,11135,1,0,1:2:0:0:
496,227,11326,2,0,P|479:183|476:145,1,80.5000015354157,10|2,0:0|0:0,0:0:0:0:
302,36,11708,5,0,1:2:0:0:
385,187,11899,1,0,1:2:0:0:
296,24,12090,1,8,0:0:0:0:
222,220,12281,6,0,B|139:210|155:165|60:162,1,161.000003070831,4|0,1:2|1:2,0:0:0:0:
138,356,12855,2,0,P|146:318|171:279,1,80.5000015354157,10|2,0:0|0:0,0:0:0:0:
320,137,13237,1,0,1:2:0:0:
238,66,13428,1,0,1:2:0:0:
326,227,13619,6,0,B|292:317|331:282|298:391,1,161.000003070831,10|0,0:0|1:2,0:0:0:0:
391,263,14192,1,0,1:2:0:0:
265,167,14383,1,10,0:0:0:0:
356,104,14574,1,2,0:0:0:0:
177,255,14765,5,4,0:3:0:0:
149,260,14860,1,0,0:0:0:0:
122,251,14956,1,4,0:3:0:0:
99,233,15052,1,4,0:3:0:0:
87,207,15147,1,4,0:3:0:0:
143,32,15339,6,0,B|151:103|161:67|170:147,1,105.000004005432,4|2,1:2|1:2,0:0:0:0:
244,80,15912,2,0,P|277:69|296:64,1,52.5000020027161,8|2,0:0|0:0,0:0:0:0:
386,51,16294,2,0,P|406:21|402:0,2,52.5000020027161,2|2|10,1:2|0:0|0:0,0:0:0:0:
325,130,16867,6,0,P|328:168|349:242,1,105.000004005432,2|2,1:2|1:2,0:0:0:0:
448,289,17441,2,0,P|423:270|396:271,1,52.5000020027161,8|2,0:0|0:0,0:0:0:0:
342,325,17823,2,0,B|278:338|317:348|225:368,1,105.000004005432,2|10,1:2|0:0,0:0:0:0:
146,301,18396,6,0,P|180:315|195:319,1,52.5000020027161,0|0,1:2|0:0,0:0:0:0:
254,273,18778,1,2,1:2:0:0:
186,204,18969,1,8,0:0:0:0:
236,149,19160,1,2,0:0:0:0:
162,58,19351,2,0,P|168:92|174:118,2,52.5000020027161,2|0|10,1:2|0:0|0:0,0:0:0:0:
93,168,19925,6,0,P|150:174|194:220,1,105.000004005432,2|2,1:2|1:2,0:0:0:0:
223,274,20498,1,10,0:0:0:0:
178,337,20689,1,2,0:0:0:0:
89,320,20880,6,0,B|36:309|56:282|-2:265,1,105.000004005432,2|10,1:2|0:0,0:0:0:0:
1,266,21644,6,0,P|31:263|52:231,1,52.5000020027161,6|0,1:2|0:0,0:0:0:0:
100,180,22027,2,0,P|89:146|87:123,1,52.5000020027161,10|0,0:0|0:0,0:0:0:0:
186,37,22409,6,0,P|203:64|200:88,1,52.5000020027161,2|0,1:2|0:0,0:0:0:0:
97,48,22791,2,0,P|64:38|39:28,1,52.5000020027161,10|0,0:0|0:0,0:0:0:0:
178,150,23173,6,0,P|228:165|287:183,1,105.000004005432,2|8,1:2|0:0,0:0:0:0:
332,53,23746,2,0,P|302:68|291:87,1,52.5000020027161,2|0,1:2|0:0,0:0:0:0:
356,159,24129,1,2,1:2:0:0:
419,126,24320,1,10,0:0:0:0:
495,192,24511,6,0,B|480:248|501:256|488:315,1,105.000004005432,2|2,1:2|1:2,0:0:0:0:
411,352,25084,1,10,0:0:0:0:
289,312,25275,2,0,P|334:311|382:273,1,105.000004005432,2|2,0:0|1:2,0:0:0:0:
380,275,25848,1,10,0:0:0:0:
288,170,26039,6,0,P|249:198|245:252,1,105.000004005432,2|2,1:2|1:2,0:0:0:0:
168,341,26613,2,0,P|184:302|177:275,1,52.5000020027161,10|0,0:0|0:0,0:0:0:0:
132,241,26995,1,0,1:2:0:0:
264,335,27186,5,2,1:2:0:0:
58,374,27377,1,10,0:0:0:0:
281,328,27568,6,0,B|356:316|344:353|424:340,1,140,6|2,1:2|1:2,0:0:0:0:
511,233,28141,1,10,0:0:0:0:
441,160,28332,1,2,0:0:0:0:
369,207,28523,1,2,1:2:0:0:
493,109,28715,1,0,1:2:0:0:
436,40,28906,1,10,0:0:0:0:
303,50,29097,6,0,B|261:42|261:42|227:3|227:3|181:-6,2,140,6|6|0,1:2|1:2|1:2,0:0:0:0:
419,210,30052,5,8,0:0:0:0:
383,186,30148,1,8,0:0:0:0:
343,173,30243,1,10,0:3:0:0:
308,167,30339,1,8,0:3:0:0:
269,181,30434,1,6,0:3:0:0:
252,207,30530,1,4,0:3:0:0:
240,239,30625,6,0,B|238:300|283:309|278:385,1,140,6|2,1:2|1:2,0:0:0:0:
168,344,31199,1,10,0:0:0:0:
240,239,31390,1,2,0:0:0:0:
154,143,31581,2,0,P|105:165|7:181,1,140,0|8,1:2|0:0,0:0:0:0:
230,13,32154,6,0,P|272:51|266:142,2,140,4|4|0,1:2|1:2|1:2,0:0:0:0:
210,252,33109,5,8,0:0:0:0:
245,228,33205,1,8,0:0:0:0:
275,221,33300,1,10,0:3:0:0:
299,223,33396,1,8,0:3:0:0:
315,228,33492,1,6,0:3:0:0:
326,235,33587,1,4,0:3:0:0:
334,245,33683,1,6,0:3:0:0:
338,258,33778,1,4,0:3:0:0:
335,273,33874,6,0,B|313:290|286:295|286:295|269:311|256:340,2,105,6|2|6,1:2|0:0|0:3,0:0:0:0:
403,224,34638,2,0,B|415:198|408:170|408:170|386:157|384:122,2,105,2|2|2,1:2|0:0|0:0,0:0:0:0:
418,312,35402,2,0,B|437:338|461:343|461:343|497:330|515:346,2,105,0|2|6,1:2|0:0|0:3,0:0:0:0:
418,312,36167,5,2,1:2:0:0:
497,192,36358,1,0,1:2:0:0:
419,129,36549,2,0,P|433:168|437:179,1,35,8|8,0:0|0:0,0:0:0:0:
381,216,36740,1,2,1:2:0:0:
121,85,36931,5,6,1:2:0:0:
121,85,37122,1,0,0:0:0:0:
277,53,37313,5,10,0:0:0:0:
277,53,37504,1,0,1:2:0:0:
309,209,37695,5,10,0:0:0:0:
309,209,37886,1,0,1:2:0:0:
153,241,38078,5,10,0:0:0:0:
153,241,38269,1,0,1:2:0:0:
43,132,38460,5,10,0:0:0:0:
69,61,38651,1,0,1:2:0:0:
139,85,38842,1,8,0:0:0:0:
113,156,39033,1,2,1:2:0:0:
260,321,39224,5,10,0:0:0:0:
392,174,39415,1,2,1:2:0:0:
200,245,39606,1,10,0:0:0:0:
434,384,39797,6,0,B|458:293|426:311|451:215,1,167.999994873047,6|2,1:2|1:2,0:0:0:0:
450,217,40371,1,10,0:3:0:0:
335,265,40562,1,10,0:3:0:0:
238,129,40753,1,10,0:0:0:0:
357,351,40944,1,10,0:0:0:0:
506,163,41135,1,10,0:0:0:0:
413,15,41326,6,0,B|311:34|352:-12|231:8,1,167.999994873047,4|8,1:2|0:0,0:0:0:0:
237,18,41804,1,8,0:0:0:0:
237,18,41899,1,8,0:0:0:0:
105,164,42090,1,4,0:3:0:0:
25,89,42281,6,0,P|45:105|61:106,1,26.2500010013581,10|0,0:3|0:0,0:0:0:0:
331,157,42472,2,0,B|241:127|279:117|190:86,1,157.500006008148,10|0,0:0|0:0,0:0:0:0:
191,86,42855,5,6,1:2:0:0:
237,18,43046,1,2,0:0:0:0:
183,172,43237,1,0,1:2:0:0:
462,73,43428,6,0,P|419:84|376:92,1,87.5,10|0,0:0|1:2,0:0:0:0:
331,310,43810,2,0,P|373:298|416:290,1,87.5,10|0,0:0|1:2,0:0:0:0:
477,224,44192,1,8,0:0:0:0:
269,384,44383,6,0,P|236:338|233:205,1,175,0|0,1:2|1:2,0:0:0:0:
269,172,44957,1,8,0:0:0:0:
365,248,45148,1,2,1:2:0:0:
182,126,45339,5,10,0:0:0:0:
332,38,45530,1,2,1:2:0:0:
150,3,45721,1,10,0:0:0:0:
324,121,45912,1,6,1:2:0:0:
127,272,46103,6,0,P|79:281|37:300,1,87.5,2|0,0:0|1:2,0:0:0:0:
120,73,46485,2,0,P|168:64|210:45,1,87.5,10|0,0:0|1:2,0:0:0:0:
272,97,46867,1,10,0:0:0:0:
56,181,47058,1,0,1:2:0:0:
254,285,47250,1,8,0:0:0:0:
171,365,47441,6,0,B|197:264|161:290|194:186,1,175,0|0,1:2|1:2,0:0:0:0:
262,125,48014,1,8,0:0:0:0:
106,232,48205,1,0,1:2:0:0:
325,181,48396,5,10,0:0:0:0:
100,123,48587,1,2,1:2:0:0:
265,347,48778,1,10,0:0:0:0:
411,234,48969,6,0,P|445:211|453:77,1,161.000003070831,6|2,1:2|1:2,0:0:0:0:
466,100,49543,1,8,0:0:0:0:
420,245,49734,6,0,P|455:220|464:79,1,175,6|2,1:2|1:2,0:0:0:0:
479,99,50307,1,8,0:0:0:0:
432,255,50498,6,0,P|467:230|479:81,1,189.000000720978,6|2,1:2|1:2,0:0:0:0:
489,97,51071,1,8,0:0:0:0:
446,266,51262,6,0,P|481:241|494:90,1,203.000006195069,6|2,1:2|1:2,0:0:0:0:
335,4,51836,5,8,0:0:0:0:
321,19,51931,1,8,0:0:0:0:
317,36,52027,2,0,B|339:142|317:112|335:222,1,175,6|2,1:2|1:2,0:0:0:0:
137,47,52600,6,0,P|130:60|125:79,1,29.1666666666667,10|8,0:0|0:0,0:0:0:0:
173,132,52791,2,0,B|151:238|173:208|155:318,1,175,6|2,1:2|1:2,0:0:0:0:
436,137,53364,6,0,P|443:150|448:169,1,29.1666666666667,10|8,0:0|0:0,0:0:0:0:
399,211,53555,2,0,B|421:317|399:287|417:397,1,175,6|8,1:2|0:0,0:0:0:0:
415,384,54033,1,8,0:0:0:0:
415,384,54129,1,8,0:0:0:0:
256,273,54320,1,4,0:3:0:0:
240,246,54415,1,4,0:3:0:0:
244,215,54511,6,0,P|272:223|290:232,1,43.75,10|0,0:3|0:0,0:0:0:0:
423,127,54702,2,0,P|395:119|377:110,1,43.75,10|8,0:3|0:3,0:0:0:0:
286,78,54893,2,0,P|278:106|269:124,1,43.75,10|0,0:0|0:0,0:0:0:0:
366,258,55084,2,0,P|374:230|383:212,1,43.75,10|0,0:0|0:0,0:0:0:0:
244,215,55275,6,0,P|260:256|266:310,1,87.5,6|0,1:2|0:0,0:0:0:0:
423,127,55657,2,0,P|407:86|401:32,1,87.5,10|0,0:0|1:2,0:0:0:0:
331,4,56039,1,10,0:0:0:0:
496,75,56230,1,0,1:2:0:0:
380,216,56422,1,8,0:0:0:0:
217,142,56613,6,0,B|173:139|150:164|150:164|115:157|115:157|80:179|33:163,1,175,0|0,1:2|1:2,0:0:0:0:
11,105,57186,1,8,0:0:0:0:
101,235,57377,1,2,1:2:0:0:
191,84,57568,1,10,0:0:0:0:
31,246,57759,1,2,1:2:0:0:
201,372,57950,1,10,0:0:0:0:
275,180,58141,1,6,1:2:0:0:
96,30,58332,6,0,P|115:81|117:124,1,87.5,2|0,0:0|1:2,0:0:0:0:
370,210,58715,2,0,P|351:159|349:116,1,87.5,10|0,0:0|1:2,0:0:0:0:
137,288,59097,1,10,0:0:0:0:
329,368,59288,1,0,1:2:0:0:
275,180,59479,1,8,0:0:0:0:
36,373,59670,6,0,P|50:320|55:185,1,175,0|0,1:2|1:2,0:0:0:0:
138,109,60243,1,8,0:0:0:0:
6,1,60434,1,0,1:2:0:0:
168,191,60625,5,10,0:0:0:0:
288,15,60816,1,2,1:2:0:0:
45,134,61008,1,10,0:0:0:0:
273,339,61199,6,0,P|335:314|436:322,1,146.999995513916,6|2,1:2|1:2,0:0:0:0:
320,155,61772,1,8,0:0:0:0:
269,329,61963,6,0,P|335:295|428:314,1,161.000003070831,6|2,1:2|1:2,0:0:0:0:
320,155,62536,1,8,0:0:0:0:
262,313,62727,6,0,P|329:273|421:298,1,175,6|2,1:2|1:2,0:0:0:0:
320,155,63300,1,8,0:0:0:0:
489,289,63492,6,2,B|463:214|385:216|344:348|303:353|228:288,1,273.000001041412,6|2,1:2|1:2,0:1:0:0:
320,155,64065,6,0,P|326:181|328:196,1,33.8333343658448,8|8,0:0|3:0,0:0:0:0:
112,97,64256,2,0,B|167:111|167:111|197:164|197:164|261:180,1,175,6|2,1:2|1:2,0:0:0:0:
288,263,64829,6,0,P|282:289|283:302,1,29.1666666666667,10|8,0:0|0:0,0:0:0:0:
496,205,65020,2,0,B|441:219|441:219|411:272|411:272|347:288,1,175,6|2,1:2|1:2,0:0:0:0:
208,332,65593,6,0,P|214:358|214:371,1,29.1666666666667,10|8,0:0|0:0,0:0:0:0:
0,274,65784,2,0,B|55:288|55:288|85:341|85:341|149:357,1,175,6|8,1:2|0:0,0:0:0:0:
140,354,66262,1,8,0:0:0:0:
140,354,66358,1,8,0:0:0:0:
232,242,66549,1,4,0:3:0:0:
243,213,66644,1,4,0:3:0:0:
232,183,66740,6,0,P|199:191|180:203,1,43.75,10|0,0:3|0:0,0:0:0:0:
303,44,66931,2,0,P|336:36|355:24,1,43.75,10|8,0:3|0:3,0:0:0:0:
341,180,67122,2,0,P|351:213|363:232,1,43.75,10|0,0:0|0:0,0:0:0:0:
172,91,67313,2,0,P|164:58|152:39,1,43.75,6|4,0:3|0:3,0:0:0:0:
24,275,67504,5,6,1:2:0:0:
40,346,67695,1,0,1:2:0:0:
156,208,67886,5,10,0:0:0:0:
151,283,68078,1,0,1:2:0:0:
302,180,68269,5,10,0:0:0:0:
264,258,68460,1,2,1:2:0:0:
310,163,68651,1,10,0:0:0:0:
257,270,68842,1,2,1:2:0:0:
228,116,69033,5,2,0:0:0:0:
341,253,69224,1,2,1:2:0:0:
214,102,69415,2,0,P|227:57|228:15,1,87.5,8|0,0:0|1:2,0:0:0:0:
482,108,69797,5,10,0:0:0:0:
282,191,69988,1,2,1:2:0:0:
346,53,70179,1,10,0:0:0:0:
435,244,70371,1,6,1:2:0:0:
85,248,70562,5,2,0:0:0:0:
142,137,70753,1,0,1:2:0:0:
242,288,70944,5,10,0:0:0:0:
268,125,71135,1,0,1:2:0:0:
450,273,71326,5,10,0:0:0:0:
394,106,71517,1,2,1:2:0:0:
453,292,71708,1,10,0:0:0:0:
388,88,71899,1,2,1:2:0:0:
351,297,72090,5,2,0:0:0:0:
480,47,72281,1,2,1:2:0:0:
345,312,72472,2,0,P|299:325|248:344,1,87.5,8|0,0:0|1:2,0:0:0:0:
93,143,72855,6,0,P|83:149|49:158,1,43.75,10|0,0:3|0:0,0:0:0:0:
154,180,73046,2,0,P|164:174|198:165,1,43.75,10|0,0:3|0:0,0:0:0:0:
96,255,73237,1,6,0:3:0:0:
140,316,73428,1,2,0:0:0:0:
0,304,73619,6,0,B|101:341|126:340|219:194|231:196|370:293,1,393.750015020371,6|0,1:2|0:0,0:0:0:0:
354,282,75148,1,2,0:0:0:0:
359,288,76485,6,0,P|399:300|501:362,1,161.000003070831,4|0,1:2|1:2,0:0:0:0:
462,103,77058,1,10,0:0:0:0:
399,144,77250,2,0,P|410:182|412:222,1,80.5000015354157,2|0,0:0|1:2,0:0:0:0:
237,287,77632,1,0,1:2:0:0:
187,173,77823,6,0,B|207:86|163:112|187:-1,1,161.000003070831,10|0,0:0|1:2,0:0:0:0:
110,81,78396,1,0,1:2:0:0:
268,165,78587,1,10,0:0:0:0:
343,109,78778,1,2,0:0:0:0:
105,284,78969,5,0,1:2:0:0:
254,335,79160,1,0,1:2:0:0:
84,275,79351,1,8,0:0:0:0:
271,342,79543,6,0,P|420:315|445:311,1,161.000003070831,4|0,1:2|1:2,0:0:0:0:
475,156,80116,1,10,0:0:0:0:
401,174,80307,2,0,P|351:198|344:234,1,80.5000015354157,2|0,0:0|1:2,0:0:0:0:
268,145,80689,1,0,1:2:0:0:
336,39,80880,1,10,0:0:0:0:
164,128,81071,1,2,0:0:0:0:
273,289,81262,6,0,B|289:294|325:282|325:282|359:302|359:302|389:287|452:284,1,161.000003070831,0|10,1:2|0:0,0:0:0:0:
469,341,81836,1,2,0:0:0:0:
359,122,82027,5,4,0:3:0:0:
312,177,82218,1,4,0:3:0:0:
428,125,82409,1,4,0:3:0:0:
243,0,82600,6,0,P|221:33|191:164,1,161.000003070831,4|0,1:2|1:2,0:0:0:0:
256,301,83173,1,10,0:0:0:0:
190,285,83364,2,0,P|134:294|102:313,1,80.5000015354157,2|0,0:0|1:2,0:0:0:0:
24,227,83746,1,0,1:2:0:0:
105,143,83937,6,0,B|84:119|93:81|93:81|66:63|66:63|72:25|53:-8,1,161.000003070831,10|0,0:0|1:2,0:0:0:0:
22,134,84511,1,0,1:2:0:0:
141,20,84702,1,10,0:0:0:0:
14,153,84893,1,2,0:0:0:0:
237,252,85084,5,0,1:2:0:0:
319,117,85275,1,0,1:2:0:0:
145,274,85466,1,8,0:0:0:0:
338,204,85657,6,0,B|421:220|398:245|500:267,1,161.000003070831,4|0,1:2|1:2,0:0:0:0:
486,263,86230,1,10,0:0:0:0:
364,345,86422,1,2,0:0:0:0:
448,369,86613,1,0,1:2:0:0:
331,275,86804,1,0,1:2:0:0:
457,165,86995,1,10,0:0:0:0:
382,50,87186,1,2,0:0:0:0:
278,149,87377,5,0,1:2:0:0:
446,68,87568,1,0,1:2:0:0:
300,8,87759,1,10,0:0:0:0:
366,141,87950,1,2,0:0:0:0:
138,222,88141,5,4,0:3:0:0:
228,3,88332,1,4,0:3:0:0:
137,235,88523,2,0,P|145:253|150:278,1,40.2500007677078,4|12,0:3|3:0,0:0:0:0:
303,224,88715,2,0,P|286:186|275:133,1,80.5000015354157,2|0,1:2|0:0,0:0:0:0:
