osu file format v14

[General]
AudioFilename: audio.mp3
AudioLeadIn: 0
PreviewTime: 42186
Countdown: 0
SampleSet: Soft
StackLeniency: 0.7
Mode: 0
LetterboxInBreaks: 0
WidescreenStoryboard: 1

[Editor]
DistanceSpacing: 1
BeatDivisor: 4
GridSize: 32
TimelineZoom: 1.5

[Metadata]
Title:sky & blue (TV Size)
TitleUnicode:sky & blue (TV Size)
Artist:GIRLFRIEND
ArtistUnicode:GIRLFRIEND
Creator:-Cronik
Version:Pile's Normal
Source:ブラッククローバー
Tags:AyameMyMommy cjstmdals koldnoodl pile black clover japanese anime rock jrock j-rock op opening 8 female vocals MINA MIREI SAKIKA NAGISA
BeatmapID:3872945
BeatmapSetID:1877293

[Difficulty]
HPDrainRate:2.5
CircleSize:3.4
OverallDifficulty:4
ApproachRate:5.5
SliderMultiplier:0.999999999999999
SliderTickRate:1

[Events]
//Background and Video events
0,0,"bg nero.jpg",0,0
Video,0,"video.mp4"
//Break Periods
//Storyboard Layer 0 (Background)
//Storyboard Layer 1 (Fail)
//Storyboard Layer 2 (Pass)
//Storyboard Layer 3 (Foreground)
//Storyboard Layer 4 (Overlay)
//Storyboard Sound Samples

[TimingPoints]
-2813,382.165605095541,4,2,5,60,1,0
3110,-100,4,2,5,70,0,0
15339,-100,4,2,5,60,0,0
22647,-100,4,2,5,60,0,0
27568,-100,4,2,5,70,0,0
33082,-100,4,2,5,70,0,0
42855,-100,4,2,5,80,0,1
60908,-100,4,2,5,80,0,1
71343,-100,4,2,5,80,0,1
73620,-100,4,2,5,53,0,0
76485,-100,4,2,5,70,0,0
76560,-100,4,2,5,70,0,0
97430,-100,4,2,5,70,0,0
102647,-100,4,2,5,70,0,0
107864,-100,4,2,5,70,0,0
121777,-100,4,2,5,70,0,0
149603,-100,4,2,5,70,0,0
160038,-100,4,2,5,70,0,0
165256,-100,4,2,5,70,0,0
186125,-100,4,2,5,70,0,0
193734,-100,4,2,5,70,0,0
209386,-100,4,2,5,70,0,0
237212,-100,4,2,5,70,0,0
244168,-100,4,2,5,70,0,0
258081,-100,4,2,5,70,0,0
265038,-100,4,2,5,70,0,0
268516,-100,4,2,5,70,0,0
271016,-100,4,2,5,70,0,0
273734,-100,4,2,5,70,0,0
294603,-100,4,2,5,70,0,0
299820,-100,4,2,5,70,0,0

[Colours]
Combo1 : 255,128,64
Combo2 : 207,207,207
Combo3 : 202,0,0
Combo4 : 128,255,255

[HitObjects]
40,239,3110,6,0,P|9:200|13:152,1,99.9999999999999,4|0,1:2|1:1,0:0:0:0:
54,123,3683,1,8,2:2:0:0:
54,123,3874,2,0,L|159:100,1,99.9999999999999,0|0,0:0|1:1,0:0:0:0:
189,68,4448,1,8,2:2:0:0:
189,68,4639,2,0,L|302:97,1,99.9999999999999,0|0,0:0|1:1,0:0:0:0:
325,132,5212,1,8,2:2:0:0:
325,132,5403,1,0,0:0:0:0:
258,207,5785,2,0,L|271:270,1,50,0|8,1:1|2:2,0:0:0:0:
293,299,6167,6,0,P|345:295|391:335,1,99.9999999999999,4|0,1:2|1:1,0:0:0:0:
432,345,6741,1,8,2:2:0:0:
432,345,6932,2,0,L|458:228,1,99.9999999999999,0|0,0:0|1:1,0:0:0:0:
498,222,7505,1,8,2:2:0:0:
498,222,7696,2,0,L|474:119,1,99.9999999999999,0|0,0:0|1:1,0:0:0:0:
453,85,8269,1,8,2:2:0:0:
453,85,8460,1,0,0:0:0:0:
362,126,8843,2,0,L|309:108,1,50,0|8,1:1|2:2,0:0:0:0:
280,73,9225,6,0,L|165:100,1,99.9999999999999,4|0,1:2|1:1,0:0:0:0:
138,84,9798,1,8,2:2:0:0:
138,84,9989,2,0,P|108:122|109:171,1,99.9999999999999,0|0,0:0|1:1,0:0:0:0:
129,218,10562,1,8,2:2:0:0:
129,218,10753,2,0,L|230:249,1,99.9999999999999,0|0,0:0|1:1,0:0:0:0:
274,274,11327,1,8,2:2:0:0:
274,274,11518,1,0,0:0:0:0:
220,357,11900,2,0,L|170:346,1,50,0|8,1:1|2:2,0:0:0:0:
129,319,12282,6,0,P|87:318|38:353,1,99.9999999999999,4|0,1:2|1:1,0:0:0:0:
0,335,12855,1,8,2:2:0:0:
0,335,13046,2,0,L|25:229,1,99.9999999999999,0|0,0:0|1:1,0:0:0:0:
56,200,13620,1,8,2:2:0:0:
56,200,13811,2,0,P|105:209|154:175,1,99.9999999999999,0|0,0:0|1:1,0:0:0:0:
179,147,14384,2,0,L|167:82,1,50,8|0,2:2|0:0,0:0:0:0:
137,60,14766,1,0,3:1:0:0:
225,10,15148,5,8,2:2:0:0:
225,10,15339,2,0,L|335:32,1,99.9999999999999,4|2,1:2|1:2,0:0:0:0:
372,25,15913,1,8,2:2:0:0:
427,108,16295,2,0,P|425:147|422:175,1,50,0|2,1:1|2:2,0:0:0:0:
395,200,16677,1,10,2:2:0:0:
395,200,16868,1,2,1:2:0:0:
307,150,17250,1,2,1:2:0:0:
211,167,17632,1,2,2:2:0:0:
211,167,17823,2,0,P|183:209|196:263,1,99.9999999999999,2|10,1:2|2:2,0:0:0:0:
198,304,18397,1,0,1:1:0:0:
270,373,18779,6,0,L|370:351,1,99.9999999999999,2|2,1:2|2:2,0:0:0:0:
413,370,19352,2,0,P|447:334|437:281,1,99.9999999999999,2|10,1:2|2:2,0:0:0:0:
400,257,19925,1,2,1:2:0:0:
459,176,20308,2,0,L|447:120,1,50,2|10,1:2|2:2,0:0:0:0:
416,95,20690,1,2,2:2:0:0:
416,95,20881,2,0,P|361:92|325:65,1,99.9999999999999,2|10,1:2|2:2,0:0:0:0:
241,15,21645,5,6,1:2:0:0:
178,92,22027,1,10,2:2:0:0:
90,43,22409,1,2,1:2:0:0:
32,124,22792,1,10,2:2:0:0:
113,180,23174,2,0,L|93:279,1,99.9999999999999,2|8,1:2|2:2,0:0:0:0:
65,319,23747,1,2,1:2:0:0:
142,382,24129,2,0,L|209:365,1,50,2|10,1:2|2:2,0:0:0:0:
224,332,24511,6,0,P|272:324|322:351,1,99.9999999999999,2|2,1:2|1:2,0:0:0:0:
358,382,25085,1,10,2:2:0:0:
358,382,25276,1,2,1:2:0:0:
433,316,25658,2,0,L|449:257,1,50,2|10,1:2|2:2,0:0:0:0:
488,241,26040,2,0,L|464:137,1,99.9999999999999,2|2,1:2|1:2,0:0:0:0:
429,108,26613,1,10,2:2:0:0:
368,187,26995,2,0,L|306:202,1,50,0|2,1:1|1:2,0:0:0:0:
282,232,27378,1,10,2:2:0:0:
282,232,27569,6,0,L|182:209,1,99.9999999999999,6|2,1:2|1:2,0:0:0:0:
140,233,28142,1,10,2:2:0:0:
60,172,28524,2,0,L|47:121,1,50,2|2,1:2|1:2,0:0:0:0:
22,80,28906,1,10,2:2:0:0:
22,80,29097,1,6,1:2:0:0:
110,33,29479,2,0,P|158:27|203:72,1,99.9999999999999,6|0,1:2|1:2,0:0:0:0:
227,96,30053,1,8,2:2:0:0:
306,165,30435,1,0,3:3:0:0:
306,165,30626,6,0,L|424:136,1,99.9999999999999,6|2,1:2|1:2,0:0:0:0:
440,107,31199,1,10,2:2:0:0:
490,193,31581,2,0,L|471:252,1,50,2|0,1:2|0:0,0:0:0:0:
487,293,31964,1,10,2:2:0:0:
487,293,32155,1,6,1:2:0:0:
406,351,32537,2,0,P|363:329|303:332,1,99.9999999999999,6|0,1:2|1:2,0:0:0:0:
266,349,33110,1,8,2:2:0:0:
195,282,33492,2,0,L|129:298,1,50,2|2,3:2|3:2,0:0:0:0:
97,281,33874,6,0,L|79:362,2,74.9999999999999,6|2|2,1:2|2:2|2:2,0:0:0:0:
51,253,34639,2,0,P|20:203|33:167,1,99.9999999999999,2|8,1:2|2:2,0:0:0:0:
74,136,35212,1,2,2:2:0:0:
74,136,35403,2,0,L|51:54,2,74.9999999999999,2|2|2,1:2|2:2|2:2,0:0:0:0:
123,127,36167,2,0,P|169:127|211:166,1,99.9999999999999,2|8,1:2|2:2,0:0:0:0:
249,197,36741,1,2,3:2:0:0:
249,197,36932,5,6,1:2:0:0:
329,137,37314,1,10,2:2:0:0:
262,62,37696,1,2,1:2:0:0:
352,18,38078,1,10,2:2:0:0:
426,84,38460,2,0,P|452:114|446:175,1,99.9999999999999,2|8,1:2|2:2,0:0:0:0:
507,252,39225,2,0,L|488:313,1,50,10|2,2:2|1:2,0:0:0:0:
461,339,39607,1,10,2:2:0:0:
461,339,39798,6,0,L|350:368,1,99.9999999999999,6|2,1:2|2:2,0:0:0:0:
322,335,40371,1,2,1:2:0:0:
238,279,40753,2,0,L|225:214,1,50,10|10,2:2|2:2,0:0:0:0:
205,191,41136,1,10,2:2:0:0:
205,191,41327,2,0,L|100:167,1,99.9999999999999,6|8,1:2|2:2,0:0:0:0:
73,205,41900,1,8,2:2:0:0:
9,135,42282,1,10,2:2:0:0:
9,135,42473,1,10,2:2:0:0:
84,69,42855,6,0,P|123:71|172:29,1,99.9999999999999,6|0,1:2|1:1,0:0:0:0:
215,17,43429,2,0,L|263:29,1,50,10|0,2:2|1:1,0:0:0:0:
299,63,43811,1,10,2:2:0:0:
377,125,44193,2,0,L|438:111,1,50,8|0,2:2|1:1,0:0:0:0:
471,93,44575,2,0,P|500:130|479:195,1,99.9999999999999,0|8,0:0|2:2,0:0:0:0:
466,223,45148,1,2,1:2:0:0:
466,223,45339,2,0,L|484:286,1,50,10|2,2:2|1:2,0:0:0:0:
461,317,45722,2,0,L|413:329,1,50,10|6,2:2|1:2,0:0:0:0:
381,368,46104,6,0,L|262:341,1,99.9999999999999,2|10,2:2|2:2,0:0:0:0:
198,292,46868,1,10,2:2:0:0:
275,228,47250,2,0,L|261:169,1,50,8|0,2:2|1:1,0:0:0:0:
289,136,47632,2,0,L|265:26,1,99.9999999999999,0|8,0:0|2:2,0:0:0:0:
226,21,48206,1,0,1:1:0:0:
226,21,48397,2,0,L|166:38,1,50,10|2,2:2|1:2,0:0:0:0:
153,80,48779,1,10,2:2:0:0:
153,80,48970,6,0,P|104:85|63:58,1,99.9999999999999,6|2,1:2|1:2,0:0:0:0:
0,135,49734,2,0,P|27:175|21:224,1,99.9999999999999,6|2,1:2|1:2,0:0:0:0:
100,286,50499,2,0,P|148:280|189:307,1,99.9999999999999,6|2,1:2|1:2,0:0:0:0:
253,231,51263,2,0,P|225:190|231:141,1,99.9999999999999,6|0,1:2|0:0,0:0:0:0:
292,62,52027,6,0,L|403:90,1,99.9999999999999,6|2,1:2|1:2,0:0:0:0:
437,67,52601,1,10,2:2:0:0:
437,67,52792,2,0,P|463:108|449:166,1,99.9999999999999,6|2,1:2|1:2,0:0:0:0:
480,205,53365,1,10,2:2:0:0:
480,205,53556,2,0,P|436:207|385:241,1,99.9999999999999,6|8,1:2|2:2,0:0:0:0:
364,279,54129,1,8,2:2:0:0:
285,340,54511,2,0,L|224:325,1,50,10|10,2:2|2:2,0:0:0:0:
199,294,54894,2,0,L|138:309,1,50,10|10,2:2|2:2,0:0:0:0:
107,331,55276,6,0,L|76:226,1,99.9999999999999,4|10,1:2|2:2,0:0:0:0:
8,163,56040,1,10,2:2:0:0:
73,87,56422,2,0,L|136:106,1,50,8|0,2:2|1:1,0:0:0:0:
153,136,56804,2,0,P|195:139|247:96,1,99.9999999999999,0|8,0:0|2:2,0:0:0:0:
272,68,57378,1,2,1:2:0:0:
272,68,57569,2,0,L|340:86,1,50,10|2,2:2|1:2,0:0:0:0:
362,107,57951,2,0,L|377:167,1,50,10|6,2:2|1:2,0:0:0:0:
410,189,58333,6,0,L|385:300,1,99.9999999999999,2|10,2:2|2:2,0:0:0:0:
315,356,59097,1,10,2:2:0:0:
238,291,59479,2,0,L|189:302,1,50,8|0,2:2|1:1,0:0:0:0:
159,342,59862,2,0,P|118:314|70:320,1,99.9999999999999,0|8,0:0|2:2,0:0:0:0:
33,295,60435,1,0,1:1:0:0:
33,295,60626,2,0,L|14:229,1,50,10|2,2:2|1:2,0:0:0:0:
16,196,61008,1,10,2:2:0:0:
16,196,61199,6,0,P|69:201|109:169,1,99.9999999999999,6|2,1:2|1:2,0:0:0:0:
176,104,61964,2,0,P|229:99|269:131,1,99.9999999999999,6|2,1:2|1:2,0:0:0:0:
305,216,62728,2,0,P|358:221|398:189,1,99.9999999999999,6|2,1:2|1:2,0:0:0:0:
490,166,63492,2,0,B|524:205|524:205|504:262,1,99.9999999999999,4|2,1:2|1:2,0:0:0:0:
479,292,64065,1,8,2:2:0:0:
479,292,64257,6,0,P|430:289|384:324,1,99.9999999999999,6|2,1:2|1:2,0:0:0:0:
357,355,64830,1,10,2:2:0:0:
357,355,65021,2,0,L|248:323,1,99.9999999999999,6|2,1:2|1:2,0:0:0:0:
217,315,65594,1,10,2:2:0:0:
217,315,65785,2,0,P|193:281|211:212,1,99.9999999999999,6|8,1:2|2:2,0:0:0:0:
229,185,66358,1,8,2:2:0:0:
292,107,66741,2,0,L|278:52,1,50,10|2,2:2|1:2,0:0:0:0:
244,27,67123,2,0,L|188:40,1,50,10|2,2:2|3:2,0:0:0:0:
164,77,67505,6,0,L|47:51,1,99.9999999999999,14|10,2:2|2:2,0:0:0:0:
17,142,68269,2,0,L|32:195,1,50,10|2,2:2|1:2,0:0:0:0:
76,209,68651,2,0,L|62:270,1,50,10|2,2:2|1:2,0:0:0:0:
48,304,69034,2,0,L|-5:321,2,50,2|2|10,2:2|1:2|2:2,0:0:0:0:
126,365,69798,2,0,P|176:353|232:342,1,99.9999999999999,10|10,2:2|2:2,0:0:0:0:
266,319,70371,1,6,1:2:0:0:
266,319,70562,6,0,P|305:313|355:364,1,99.9999999999999,2|10,2:2|2:2,0:0:0:0:
442,309,71327,2,0,L|458:254,1,50,10|2,2:2|1:2,0:0:0:0:
440,213,71709,2,0,L|389:199,1,50,10|2,2:2|1:2,0:0:0:0:
360,161,72091,2,0,L|347:110,2,50,2|2|10,2:2|1:2|2:2,0:0:0:0:
275,214,72855,2,0,L|250:111,1,99.9999999999999,2|2,3:2|3:2,0:0:0:0:
211,96,73429,1,2,2:2:0:0:
211,96,73620,6,0,P|104:87|61:157,1,200,6|2,1:2|2:2,0:0:0:0:
132,345,75148,2,0,P|182:334|243:319,1,99.9999999999999,2|2,2:2|2:2,0:0:0:0:
327,302,75913,1,2,2:2:0:0:
422,332,76295,1,2,2:2:0:0:
422,332,76486,6,0,L|429:212,1,99.9999999999999,4|0,1:2|1:1,0:0:0:0:
420,187,77059,1,8,2:2:0:0:
420,187,77250,2,0,P|362:184|318:156,1,99.9999999999999,0|0,0:0|1:1,0:0:0:0:
310,121,77823,1,8,2:2:0:0:
310,121,78015,2,0,L|195:148,1,99.9999999999999,0|0,0:0|0:0,0:0:0:0:
170,132,78588,1,8,2:2:0:0:
170,132,78779,1,0,0:0:0:0:
204,225,79161,2,0,L|191:288,1,50,0|8,1:1|2:2,0:0:0:0:
195,323,79543,6,0,P|143:319|97:359,1,99.9999999999999,4|0,1:2|1:1,0:0:0:0:
63,368,80116,1,8,2:2:0:0:
63,368,80308,2,0,L|37:251,1,99.9999999999999,0|0,0:0|0:0,0:0:0:0:
13,235,80881,1,8,2:2:0:0:
13,235,81072,2,0,L|37:132,1,99.9999999999999,0|0,0:0|0:0,0:0:0:0:
55,93,81645,1,8,2:2:0:0:
55,93,81836,1,0,0:0:0:0:
149,126,82218,2,0,L|202:108,1,50,0|8,1:1|2:2,0:0:0:0:
232,75,82601,6,0,L|347:102,1,99.9999999999999,4|0,1:2|1:2,0:0:0:0:
379,82,83174,1,8,2:2:0:0:
379,82,83365,2,0,P|409:120|408:169,1,99.9999999999999,0|0,0:0|1:2,0:0:0:0:
381,213,83938,1,8,2:2:0:0:
381,213,84129,2,0,L|280:244,1,99.9999999999999,0|0,0:0|1:1,0:0:0:0:
240,263,84702,1,8,2:2:0:0:
240,263,84894,1,0,0:0:0:0:
258,361,85276,2,0,L|315:349,1,50,0|8,1:1|0:0,0:0:0:0:
348,323,85658,6,0,P|390:322|439:357,1,99.9999999999999,4|0,1:2|1:2,0:0:0:0:
490,363,86231,1,8,2:2:0:0:
490,363,86422,2,0,L|464:246,1,99.9999999999999,0|0,0:0|1:1,0:0:0:0:
447,225,86995,1,8,2:2:0:0:
447,225,87186,2,0,L|471:122,1,99.9999999999999,0|0,0:0|1:1,0:0:0:0:
489,81,87760,1,8,2:2:0:0:
402,30,88142,2,0,L|341:47,1,50,8|8,2:2|2:2,0:0:0:0:
312,68,88524,1,8,2:2:0:0:
312,68,88715,1,4,1:2:0:0:
